osu file format v14

[General]
AudioFilename: audio.mp3
AudioLeadIn: 0
PreviewTime: 56676
Countdown: 0
SampleSet: Soft
StackLeniency: 0.7
Mode: 3
LetterboxInBreaks: 0
SpecialStyle: 0
WidescreenStoryboard: 0

[Editor]
DistanceSpacing: 1.1
BeatDivisor: 4
GridSize: 32
TimelineZoom: 1

[Metadata]
Title:a-gain
TitleUnicode:a-gain
Artist:Ray
ArtistUnicode:Ray
Creator:- Ly0572 -
Version:Normal
Source:蒼の彼方のフォーリズム
Tags:ao no kanata four rhythm sprite aokana ed ending tv size
BeatmapID:1947371
BeatmapSetID:932737

[Difficulty]
HPDrainRate:5
CircleSize:4
OverallDifficulty:5
ApproachRate:5
SliderMultiplier:1.4
SliderTickRate:1

[Events]
//Background and Video events
Video,0,"EDvid.flv"
0,0,"misaki2.png",0,0
//Break Periods
//Storyboard Layer 0 (Background)
//Storyboard Layer 1 (Fail)
//Storyboard Layer 2 (Pass)
//Storyboard Layer 3 (Foreground)
//Storyboard Sound Samples

[TimingPoints]
455,449.775112443778,4,2,1,100,1,0
58026,-100,4,2,1,100,0,1
70844,-100,4,2,1,100,0,0
72419,-100,4,2,1,100,0,1
85012,-100,4,2,1,100,0,0

[HitObjects]
448,192,455,5,0,0:0:0:0:
64,192,455,128,2,679:0:0:0:0:
320,192,679,128,0,904:0:0:0:0:
192,192,904,128,0,1129:0:0:0:0:
448,192,1129,128,0,1354:0:0:0:0:
320,192,1354,128,0,1804:0:0:0:0:
64,192,1354,1,0,0:0:0:0:
64,192,1804,128,0,2029:0:0:0:0:
192,192,2029,128,0,2254:0:0:0:0:
320,192,2254,128,0,2478:0:0:0:0:
448,192,2478,128,0,2703:0:0:0:0:
192,192,2703,1,0,0:0:0:0:
64,192,2703,128,0,3153:0:0:0:0:
320,192,3153,128,0,3378:0:0:0:0:
192,192,3378,128,0,3603:0:0:0:0:
448,192,3603,128,0,3828:0:0:0:0:
64,192,3603,1,0,0:0:0:0:
320,192,3828,128,0,4053:0:0:0:0:
192,192,3828,1,0,0:0:0:0:
64,192,4053,128,0,4278:0:0:0:0:
448,192,4278,128,0,4502:0:0:0:0:
192,192,4502,128,0,4727:0:0:0:0:
448,192,4727,128,0,5177:0:0:0:0:
64,192,4727,1,0,0:0:0:0:
64,192,5177,1,0,0:0:0:0:
320,192,5177,128,0,5627:0:0:0:0:
192,192,5627,128,0,6077:0:0:0:0:
448,192,5627,1,0,0:0:0:0:
320,192,6077,128,0,6302:0:0:0:0:
64,192,6077,1,0,0:0:0:0:
448,192,6302,1,0,0:0:0:0:
64,192,6302,128,0,6526:0:0:0:0:
192,192,6526,128,0,6751:0:0:0:0:
192,192,6976,128,0,7201:0:0:0:0:
64,192,7651,1,0,0:0:0:0:
448,192,7651,128,2,7876:0:0:0:0:
192,192,7876,128,0,8101:0:0:0:0:
320,192,8101,128,0,8326:0:0:0:0:
64,192,8326,128,0,8550:0:0:0:0:
448,192,8550,128,0,9000:0:0:0:0:
192,192,8550,1,0,0:0:0:0:
64,192,9000,128,0,9225:0:0:0:0:
320,192,9225,128,0,9450:0:0:0:0:
192,192,9450,128,0,9675:0:0:0:0:
448,192,9675,128,0,9900:0:0:0:0:
64,192,9900,128,0,10350:0:0:0:0:
320,192,9900,1,0,0:0:0:0:
448,192,10350,128,0,10574:0:0:0:0:
320,192,10574,128,0,10799:0:0:0:0:
192,192,10799,128,0,11024:0:0:0:0:
64,192,11024,128,0,11249:0:0:0:0:
448,192,11249,128,0,11474:0:0:0:0:
320,192,11249,1,0,0:0:0:0:
192,192,11474,128,0,11699:0:0:0:0:
192,192,11924,128,0,12149:0:0:0:0:
320,192,11924,1,0,0:0:0:0:
64,192,12149,128,0,12374:0:0:0:0:
192,192,12598,1,0,0:0:0:0:
64,192,12598,128,0,12823:0:0:0:0:
448,192,12823,128,0,13048:0:0:0:0:
320,192,12823,1,0,0:0:0:0:
192,192,13048,128,0,13273:0:0:0:0:
320,192,13273,128,0,13498:0:0:0:0:
448,192,13273,1,0,0:0:0:0:
64,192,13498,128,0,13723:0:0:0:0:
448,192,13723,128,0,13948:0:0:0:0:
320,192,13723,1,0,0:0:0:0:
192,192,13948,128,0,14173:0:0:0:0:
320,192,14173,128,0,14398:0:0:0:0:
448,192,14398,128,0,14847:0:0:0:0:
192,192,14847,1,0,0:0:0:0:
64,192,14847,128,2,15072:0:0:0:0:
192,192,15522,1,0,0:0:0:0:
64,192,15522,128,2,15747:0:0:0:0:
448,192,16422,128,0,16646:0:0:0:0:
320,192,16646,128,0,16871:0:0:0:0:
192,192,16871,128,0,17096:0:0:0:0:
64,192,17096,128,0,17321:0:0:0:0:
448,192,17321,128,0,18446:0:0:0:0:
320,192,17321,1,0,0:0:0:0:
64,192,18446,1,0,0:0:0:0:
192,192,18446,128,2,18670:0:0:0:0:
64,192,19120,1,0,0:0:0:0:
192,192,19120,128,2,19345:0:0:0:0:
448,192,20020,128,0,20245:0:0:0:0:
192,192,20245,128,0,20694:0:0:0:0:
64,192,20245,1,0,0:0:0:0:
320,192,20469,1,0,0:0:0:0:
64,192,20694,128,0,21594:0:0:0:0:
448,192,20919,1,0,0:0:0:0:
320,192,21144,1,0,0:0:0:0:
192,192,21369,1,0,0:0:0:0:
448,192,21594,128,0,22044:0:0:0:0:
192,192,22044,1,0,0:0:0:0:
320,192,22044,128,2,22269:0:0:0:0:
192,192,22718,1,0,0:0:0:0:
320,192,22718,128,2,22943:0:0:0:0:
64,192,23618,128,0,23843:0:0:0:0:
192,192,23843,128,0,24068:0:0:0:0:
320,192,24068,128,0,24293:0:0:0:0:
448,192,24293,128,0,24517:0:0:0:0:
64,192,24517,128,0,25642:0:0:0:0:
192,192,24517,1,0,0:0:0:0:
192,192,24967,1,0,0:0:0:0:
448,192,25642,1,0,0:0:0:0:
320,192,25642,128,2,25867:0:0:0:0:
448,192,26317,1,0,0:0:0:0:
320,192,26317,128,2,26541:0:0:0:0:
192,192,26991,1,0,0:0:0:0:
320,192,27216,1,0,0:0:0:0:
448,192,27216,128,2,27441:0:0:0:0:
64,192,27666,128,0,28341:0:0:0:0:
192,192,27891,128,0,28341:0:0:0:0:
448,192,28341,128,0,29128:0:0:0:0:
320,192,28790,128,0,29128:0:0:0:0:
64,192,29240,1,4,0:0:0:0:
448,192,29240,1,2,0:0:0:0:
192,192,29240,128,0,29465:0:0:0:0:
320,192,29465,128,0,29690:0:0:0:0:
448,192,29690,1,8,0:0:0:0:
64,192,29690,1,0,0:0:0:0:
192,192,29915,1,0,0:0:0:0:
448,192,30140,1,0,0:0:0:0:
320,192,30140,128,2,30365:0:0:0:0:
64,192,30365,1,0,0:0:0:0:
192,192,30589,1,0,0:0:0:0:
448,192,30589,1,8,0:0:0:0:
320,192,30814,1,0,0:0:0:0:
192,192,31039,1,2,0:0:0:0:
64,192,31039,1,0,0:0:0:0:
448,192,31264,1,0,0:0:0:0:
320,192,31489,1,8,0:0:0:0:
64,192,31489,1,0,0:0:0:0:
192,192,31714,1,0,0:0:0:0:
64,192,31939,1,2,0:0:0:0:
448,192,31939,1,0,0:0:0:0:
320,192,32164,1,0,0:0:0:0:
192,192,32389,1,8,0:0:0:0:
64,192,32389,1,0,0:0:0:0:
320,192,32613,1,0,0:0:0:0:
448,192,32613,1,2,0:0:0:0:
448,192,32838,1,4,0:0:0:0:
320,192,32838,128,0,33063:0:0:0:0:
64,192,32838,1,2,0:0:0:0:
192,192,33063,128,0,33288:0:0:0:0:
448,192,33288,1,0,0:0:0:0:
64,192,33288,1,8,0:0:0:0:
320,192,33513,1,0,0:0:0:0:
64,192,33738,1,0,0:0:0:0:
192,192,33738,128,2,33963:0:0:0:0:
448,192,33963,1,0,0:0:0:0:
320,192,34188,1,0,0:0:0:0:
64,192,34188,1,8,0:0:0:0:
192,192,34413,1,0,0:0:0:0:
448,192,34637,1,0,0:0:0:0:
320,192,34637,1,2,0:0:0:0:
64,192,34862,128,0,35087:0:0:0:0:
448,192,35087,1,0,0:0:0:0:
192,192,35087,128,8,35537:0:0:0:0:
320,192,35312,1,0,0:0:0:0:
64,192,35537,1,2,0:0:0:0:
448,192,35537,128,0,35987:0:0:0:0:
320,192,35762,1,0,0:0:0:0:
192,192,35987,1,0,0:0:0:0:
64,192,35987,1,8,0:0:0:0:
320,192,36212,1,0,0:0:0:0:
448,192,36212,1,2,0:0:0:0:
64,192,36437,1,2,0:0:0:0:
448,192,36437,1,0,0:0:0:0:
192,192,36437,128,4,36661:0:0:0:0:
320,192,36661,128,0,36886:0:0:0:0:
448,192,36886,1,0,0:0:0:0:
64,192,36886,1,8,0:0:0:0:
192,192,37111,1,0,0:0:0:0:
448,192,37336,1,2,0:0:0:0:
320,192,37336,128,0,37561:0:0:0:0:
64,192,37561,1,0,0:0:0:0:
448,192,37786,1,8,0:0:0:0:
192,192,37786,1,0,0:0:0:0:
64,192,38011,1,0,0:0:0:0:
320,192,38236,1,2,0:0:0:0:
192,192,38236,1,0,0:0:0:0:
448,192,38460,1,0,0:0:0:0:
64,192,38685,1,0,0:0:0:0:
320,192,38685,1,8,0:0:0:0:
192,192,38910,1,0,0:0:0:0:
448,192,39135,1,0,0:0:0:0:
320,192,39135,1,2,0:0:0:0:
64,192,39360,1,0,0:0:0:0:
192,192,39585,1,8,0:0:0:0:
448,192,39585,1,0,0:0:0:0:
320,192,39810,1,0,0:0:0:0:
320,192,40035,128,4,40260:0:0:0:0:
448,192,40035,1,2,0:0:0:0:
64,192,40035,1,0,0:0:0:0:
192,192,40260,128,0,40484:0:0:0:0:
448,192,40484,1,8,0:0:0:0:
64,192,40484,1,0,0:0:0:0:
320,192,40709,1,0,0:0:0:0:
64,192,40934,1,2,0:0:0:0:
192,192,40934,128,0,41159:0:0:0:0:
448,192,41159,1,0,0:0:0:0:
64,192,41384,1,8,0:0:0:0:
320,192,41384,1,0,0:0:0:0:
448,192,41609,1,0,0:0:0:0:
192,192,41609,1,2,0:0:0:0:
192,192,42059,1,2,0:0:0:0:
448,192,42059,1,0,0:0:0:0:
64,192,42508,1,0,0:0:0:0:
320,192,42508,1,2,0:0:0:0:
448,192,42958,1,2,0:0:0:0:
192,192,43183,1,8,0:0:0:0:
64,192,43183,1,0,0:0:0:0:
320,192,43408,1,2,0:0:0:0:
448,192,43408,1,0,0:0:0:0:
192,192,43520,1,2,0:0:0:0:
64,192,43520,1,0,0:0:0:0:
320,192,43633,1,2,0:0:0:0:
448,192,43633,128,0,45207:0:0:0:0:
64,192,44308,1,0,0:0:0:0:
192,192,44308,128,2,44532:0:0:0:0:
64,192,45207,128,0,46332:0:0:0:0:
192,192,45207,1,2,0:0:0:0:
320,192,45657,1,2,0:0:0:0:
448,192,45657,1,0,0:0:0:0:
192,192,46107,1,2,0:0:0:0:
448,192,46107,1,0,0:0:0:0:
192,192,46556,1,2,0:0:0:0:
64,192,46556,1,0,0:0:0:0:
320,192,46781,1,8,0:0:0:0:
448,192,46781,1,0,0:0:0:0:
320,192,47231,128,0,48580:0:0:0:0:
192,192,47231,1,2,0:0:0:0:
448,192,47906,1,2,0:0:0:0:
64,192,47906,128,0,48131:0:0:0:0:
192,192,48580,1,2,0:0:0:0:
64,192,48580,1,0,0:0:0:0:
448,192,48805,128,0,49480:0:0:0:0:
320,192,48805,1,2,0:0:0:0:
64,192,49255,1,2,0:0:0:0:
192,192,49255,1,0,0:0:0:0:
320,192,49705,1,2,0:0:0:0:
448,192,49705,1,0,0:0:0:0:
320,192,50155,1,2,0:0:0:0:
64,192,50155,1,0,0:0:0:0:
448,192,50380,1,0,0:0:0:0:
192,192,50380,1,8,0:0:0:0:
64,192,50829,128,0,52404:0:0:0:0:
320,192,50829,1,2,0:0:0:0:
448,192,51504,1,0,0:0:0:0:
192,192,51504,128,2,51729:0:0:0:0:
192,192,52404,128,0,53528:0:0:0:0:
320,192,52404,1,2,0:0:0:0:
448,192,52853,1,0,0:0:0:0:
64,192,52853,1,2,0:0:0:0:
320,192,53303,1,2,0:0:0:0:
448,192,53303,1,0,0:0:0:0:
192,192,53753,1,0,0:0:0:0:
320,192,53753,1,2,0:0:0:0:
64,192,53978,1,0,0:0:0:0:
448,192,53978,1,8,0:0:0:0:
320,192,54428,128,0,56002:0:0:0:0:
192,192,54428,1,2,0:0:0:0:
64,192,54428,1,4,0:0:0:0:
64,192,55102,1,0,0:0:0:0:
448,192,55102,128,2,55327:0:0:0:0:
64,192,56002,1,0,0:0:0:0:
192,192,56002,128,2,56227:0:0:0:0:
320,192,56452,128,2,56676:0:0:0:0:
448,192,56452,1,8,0:0:0:0:
64,192,56452,1,0,0:0:0:0:
192,192,56901,128,2,57351:0:0:0:0:
64,192,56901,1,0,0:0:0:0:
320,192,57351,1,8,0:0:0:0:
448,192,57351,1,0,0:0:0:0:
448,192,57576,1,0,0:0:0:0:
320,192,57576,1,8,0:0:0:0:
192,192,57801,1,2,0:0:0:0:
64,192,57801,1,0,0:0:0:0:
320,192,57913,1,2,0:0:0:0:
448,192,57913,1,0,0:0:0:0:
192,192,58026,1,2,0:0:0:0:
64,192,58026,1,0,0:0:0:0:
320,192,58251,128,0,58475:0:0:0:0:
448,192,58475,1,8,0:0:0:0:
64,192,58475,1,0,0:0:0:0:
192,192,58700,1,0,0:0:0:0:
320,192,58925,1,2,0:0:0:0:
448,192,58925,1,0,0:0:0:0:
64,192,59150,128,0,59375:0:0:0:0:
192,192,59375,1,8,0:0:0:0:
448,192,59375,1,0,0:0:0:0:
320,192,59600,1,0,0:0:0:0:
192,192,59825,1,2,0:0:0:0:
64,192,59825,1,0,0:0:0:0:
448,192,60050,128,0,60275:0:0:0:0:
320,192,60275,1,8,0:0:0:0:
64,192,60275,1,0,0:0:0:0:
192,192,60499,1,0,0:0:0:0:
64,192,60724,1,2,0:0:0:0:
448,192,60724,1,0,0:0:0:0:
320,192,60949,128,0,61174:0:0:0:0:
192,192,61174,1,8,0:0:0:0:
64,192,61174,1,0,0:0:0:0:
64,192,61399,1,2,0:0:0:0:
448,192,61399,1,0,0:0:0:0:
192,192,61624,1,2,0:0:0:0:
320,192,61624,1,4,0:0:0:0:
448,192,61624,1,0,0:0:0:0:
64,192,61849,128,0,62074:0:0:0:0:
320,192,62074,1,8,0:0:0:0:
192,192,62074,1,0,0:0:0:0:
448,192,62299,1,0,0:0:0:0:
320,192,62523,1,2,0:0:0:0:
64,192,62523,1,0,0:0:0:0:
192,192,62748,128,0,62973:0:0:0:0:
64,192,62973,1,8,0:0:0:0:
448,192,62973,1,0,0:0:0:0:
320,192,63198,1,0,0:0:0:0:
448,192,63423,1,2,0:0:0:0:
64,192,63423,1,0,0:0:0:0:
192,192,63648,128,0,63873:0:0:0:0:
320,192,63873,1,8,0:0:0:0:
64,192,63873,1,0,0:0:0:0:
448,192,64098,1,0,0:0:0:0:
320,192,64323,1,0,0:0:0:0:
192,192,64323,1,2,0:0:0:0:
64,192,64547,128,0,64772:0:0:0:0:
320,192,64772,1,8,0:0:0:0:
448,192,64772,1,0,0:0:0:0:
64,192,64997,1,2,0:0:0:0:
448,192,64997,1,0,0:0:0:0:
192,192,65222,1,2,0:0:0:0:
64,192,65222,1,4,0:0:0:0:
320,192,65222,1,0,0:0:0:0:
448,192,65447,128,0,65672:0:0:0:0:
64,192,65672,1,0,0:0:0:0:
320,192,65672,1,8,0:0:0:0:
192,192,65897,1,0,0:0:0:0:
448,192,66122,1,2,0:0:0:0:
64,192,66122,1,0,0:0:0:0:
320,192,66347,128,0,66571:0:0:0:0:
448,192,66571,1,8,0:0:0:0:
192,192,66571,1,0,0:0:0:0:
64,192,66796,1,0,0:0:0:0:
320,192,67021,1,2,0:0:0:0:
192,192,67021,1,0,0:0:0:0:
448,192,67246,128,0,67471:0:0:0:0:
64,192,67471,1,0,0:0:0:0:
320,192,67471,1,8,0:0:0:0:
192,192,67696,1,0,0:0:0:0:
448,192,67921,1,0,0:0:0:0:
320,192,67921,1,2,0:0:0:0:
64,192,68146,128,0,68371:0:0:0:0:
192,192,68371,1,0,0:0:0:0:
448,192,68371,1,8,0:0:0:0:
320,192,68595,1,0,0:0:0:0:
448,192,68820,1,2,0:0:0:0:
64,192,68820,1,0,0:0:0:0:
192,192,69045,128,0,69270:0:0:0:0:
320,192,69270,1,8,0:0:0:0:
64,192,69270,1,0,0:0:0:0:
448,192,69495,1,0,0:0:0:0:
320,192,69720,1,2,0:0:0:0:
192,192,69720,1,0,0:0:0:0:
64,192,69945,128,0,70170:0:0:0:0:
192,192,70170,1,8,0:0:0:0:
448,192,70170,1,0,0:0:0:0:
320,192,70395,1,0,0:0:0:0:
64,192,70395,1,2,0:0:0:0:
64,192,70844,1,2,0:0:0:0:
320,192,70844,1,0,0:0:0:0:
192,192,71069,1,2,0:0:0:0:
64,192,71069,1,0,0:0:0:0:
320,192,71294,1,2,0:0:0:0:
448,192,71294,1,0,0:0:0:0:
192,192,71744,1,2,0:0:0:0:
64,192,71969,1,0,0:0:0:0:
448,192,71969,1,8,0:0:0:0:
448,192,72194,1,0,0:0:0:0:
320,192,72194,1,2,0:0:0:0:
64,192,72306,1,0,0:0:0:0:
192,192,72306,1,2,0:0:0:0:
448,192,72419,1,0,0:0:0:0:
320,192,72419,1,2,0:0:0:0:
192,192,72643,128,0,72868:0:0:0:0:
64,192,72868,1,0,0:0:0:0:
448,192,72868,1,8,0:0:0:0:
320,192,73093,1,0,0:0:0:0:
448,192,73318,1,0,0:0:0:0:
192,192,73318,1,2,0:0:0:0:
64,192,73543,128,0,73768:0:0:0:0:
448,192,73768,1,0,0:0:0:0:
320,192,73768,1,8,0:0:0:0:
192,192,73993,1,0,0:0:0:0:
64,192,74218,1,0,0:0:0:0:
320,192,74218,1,2,0:0:0:0:
448,192,74443,128,0,74667:0:0:0:0:
320,192,74667,1,0,0:0:0:0:
192,192,74667,1,8,0:0:0:0:
64,192,74892,1,0,0:0:0:0:
448,192,75117,1,2,0:0:0:0:
192,192,75117,1,0,0:0:0:0:
320,192,75342,128,0,75567:0:0:0:0:
448,192,75567,1,0,0:0:0:0:
64,192,75567,1,8,0:0:0:0:
320,192,75792,1,2,0:0:0:0:
192,192,75792,1,0,0:0:0:0:
64,192,76017,1,2,0:0:0:0:
192,192,76017,1,4,0:0:0:0:
448,192,76017,1,0,0:0:0:0:
320,192,76242,128,0,76466:0:0:0:0:
64,192,76466,1,0,0:0:0:0:
448,192,76466,1,8,0:0:0:0:
192,192,76691,1,0,0:0:0:0:
448,192,76916,1,0,0:0:0:0:
320,192,76916,1,2,0:0:0:0:
64,192,77141,128,0,77366:0:0:0:0:
448,192,77366,1,0,0:0:0:0:
192,192,77366,1,8,0:0:0:0:
320,192,77591,1,0,0:0:0:0:
64,192,77816,1,0,0:0:0:0:
448,192,77816,1,2,0:0:0:0:
192,192,78041,128,0,78266:0:0:0:0:
64,192,78266,1,0,0:0:0:0:
320,192,78266,1,8,0:0:0:0:
448,192,78490,1,0,0:0:0:0:
192,192,78715,1,0,0:0:0:0:
320,192,78715,1,2,0:0:0:0:
64,192,78940,128,0,79165:0:0:0:0:
448,192,79165,1,0,0:0:0:0:
192,192,79165,1,8,0:0:0:0:
192,192,79390,1,0,0:0:0:0:
320,192,79390,1,2,0:0:0:0:
64,192,79615,1,4,0:0:0:0:
320,192,79615,1,2,0:0:0:0:
448,192,79615,1,0,0:0:0:0:
192,192,79840,128,0,80065:0:0:0:0:
320,192,80065,1,8,0:0:0:0:
448,192,80065,1,0,0:0:0:0:
64,192,80290,1,0,0:0:0:0:
192,192,80514,1,0,0:0:0:0:
448,192,80514,1,2,0:0:0:0:
320,192,80739,128,0,80964:0:0:0:0:
192,192,80964,1,0,0:0:0:0:
448,192,80964,1,8,0:0:0:0:
64,192,81189,1,0,0:0:0:0:
192,192,81414,1,0,0:0:0:0:
320,192,81414,1,2,0:0:0:0:
448,192,81639,128,0,81864:0:0:0:0:
320,192,81864,1,8,0:0:0:0:
64,192,81864,1,0,0:0:0:0:
192,192,82089,1,0,0:0:0:0:
320,192,82314,1,2,0:0:0:0:
448,192,82314,1,0,0:0:0:0:
64,192,82538,128,0,82763:0:0:0:0:
448,192,82763,1,8,0:0:0:0:
192,192,82763,1,0,0:0:0:0:
64,192,82988,1,0,0:0:0:0:
320,192,82988,128,2,83213:0:0:0:0:
192,192,83438,1,2,0:0:0:0:
448,192,83438,1,0,0:0:0:0:
64,192,83663,1,0,0:0:0:0:
320,192,83663,1,8,0:0:0:0:
448,192,83888,128,2,84113:0:0:0:0:
320,192,84338,1,2,0:0:0:0:
64,192,84562,1,0,0:0:0:0:
192,192,84562,1,8,0:0:0:0:
448,192,84787,1,0,0:0:0:0:
320,192,84787,1,2,0:0:0:0:
64,192,84900,1,0,0:0:0:0:
192,192,84900,1,2,0:0:0:0:
320,192,85012,1,2,0:0:0:0:
448,192,85012,128,0,85687:0:0:0:0:
192,192,85687,128,2,86137:0:0:0:0:
64,192,85687,1,0,0:0:0:0:
448,192,86811,1,0,0:0:0:0:
320,192,86811,128,2,87036:0:0:0:0:
