osu file format v14

[General]
AudioFilename: audio.mp3
AudioLeadIn: 0
PreviewTime: 184396
Countdown: 0
SampleSet: Soft
StackLeniency: 0.3
Mode: 0
LetterboxInBreaks: 0
WidescreenStoryboard: 0

[Editor]
Bookmarks: 16120,16809,16982,17671,18016,18361,18878,19568,19913,20085,20775,21120,21637,22327,22671,22844,23189,23878,24396,24740,25258,25775,26120
DistanceSpacing: 0.8
BeatDivisor: 4
GridSize: 32
TimelineZoom: 3.299999

[Metadata]
Title:Sweet Days
TitleUnicode:Sweet Days
Artist:Ray
ArtistUnicode:Ray
Creator:Nyukai
Version:Memories
Source:
Tags:木須実怜花 rayve 1st first album j-pop jpop japanese pop female vocal vocalist kisumi reika mrgglock kanui wen
BeatmapID:3993392
BeatmapSetID:1932767

[Difficulty]
HPDrainRate:5.2
CircleSize:3.8
OverallDifficulty:8.3
ApproachRate:9.2
SliderMultiplier:1.7
SliderTickRate:1

[Events]
//Background and Video events
0,0,"background.jpg",0,0
//Break Periods
//Storyboard Layer 0 (Background)
//Storyboard Layer 1 (Fail)
//Storyboard Layer 2 (Pass)
//Storyboard Layer 3 (Foreground)
//Storyboard Layer 4 (Overlay)
//Storyboard Sound Samples

[TimingPoints]
603,344.827586206897,4,2,1,40,1,0
3275,-100,4,2,1,5,0,0
3361,-100,4,2,1,60,0,0
4740,-100,4,2,1,70,0,0
5689,-100,4,2,1,5,0,0
5775,-100,4,2,1,70,0,0
7413,-100,4,2,1,5,0,0
7499,-100,4,2,1,70,0,0
8447,-100,4,2,1,5,0,0
8534,-100,4,2,1,70,0,0
10171,-100,4,2,1,5,0,0
10258,-100,4,2,1,70,0,0
11206,-100,4,2,1,5,0,0
11292,-100,4,2,1,70,0,0
12930,-100,4,2,1,5,0,0
13016,-100,4,2,1,70,0,0
15775,-133.333333333333,4,2,1,50,0,0
26809,-100,4,2,1,60,0,0
27068,-100,4,2,1,5,0,0
27154,-100,4,2,1,60,0,0
37844,-83.3333333333333,4,2,1,70,0,0
38103,-83.3333333333333,4,2,1,5,0,0
38189,-83.3333333333333,4,2,1,70,0,0
38447,-83.3333333333333,4,2,1,5,0,0
38534,-100,4,2,1,70,0,0
41551,-100,4,2,1,5,0,0
41637,-100,4,2,1,70,0,0
43361,-83.3333333333333,4,2,1,70,0,0
43620,-83.3333333333333,4,2,1,5,0,0
43706,-83.3333333333333,4,2,1,70,0,0
43965,-83.3333333333333,4,2,1,5,0,0
44051,-100,4,2,1,70,0,0
49223,-133.333333333333,4,2,1,60,0,0
50258,-90.9090909090909,4,2,1,80,0,1
52930,-90.9090909090909,4,2,1,5,0,1
53016,-90.9090909090909,4,2,1,80,0,1
61206,-90.9090909090909,4,2,1,80,0,0
61292,-90.9090909090909,4,2,1,80,0,1
63965,-90.9090909090909,4,2,1,5,0,1
64051,-90.9090909090909,4,2,1,80,0,1
73706,-181.818181818181,4,2,1,60,0,0
75085,-100,4,2,1,60,0,0
76465,-100,4,2,1,70,0,0
77413,-100,4,2,1,5,0,0
77499,-100,4,2,1,70,0,0
79137,-100,4,2,1,5,0,0
79223,-100,4,2,1,70,0,0
80171,-100,4,2,1,5,0,0
80258,-100,4,2,1,70,0,0
81896,-100,4,2,1,5,0,0
81982,-100,4,2,1,70,0,0
82930,-100,4,2,1,5,0,0
83016,-100,4,2,1,70,0,0
84654,-100,4,2,1,5,0,0
84740,-100,4,2,1,70,0,0
87499,-111.111111111111,4,2,1,60,0,0
88447,-111.111111111111,4,2,1,5,0,0
88534,-111.111111111111,4,2,1,60,0,0
93447,-111.111111111111,4,2,1,5,0,0
93534,-111.111111111111,4,2,1,60,0,0
96378,-111.111111111111,4,2,1,5,0,0
96465,-111.111111111111,4,2,1,60,0,0
98534,-83.3333333333333,4,2,1,70,0,0
98792,-83.3333333333333,4,2,1,5,0,0
98878,-83.3333333333333,4,2,1,70,0,0
99137,-83.3333333333333,4,2,1,5,0,0
99223,-100,4,2,1,70,0,0
102240,-100,4,2,1,5,0,0
102327,-100,4,2,1,70,0,0
104051,-83.3333333333333,4,2,1,70,0,0
104309,-83.3333333333333,4,2,1,5,0,0
104396,-83.3333333333333,4,2,1,70,0,0
104740,-100,4,2,1,70,0,0
109913,-133.333333333333,4,2,1,60,0,0
110947,-90.9090909090909,4,2,1,80,0,1
113620,-90.9090909090909,4,2,1,5,0,1
113706,-90.9090909090909,4,2,1,80,0,1
121896,-90.9090909090909,4,2,1,80,0,0
121982,-90.9090909090909,4,2,1,80,0,1
124654,-90.9090909090909,4,2,1,5,0,1
124740,-90.9090909090909,4,2,1,80,0,1
134396,-90.9090909090909,4,2,1,80,0,0
135775,-133.333333333333,4,2,1,60,0,0
141292,-100,4,2,1,70,0,0
144482,-100,4,2,1,5,0,0
144568,-100,4,2,1,70,0,0
145689,-100,4,2,1,5,0,0
145775,-100,4,2,1,70,0,0
147068,-100,4,2,1,5,0,0
147154,-100,4,2,1,70,0,0
160603,-90.9090909090909,4,2,1,80,0,0
160861,-90.9090909090909,4,2,1,5,0,0
160947,-90.9090909090909,4,2,1,80,0,0
162068,-90.9090909090909,4,2,1,5,0,0
162154,-90.9090909090909,4,2,1,80,0,0
162585,-90.9090909090909,4,2,1,5,0,0
162671,-90.9090909090909,4,2,1,80,0,0
164827,-90.9090909090909,4,2,1,5,0,0
164913,-90.9090909090909,4,2,1,80,0,0
167585,-90.9090909090909,4,2,1,5,0,0
167671,-90.9090909090909,4,2,1,80,0,0
171896,-90.9090909090909,4,2,1,5,0,0
171982,-90.9090909090909,4,2,1,80,0,0
175861,-90.9090909090909,4,2,1,5,0,0
175947,-90.9090909090909,4,2,1,80,0,0
176378,-90.9090909090909,4,2,1,5,0,0
176465,-90.9090909090909,4,2,1,80,0,0
184051,-133.333333333333,4,2,1,50,0,0
185430,-181.818181818181,4,2,1,50,0,0
189568,-133.333333333333,4,2,1,60,0,0
190947,-90.9090909090909,4,2,1,80,0,1
196465,-90.9090909090909,4,2,1,80,0,0
197671,-90.9090909090909,4,2,1,80,0,1
199137,-90.9090909090909,4,2,1,5,0,1
199223,-90.9090909090909,4,2,1,80,0,1
208878,-181.818181818181,4,2,1,60,0,0
210258,-100,4,2,1,60,0,0
211637,-100,4,2,1,70,0,0
212585,-100,4,2,1,5,0,0
212671,-100,4,2,1,70,0,0
214309,-100,4,2,1,5,0,0
214396,-100,4,2,1,70,0,0
215344,-100,4,2,1,5,0,0
215430,-100,4,2,1,70,0,0
217068,-100,4,2,1,5,0,0
217154,-100,4,2,1,70,0,0
218103,-100,4,2,1,5,0,0
218189,-100,4,2,1,70,0,0
219827,-100,4,2,1,5,0,0
219913,-100,4,2,1,70,0,0
222499,384.615384615385,4,2,1,70,1,0
222691,365.296803652968,4,2,1,50,1,0
222691,-181.818181818181,4,2,1,50,0,0
223878,344.827586206897,4,2,1,50,1,0
223964,-100,4,2,1,5,0,0

[Colours]
Combo1 : 219,183,130
Combo2 : 232,187,247
Combo3 : 239,141,141

[HitObjects]
256,192,603,12,0,3275,0:0:0:0:
290,125,3361,5,12,0:0:0:0:
225,257,3534,1,0,1:2:0:0:
225,257,3706,1,0,1:2:0:0:
188,78,3878,5,12,0:0:0:0:
290,125,4051,1,0,1:2:0:0:
267,31,4223,1,0,1:2:0:0:
138,194,4396,5,8,0:0:0:0:
337,138,4568,1,8,0:0:0:0:
114,359,4740,6,0,L|109:271,1,85,6|0,1:0|1:2,0:0:0:0:
18,192,5085,2,0,L|13:276,1,85,2|0,1:2|0:0,0:0:0:0:
250,318,5430,2,0,P|316:341|390:309,1,127.5,10|0,0:0|0:0,0:0:0:0:
405,308,5775,1,0,1:2:0:0:
459,157,5947,6,0,B|386:130|376:190|294:168,1,170,2|0,1:2|1:0,0:0:0:0:
147,79,6465,2,0,L|134:169,1,85,2|0,1:2|1:2,0:0:0:0:
228,329,6809,2,0,L|215:239,1,85,8|0,0:0|0:0,0:0:0:0:
324,87,7154,2,0,B|417:66|417:66|467:94,1,127.5,0|0,1:2|0:0,0:0:0:0:
463,122,7499,6,0,L|459:214,1,85,2|0,1:2|0:0,0:0:0:0:
369,288,7844,2,0,L|365:203,1,85,2|0,1:2|0:0,0:0:0:0:
237,62,8189,2,0,B|191:39|163:62|163:62|146:93|103:93,1,127.5,10|0,0:0|0:0,0:0:0:0:
90,112,8534,1,2,0:3:0:0:
60,269,8706,6,0,P|107:248|220:304,1,170,2|0,1:2|1:2,0:0:0:0:
322,342,9223,2,0,L|310:232,1,85,2|0,1:2|0:0,0:0:0:0:
268,47,9568,1,10,0:0:0:0:
268,47,9654,1,2,0:0:0:0:
268,47,9740,1,2,0:0:0:0:
200,109,9913,2,0,P|252:131|326:113,1,127.5,0|0,1:2|0:0,0:0:0:0:
319,117,10258,6,0,P|333:156|323:202,1,85,2|0,1:2|0:0,0:0:0:0:
420,275,10603,2,0,P|411:233|425:193,1,85,2|0,1:2|0:0,0:0:0:0:
272,333,10947,2,0,B|225:317|225:317|196:326|196:326|137:310,1,127.5,10|0,0:0|0:0,0:0:0:0:
108,298,11292,1,2,0:3:0:0:
28,171,11465,6,0,B|112:147|120:202|203:174,1,170,2|0,1:2|1:2,0:0:0:0:
249,65,11982,2,0,L|151:81,1,85,2|0,1:2|0:0,0:0:0:0:
331,146,12327,2,0,L|414:159,1,85,8|0,0:0|0:0,0:0:0:0:
451,343,12671,2,0,B|380:320|380:320|321:342,1,127.5,2|0,1:2|0:0,0:0:0:0:
330,338,13016,6,0,P|264:314|283:202,1,170,2|0,1:2|1:2,0:0:0:0:
411,65,13534,1,2,0:0:0:0:
499,171,13706,2,0,L|403:158,1,85,8|8,0:0|0:3,0:0:0:0:
174,236,14051,2,0,L|258:224,1,85,2|0,1:2|1:2,0:0:0:0:
499,171,14396,5,8,0:0:0:0:
322,99,14568,1,0,1:2:0:0:
318,308,14740,5,8,0:0:0:0:
430,84,14913,1,8,0:0:0:0:
403,358,15085,5,10,0:0:0:0:
219,115,15258,1,8,0:0:0:0:
473,271,15430,5,10,0:0:0:0:
174,236,15603,1,8,0:0:0:0:
366,27,15775,5,4,0:1:0:0:
366,27,16120,6,0,P|388:42|406:76,1,63.7500024318696,2|0,0:0|0:0,0:0:0:0:
446,158,16465,2,0,P|420:176|406:205,1,63.7500024318696
306,329,16809,1,2,0:0:0:0:
306,329,16982,2,0,P|289:249|270:192,1,127.500004863739,2|0,0:0|0:0,0:0:0:0:
214,90,17499,1,0,0:0:0:0:
95,132,17671,2,0,L|156:150,1,63.7500024318696,2|0,0:0|0:0,0:0:0:0:
275,205,18016,2,0,L|213:223,1,63.7500024318696,2|0,0:0|0:0,0:0:0:0:
54,346,18361,6,0,P|121:325|173:362,1,127.500004863739,2|0,0:0|0:0,0:0:0:0:
258,346,18878,2,0,L|336:331,1,63.7500024318696,2|0,0:0|0:0,0:0:0:0:
392,279,19223,1,0,0:0:0:0:
392,279,19396,1,0,0:0:0:0:
479,249,19568,2,0,P|493:281|490:313,1,63.7500024318696,2|0,0:0|0:0,0:0:0:0:
279,319,19913,5,2,0:0:0:0:
279,319,20085,2,0,P|323:283|401:282,2,127.500004863739,2|0|2,0:0|0:0|0:0,0:0:0:0:
157,348,20947,1,0,0:0:0:0:
157,348,21120,2,0,P|88:328|24:316,1,127.500004863739,2|0,0:0|0:0,0:0:0:0:
66,216,21637,2,0,P|99:225|175:164,1,127.500004863739,2|0,0:0|0:0,0:0:0:0:
171,176,22154,1,0,0:0:0:0:
235,110,22327,2,0,L|228:41,1,63.7500024318696,2|0,0:0|0:0,0:0:0:0:
372,103,22671,5,2,0:0:0:0:
372,103,22844,2,0,L|357:248,2,127.500004863739,2|2|0,0:0|0:0|0:0,0:0:0:0:
293,44,23706,1,0,0:0:0:0:
131,151,23878,2,0,B|193:132|202:183|265:163,1,127.500004863739,2|0,0:0|0:0,0:0:0:0:
358,229,24396,2,0,P|348:259|349:299,1,63.7500024318696,2|0,0:0|0:0,0:0:0:0:
449,351,24740,2,0,P|448:319|438:289,1,63.7500024318696,2|0,0:0|0:0,0:0:0:0:
263,246,25085,1,0,0:0:0:0:
263,246,25258,6,0,B|223:240|223:240|185:255|185:255|117:246,1,127.500004863739,2|0,0:0|0:0,0:0:0:0:
41,220,25775,2,0,L|45:291,1,63.7500024318696,2|0,0:0|0:0,0:0:0:0:
118,158,26120,2,0,L|121:94,1,63.7500024318696,2|8,0:0|0:3,0:0:0:0:
271,32,26465,1,8,0:0:0:0:
296,50,26551,1,8,0:0:0:0:
327,60,26637,1,10,0:3:0:0:
358,59,26723,1,4,0:3:0:0:
388,49,26809,6,0,P|400:124|404:184,1,127.5,4|0,1:0|0:0,0:0:0:0:
403,217,27154,2,0,P|454:214|503:220,1,85,10|2,0:0|0:0,0:0:0:0:
385,327,27499,1,2,0:0:0:0:
267,232,27671,1,2,0:0:0:0:
166,359,27844,2,0,L|149:264,1,85,10|2,0:0|1:2,0:0:0:0:
228,86,28189,5,0,1:2:0:0:
228,86,28361,1,0,1:2:0:0:
315,207,28534,1,10,0:0:0:0:
151,275,28706,2,0,B|195:249|235:260|235:260|261:297|319:290,1,170,2|6,0:0|0:0,0:0:0:0:
463,163,29223,1,8,0:0:0:0:
419,74,29396,6,0,P|390:93|371:146,1,85,2|0,1:2|1:2,0:0:0:0:
399,328,29740,1,0,0:0:0:0:
399,328,29913,2,0,B|344:311|344:311|214:341,1,170,10|0,0:0|0:0,0:0:0:0:
234,336,30430,1,2,0:0:0:0:
111,262,30603,2,0,L|96:350,1,85,10|2,0:0|0:0,0:0:0:0:
233,170,30947,5,2,1:2:0:0:
233,170,31120,1,0,1:2:0:0:
346,259,31292,1,10,0:0:0:0:
136,180,31465,1,10,0:3:0:0:
136,180,31551,1,8,0:3:0:0:
136,180,31637,1,8,0:0:0:0:
231,47,31809,1,10,0:3:0:0:
231,47,31896,1,4,0:3:0:0:
231,47,31982,1,4,0:3:0:0:
372,150,32154,6,0,P|436:132|516:205,1,170,6|0,0:3|1:2,0:0:0:0:
502,233,32585,1,0,1:2:0:0:
502,233,32671,2,0,L|486:322,1,85,14|0,0:0|0:0,0:0:0:0:
392,364,33016,2,0,L|376:280,1,85,2|0,0:0|0:0,0:0:0:0:
283,122,33361,1,10,0:0:0:0:
191,174,33534,1,2,0:0:0:0:
207,12,33706,5,2,1:2:0:0:
207,12,33878,1,2,1:2:0:0:
365,132,34051,1,8,0:0:0:0:
453,185,34223,2,0,P|362:196|284:212,1,170,2|4,0:0|0:0,0:0:0:0:
106,254,34740,1,10,0:0:0:0:
46,324,34913,6,0,P|85:344|139:335,1,85,10|0,0:3|1:2,0:0:0:0:
209,309,35258,1,0,1:2:0:0:
106,254,35430,1,10,0:0:0:0:
106,254,35603,2,0,B|86:199|86:199|136:78,1,170,2|2,0:0|0:0,0:0:0:0:
287,31,36120,1,10,0:0:0:0:
427,118,36292,6,0,B|360:92|360:92|319:132|270:122,1,170,2|0,1:2|1:2,0:0:0:0:
132,181,36809,1,10,0:0:0:0:
287,31,36982,1,2,0:0:0:0:
369,190,37154,1,6,0:3:0:0:
366,211,37240,1,4,0:3:0:0:
364,232,37327,2,0,L|358:292,1,42.5,8|8,0:3|0:0,0:0:0:0:
423,348,37499,5,10,0:0:0:0:
383,362,37585,1,8,0:0:0:0:
341,361,37671,1,8,0:0:0:0:
303,342,37757,1,8,0:0:0:0:
276,310,37844,6,0,P|218:278|140:352,1,152.999995330811,4|0,1:0|0:0,0:0:0:0:
107,338,38189,2,0,B|94:292|94:292|58:257|58:257|51:192,1,152.999995330811,2|0,1:2|0:0,0:0:0:0:
86,168,38534,1,10,0:0:0:0:
176,234,38706,1,2,0:0:0:0:
238,144,38878,1,2,1:2:0:0:
348,246,39051,6,0,P|406:289|496:264,1,170,2|2,1:2|1:2,0:0:0:0:
446,107,39568,2,0,P|433:167|428:202,1,85,2|0,1:2|0:0,0:0:0:0:
259,323,39913,2,0,P|252:281|242:239,1,85,8|0,0:0|1:2,0:0:0:0:
146,61,40258,1,2,1:2:0:0:
72,133,40430,1,8,0:0:0:0:
72,133,40516,1,8,0:0:0:0:
72,133,40603,6,0,B|58:201|121:234|106:307,1,170,6|8,1:2|0:3,0:0:0:0:
363,326,41292,2,0,P|318:273|253:274,1,127.5,10|0,0:0|0:0,0:0:0:0:
230,291,41637,1,2,0:0:0:0:
206,133,41809,6,0,B|310:102|310:102|381:147,1,170,2|2,1:2|1:2,0:0:0:0:
361,134,42327,1,0,1:2:0:0:
439,253,42499,2,0,L|352:271,1,85,2|8,1:2|0:0,0:0:0:0:
188,320,42844,2,0,L|271:337,1,85,2|0,0:3|1:2,0:0:0:0:
483,225,43189,1,8,0:3:0:0:
483,225,43275,1,8,0:3:0:0:
483,225,43361,6,0,P|450:139|419:83,1,152.999995330811,4|0,1:0|0:0,0:0:0:0:
383,55,43706,2,0,P|317:83|236:49,1,152.999995330811,2|0,1:2|0:0,0:0:0:0:
206,33,44051,1,10,0:0:0:0:
178,15,44396,1,2,0:0:0:0:
75,132,44568,6,0,P|53:212|111:279,1,170,2|2,1:2|1:2,0:0:0:0:
241,184,45085,2,0,L|156:192,1,85,2|0,1:2|0:0,0:0:0:0:
210,309,45430,2,0,L|294:317,1,85,8|0,0:0|1:2,0:0:0:0:
475,306,45775,1,2,1:2:0:0:
364,175,45947,1,2,1:2:0:0:
350,384,46120,5,6,1:2:0:0:
350,384,46292,1,0,1:2:0:0:
466,201,46465,2,0,P|473:147|446:106,1,85,8|0,0:0|1:2,0:0:0:0:
264,39,46809,5,2,1:2:0:0:
264,39,46982,1,0,1:2:0:0:
178,247,47154,2,0,L|263:236,1,85,8|0,0:0|1:2,0:0:0:0:
466,201,47499,5,2,1:2:0:0:
302,326,47671,1,8,0:0:0:0:
309,68,47844,5,8,0:0:0:0:
446,281,48016,1,8,0:0:0:0:
199,125,48189,5,10,1:2:0:0:
444,34,48361,1,8,1:2:0:0:
303,273,48534,5,8,0:0:0:0:
261,280,48620,1,8,0:0:0:0:
219,287,48706,1,8,0:0:0:0:
177,295,48792,1,8,0:0:0:0:
177,295,49223,6,0,P|139:301|117:320,1,63.7500024318696,2|0,0:0|0:0,0:0:0:0:
14,219,49568,2,0,P|52:224|74:243,1,63.7500024318696,2|0,0:0|0:0,0:0:0:0:
120,316,49913,1,2,0:0:0:0:
225,217,50085,1,2,0:0:0:0:
386,342,50258,6,0,L|503:328,1,93.5000028533936,6|0,1:0|0:0,0:0:0:0:
451,100,50603,1,8,0:0:0:0:
392,183,50775,2,0,B|338:155|291:178|291:178|273:218|212:217,1,187.000005706787,0|0,1:2|1:2,0:0:0:0:
81,83,51292,1,10,0:0:0:0:
181,35,51465,6,0,P|194:87|206:125,1,93.5000028533936,2|0,1:2|0:0,0:0:0:0:
341,253,51809,1,2,1:2:0:0:
131,226,51982,2,0,P|79:239|41:251,1,93.5000028533936,8|0,0:0|1:2,0:0:0:0:
269,361,52327,2,0,P|321:348|359:336,1,93.5000028533936,0|0,1:2|1:2,0:0:0:0:
498,136,52671,2,0,P|438:97|338:134,1,140.25000428009,10|0,0:0|0:0,0:0:0:0:
335,121,53016,6,0,L|319:225,1,93.5000028533936,2|0,1:2|0:0,0:0:0:0:
172,328,53361,2,0,L|157:235,1,93.5000028533936,8|0,0:0|1:2,0:0:0:0:
152,27,53706,1,2,0:0:0:0:
205,111,53878,1,2,1:2:0:0:
73,81,54051,1,10,0:0:0:0:
262,37,54223,6,0,B|328:27|328:27|372:44|372:44|452:38,1,187.000005706787,2|0,1:2|1:2,0:0:0:0:
480,188,54740,1,10,0:0:0:0:
307,114,54913,1,2,1:2:0:0:
355,337,55085,2,0,L|360:244,1,93.5000028533936,2|0,0:0|1:2,0:0:0:0:
262,37,55430,1,10,0:0:0:0:
472,219,55603,1,0,1:0:0:0:
217,197,55775,5,6,1:0:0:0:
444,38,55947,1,2,0:0:0:0:
506,122,56120,2,0,P|428:138|347:75,1,187.000005706787,10|0,0:0|0:0,0:0:0:0:
324,200,56637,1,2,1:2:0:0:
444,38,56809,1,10,0:0:0:0:
494,279,56982,6,0,B|438:243|398:260|398:260|372:296|316:291,1,187.000005706787,2|0,1:2|1:2,0:0:0:0:
237,192,57499,2,0,P|287:182|331:207,1,93.5000028533936,10|0,0:0|1:2,0:0:0:0:
205,308,57844,2,0,P|162:326|118:315,1,93.5000028533936,2|0,0:0|1:2,0:0:0:0:
188,117,58189,1,10,0:0:0:0:
35,256,58361,1,2,1:2:0:0:
117,58,58534,5,4,1:0:0:0:
205,308,58706,1,2,1:2:0:0:
323,199,58878,1,10,0:0:0:0:
115,275,59051,1,8,0:3:0:0:
115,275,59137,1,8,0:3:0:0:
115,275,59223,2,0,P|69:277|19:282,1,93.5000028533936,8|4,0:3|0:3,0:0:0:0:
96,154,59568,1,8,0:0:0:0:
278,347,59740,2,0,L|289:290,1,46.7500014266968,0|8,1:2|0:3,0:0:0:0:
323,199,59913,6,0,B|337:159|337:159|326:109,1,93.5000028533936,0|0,1:2|1:2,0:0:0:0:
188,20,60258,1,8,0:0:0:0:
113,235,60430,1,10,0:0:0:0:
135,227,60516,1,8,0:0:0:0:
157,219,60602,1,10,0:0:0:0:
255,150,60775,5,10,0:0:0:0:
168,341,60947,1,10,0:0:0:0:
35,120,61120,1,10,0:0:0:0:
293,290,61292,6,0,P|352:293|387:288,1,93.5000028533936,6|0,1:0|0:0,0:0:0:0:
473,78,61637,1,10,0:0:0:0:
445,156,61809,2,0,B|388:141|385:80|385:80|347:104|307:72,1,187.000005706787,0|2,1:0|1:2,0:0:0:0:
124,22,62327,1,10,0:0:0:0:
61,116,62499,6,0,P|112:113|176:107,1,93.5000028533936,2|0,1:2|0:0,0:0:0:0:
308,73,62844,1,2,1:2:0:0:
296,260,63016,2,0,P|261:200|248:169,1,93.5000028533936,8|0,0:0|1:2,0:0:0:0:
406,20,63361,2,0,P|441:80|454:111,1,93.5000028533936,0|0,1:2|1:2,0:0:0:0:
463,285,63706,2,0,P|419:254|331:286,1,140.25000428009,10|0,0:0|0:0,0:0:0:0:
296,260,64051,6,0,P|229:272|203:272,1,93.5000028533936,2|0,1:2|0:0,0:0:0:0:
63,337,64396,2,0,P|109:338|155:349,1,93.5000028533936,8|0,0:0|1:0,0:0:0:0:
340,274,64740,1,2,0:0:0:0:
328,172,64913,1,2,1:2:0:0:
230,189,65085,1,10,0:0:0:0:
338,355,65258,6,0,P|384:295|481:224,1,187.000005706787,2|0,1:2|1:2,0:0:0:0:
436,121,65775,2,0,P|383:132|335:146,1,93.5000028533936,10|0,0:0|1:2,0:0:0:0:
132,210,66120,2,0,P|185:221|233:235,1,93.5000028533936,2|0,0:0|1:2,0:0:0:0:
420,302,66465,1,10,0:0:0:0:
472,228,66637,6,0,B|505:156|505:156|473:45,1,187.000005706787,2|2,1:2|0:0,0:0:0:0:
387,22,67154,1,10,0:0:0:0:
340,228,67327,2,0,L|353:120,1,93.5000028533936,0|0,1:0|0:0,0:0:0:0:
299,40,67671,1,2,1:2:0:0:
454,170,67844,1,10,0:0:0:0:
230,214,68016,6,0,B|133:195|169:253|42:232,1,187.000005706787,6|0,1:0|1:2,0:0:0:0:
65,65,68534,2,0,P|79:101|98:162,1,93.5000028533936,8|0,0:0|1:2,0:0:0:0:
198,296,68878,1,2,1:2:0:0:
350,373,69051,2,0,P|308:352|262:342,1,93.5000028533936,2|8,1:2|0:0,0:0:0:0:
110,320,69396,1,2,1:2:0:0:
316,150,69568,5,8,0:0:0:0:
126,56,69740,1,2,1:2:0:0:
284,260,69913,5,10,0:0:0:0:
230,23,70085,1,0,1:2:0:0:
124,225,70258,5,8,0:0:0:0:
334,22,70430,1,0,1:2:0:0:
409,271,70603,5,8,0:0:0:0:
214,65,70775,1,0,1:2:0:0:
87,260,70947,6,0,L|98:360,1,93.5000028533936,8|0,0:0|1:2,0:0:0:0:
314,189,71292,2,0,L|325:97,1,93.5000028533936,10|0,0:0|1:2,0:0:0:0:
104,32,71637,6,0,L|114:124,1,93.5000028533936,10|0,0:0|1:2,0:0:0:0:
377,329,71982,2,0,L|388:237,1,93.5000028533936,10|0,0:0|1:2,0:0:0:0:
286,35,72327,5,14,0:0:0:0:
209,83,72499,1,0,1:2:0:0:
322,224,72671,5,8,0:3:0:0:
312,133,72843,1,8,0:3:0:0:
134,196,73016,5,10,0:3:0:0:
75,241,73189,1,8,0:3:0:0:
22,291,73361,1,4,0:3:0:0:
72,128,73534,1,6,0:3:0:0:
134,196,73706,6,0,P|205:191|243:191,2,93.5000028533936,2|2|2,0:1|0:0|0:0,0:0:0:0:
44,62,74740,1,2,0:0:0:0:
44,62,74913,1,2,0:0:0:0:
138,28,75085,5,12,0:0:0:0:
44,192,75258,1,0,1:2:0:0:
44,192,75430,1,0,1:2:0:0:
217,75,75603,5,12,0:0:0:0:
115,122,75776,1,0,1:2:0:0:
138,28,75948,1,0,1:2:0:0:
195,208,76121,5,8,0:0:0:0:
295,26,76293,1,8,0:0:0:0:
438,182,76465,6,0,P|484:189|520:226,1,85,6|0,1:0|0:0,0:0:0:0:
475,307,76809,2,0,P|429:300|393:263,1,85,2|0,1:2|0:0,0:0:0:0:
313,76,77154,2,0,P|289:140|249:225,1,127.5,10|0,0:0|0:0,0:0:0:0:
245,231,77499,1,0,1:2:0:0:
148,343,77671,6,0,B|114:289|82:277|82:277|56:311|10:313,1,170,2|0,1:2|1:2,0:0:0:0:
21,187,78189,2,0,P|56:142|86:114,1,85,2|0,1:2|1:2,0:0:0:0:
249,108,78534,2,0,P|220:78|195:43,1,85,10|0,0:0|0:0,0:0:0:0:
162,242,78878,2,0,P|241:230|301:277,1,127.5,0|0,1:2|0:0,0:0:0:0:
301,289,79223,6,0,P|311:340|319:379,1,85,2|0,1:2|0:0,0:0:0:0:
409,323,79568,2,0,P|417:281|426:240,1,85,2|0,1:2|0:0,0:0:0:0:
450,58,79913,2,0,B|401:41|370:39|370:39|317:85,1,127.5,10|0,0:0|0:0,0:0:0:0:
306,103,80258,1,2,0:3:0:0:
173,233,80430,6,0,B|106:176|96:232|19:154,1,170,2|0,1:2|1:2,0:0:0:0:
108,40,80947,2,0,B|129:76|129:76|107:121,1,85,2|0,1:2|0:0,0:0:0:0:
56,294,81292,1,10,0:0:0:0:
56,294,81378,1,2,0:0:0:0:
56,294,81465,1,2,0:0:0:0:
121,357,81637,2,0,P|149:307|105:220,1,127.5,2|0,1:2|0:0,0:0:0:0:
131,242,81982,6,0,L|235:257,1,85,2|0,1:2|0:0,0:0:0:0:
320,335,82327,2,0,L|236:348,1,85,2|0,1:2|0:0,0:0:0:0:
9,214,82671,2,0,B|55:220|86:184|86:184|103:212|130:222,1,127.5,10|0,0:0|0:0,0:0:0:0:
131,242,83016,1,2,0:3:0:0:
236,348,83189,6,0,B|261:279|261:279|293:252|293:252|314:178,1,170,2|0,1:2|1:2,0:0:0:0:
359,121,83706,2,0,P|321:106|262:128,1,85,2|0,1:2|0:0,0:0:0:0:
113,213,84051,2,0,P|153:222|193:206,1,85,10|0,0:0|0:0,0:0:0:0:
359,121,84396,2,0,P|372:196|381:265,1,127.5,2|0,1:2|0:0,0:0:0:0:
378,246,84740,6,0,P|315:261|274:364,1,170,2|0,1:2|1:2,0:0:0:0:
208,262,85258,1,2,0:0:0:0:
365,338,85430,2,0,P|409:336|467:326,1,85,10|8,0:0|0:3,0:0:0:0:
497,181,85775,2,0,P|455:175|413:174,1,85,2|0,1:2|1:2,0:0:0:0:
208,262,86120,5,8,0:0:0:0:
168,275,86206,1,8,0:0:0:0:
129,261,86292,1,8,0:0:0:0:
106,226,86378,1,8,0:0:0:0:
110,184,86464,1,8,0:0:0:0:
139,154,86551,1,8,0:0:0:0:
181,148,86637,1,8,0:0:0:0:
217,169,86723,1,8,0:0:0:0:
232,208,86809,6,0,L|287:200,1,42.5,8|8,0:0|0:0,0:0:0:0:
386,271,86982,2,0,L|345:265,1,42.5,8|8,0:0|0:0,0:0:0:0:
303,110,87154,5,8,0:0:0:0:
332,106,87240,1,8,0:0:0:0:
362,103,87326,1,8,0:0:0:0:
391,100,87412,1,8,0:0:0:0:
421,96,87499,6,0,L|505:86,1,76.4999976654053,6|0,1:2|0:0,0:0:0:0:
483,204,87844,2,0,L|407:194,1,76.4999976654053,10|0,0:0|0:0,0:0:0:0:
246,171,88189,2,0,P|217:119|237:62,1,114.749996498108,2|0,0:0|0:0,0:0:0:0:
228,34,88534,2,0,P|186:29|142:39,1,76.4999976654053,10|2,0:0|0:0,0:0:0:0:
22,163,88878,5,0,1:0:0:0:
22,163,89051,1,0,1:2:0:0:
71,20,89223,1,10,0:0:0:0:
165,146,89396,2,0,P|230:139|326:126,1,152.999995330811,2|6,0:0|0:0,0:0:0:0:
480,214,89913,1,8,0:0:0:0:
441,297,90085,6,0,P|398:282|357:298,1,76.4999976654053,2|0,1:2|1:0,0:0:0:0:
296,341,90430,1,2,1:2:0:0:
177,202,90603,1,10,0:0:0:0:
113,268,90775,2,0,P|127:195|116:102,1,152.999995330811,2|0,0:0|0:0,0:0:0:0:
131,17,91292,1,10,0:0:0:0:
224,73,91465,1,2,0:0:0:0:
39,156,91637,5,0,1:2:0:0:
39,156,91809,1,0,1:2:0:0:
145,49,91982,1,10,0:0:0:0:
239,154,92154,1,2,0:0:0:0:
239,154,92240,1,2,0:0:0:0:
239,154,92327,1,8,0:3:0:0:
132,238,92499,2,0,L|117:144,1,76.4999976654053,4|4,0:3|0:3,0:0:0:0:
276,47,92844,6,0,B|358:26|322:99|419:90,1,152.999995330811,2|2,0:0|1:2,0:0:0:0:
429,127,93275,1,0,1:2:0:0:
429,127,93361,2,0,L|438:173,1,38.2499988327027,14|0,0:0|0:0,0:0:0:0:
449,267,93534,5,2,0:0:0:0:
413,351,93706,1,2,0:0:0:0:
319,314,93879,1,2,0:0:0:0:
419,187,94051,2,0,P|486:185|522:190,1,76.4999976654053,10|2,0:0|0:0,0:0:0:0:
264,240,94396,5,2,1:2:0:0:
264,240,94568,1,2,1:2:0:0:
136,318,94740,1,8,0:0:0:0:
51,286,94913,2,0,P|95:240|185:244,1,152.999995330811,2|4,0:0|0:0,0:0:0:0:
264,240,95430,2,0,L|254:150,1,76.4999976654053,10|2,0:0|1:2,0:0:0:0:
200,27,95775,5,0,1:0:0:0:
200,27,95947,1,0,1:2:0:0:
340,83,96120,2,0,B|386:81|386:81|414:96|414:96|464:94,1,114.749996498108,10|0,0:0|0:0,0:0:0:0:
471,127,96465,1,2,0:0:0:0:
501,33,96637,1,2,0:0:0:0:
353,165,96809,1,10,0:0:0:0:
395,242,96982,1,2,1:2:0:0:
250,240,97154,6,0,B|303:207|313:286|404:238,1,152.999995330811,0|10,1:0|0:0,0:0:0:0:
353,165,97671,1,2,0:0:0:0:
265,325,97844,1,10,0:0:0:0:
227,323,97930,1,8,0:0:0:0:
193,305,98016,1,8,0:0:0:0:
172,274,98102,1,8,0:0:0:0:
166,237,98188,1,10,0:0:0:0:
216,53,98361,1,10,0:0:0:0:
216,53,98447,1,8,0:0:0:0:
216,53,98534,6,0,B|285:24|292:91|301:91|366:75|384:73,1,152.999995330811,4|0,1:0|0:0,0:0:0:0:
396,74,98878,2,0,B|445:57|445:57|400:180,1,152.999995330811,2|0,1:2|0:0,0:0:0:0:
389,193,99223,1,10,0:0:0:0:
365,295,99396,1,2,0:0:0:0:
467,255,99568,1,2,1:2:0:0:
296,331,99740,6,0,B|209:307|231:357|104:334,1,170,2|2,1:2|1:2,0:0:0:0:
25,234,100258,2,0,L|110:226,1,85,2|0,1:2|0:0,0:0:0:0:
238,121,100603,2,0,L|154:113,1,85,8|0,0:0|1:2,0:0:0:0:
337,33,100947,1,10,0:2:0:0:
378,112,101120,1,8,0:0:0:0:
378,112,101206,1,8,0:0:0:0:
378,112,101292,6,0,B|419:96|426:55|426:55|430:96|442:166,1,170,6|8,1:2|0:3,0:0:0:0:
387,344,101982,2,0,P|326:311|264:327,1,127.5,10|0,0:0|0:0,0:0:0:0:
227,331,102327,1,2,0:0:0:0:
66,201,102499,6,0,B|122:186|122:186|163:199|163:199|234:187,1,170,2|0,1:2|1:2,0:0:0:0:
231,187,103016,1,0,1:2:0:0:
349,139,103189,2,0,B|363:177|363:177|344:226,1,85,10|8,0:3|0:0,0:0:0:0:
249,347,103534,2,0,B|232:305|232:305|246:267,1,85,6|0,0:3|1:2,0:0:0:0:
318,71,103878,1,8,0:3:0:0:
318,71,103965,1,8,0:3:0:0:
318,71,104051,6,0,B|376:50|413:98|413:98|443:110|473:99,1,152.999995330811,4|0,1:0|0:0,0:0:0:0:
491,68,104396,1,2,1:2:0:0:
502,230,104568,1,2,0:0:0:0:
349,139,104740,1,10,0:0:0:0:
325,151,105085,1,2,0:0:0:0:
196,227,105258,6,0,P|149:204|49:274,1,170,2|2,1:2|1:2,0:0:0:0:
145,373,105775,2,0,P|143:330|136:289,1,85,2|0,1:2|1:2,0:0:0:0:
273,206,106120,2,0,P|274:163|282:121,1,85,8|0,0:0|1:2,0:0:0:0:
406,27,106465,1,2,1:2:0:0:
488,174,106637,1,0,1:2:0:0:
292,19,106809,5,6,1:2:0:0:
292,19,106982,1,0,1:2:0:0:
406,206,107154,2,0,P|403:269|399:307,1,85,8|0,0:0|1:2,0:0:0:0:
191,370,107499,5,2,1:2:0:0:
191,370,107671,1,0,1:2:0:0:
193,121,107844,2,0,L|282:130,1,85,8|0,0:0|1:2,0:0:0:0:
504,255,108189,5,10,0:0:0:0:
305,291,108361,1,8,0:0:0:0:
429,110,108534,5,8,0:0:0:0:
381,351,108706,1,8,0:0:0:0:
314,87,108878,5,10,1:2:0:0:
478,323,109051,1,8,1:2:0:0:
212,238,109223,5,8,0:0:0:0:
242,208,109309,1,8,0:0:0:0:
282,197,109395,1,8,0:0:0:0:
324,205,109481,1,8,0:0:0:0:
324,205,109913,6,0,L|393:213,1,63.7500024318696,2|0,0:0|0:0,0:0:0:0:
466,106,110258,2,0,L|402:113,1,63.7500024318696,2|0,0:0|0:0,0:0:0:0:
324,205,110603,1,2,0:0:0:0:
232,98,110775,1,2,0:0:0:0:
76,303,110947,6,0,L|87:210,1,93.5000028533936,6|0,1:0|0:0,0:0:0:0:
183,30,111292,1,8,0:0:0:0:
52,102,111465,2,0,B|136:61|143:143|234:96,1,187.000005706787,0|0,1:2|1:2,0:0:0:0:
427,29,111982,1,10,0:0:0:0:
487,111,112154,6,0,P|464:151|459:208,1,93.5000028533936,2|0,1:2|0:0,0:0:0:0:
391,355,112499,1,2,1:2:0:0:
238,232,112671,2,0,P|242:151|244:125,1,93.5000028533936,8|0,0:0|1:2,0:0:0:0:
79,245,113016,2,0,P|82:291|83:338,1,93.5000028533936,0|0,1:2|1:2,0:0:0:0:
354,362,113361,2,0,B|391:324|391:324|377:223,1,140.25000428009,10|0,0:0|0:0,0:0:0:0:
382,198,113706,6,0,L|486:182,1,93.5000028533936,2|0,1:2|0:0,0:0:0:0:
408,53,114051,2,0,L|315:38,1,93.5000028533936,8|0,0:0|1:2,0:0:0:0:
53,93,114396,1,2,0:0:0:0:
132,147,114568,1,2,1:2:0:0:
185,63,114741,1,10,0:0:0:0:
30,227,114913,6,0,P|83:238|217:291,1,187.000005706787,2|0,1:2|1:2,0:0:0:0:
407,354,115430,1,10,0:0:0:0:
234,187,115603,1,2,1:2:0:0:
414,165,115775,2,0,P|376:227|361:261,1,93.5000028533936,2|0,0:0|1:2,0:0:0:0:
407,354,116120,1,10,0:0:0:0:
214,211,116292,1,2,0:0:0:0:
462,88,116465,5,6,1:0:0:0:
367,245,116637,1,2,0:0:0:0:
414,165,116809,2,0,B|361:131|305:138|305:138|253:205,1,187.000005706787,10|0,0:0|0:0,0:0:0:0:
175,301,117327,1,2,1:2:0:0:
204,118,117499,1,10,0:0:0:0:
320,325,117671,6,0,P|388:334|458:229,1,187.000005706787,2|0,1:2|1:2,0:0:0:0:
439,90,118189,2,0,P|392:85|354:109,1,93.5000028533936,10|0,0:0|1:2,0:0:0:0:
175,176,118534,2,0,P|214:200|260:195,1,93.5000028533936,2|0,0:0|1:2,0:0:0:0:
439,90,118878,1,10,0:0:0:0:
221,280,119051,1,2,1:2:0:0:
354,108,119223,5,4,1:0:0:0:
365,350,119396,1,2,1:2:0:0:
180,281,119568,1,10,0:0:0:0:
360,141,119740,1,8,0:3:0:0:
360,141,119827,1,8,0:3:0:0:
360,141,119913,2,0,L|356:235,1,93.5000028533936,8|4,0:3|0:3,0:0:0:0:
365,350,120258,1,8,0:0:0:0:
118,332,120430,2,0,P|109:318|101:287,1,46.7500014266968,0|8,1:2|0:3,0:0:0:0:
154,187,120603,6,0,P|186:142|189:102,1,93.5000028533936,0|0,1:2|1:2,0:0:0:0:
349,29,120947,1,10,0:0:0:0:
470,187,121120,1,10,0:0:0:0:
447,180,121206,1,8,0:0:0:0:
424,174,121292,1,10,0:0:0:0:
240,25,121465,5,10,0:0:0:0:
321,238,121637,1,10,0:0:0:0:
461,35,121809,1,10,0:0:0:0:
205,189,121982,6,0,L|104:202,1,93.5000028533936,6|0,1:0|0:0,0:0:0:0:
161,22,122327,1,10,0:0:0:0:
251,58,122499,2,0,B|331:46|349:113|441:98,1,187.000005706787,0|2,1:0|1:2,0:0:0:0:
285,154,123016,1,10,0:0:0:0:
226,240,123189,6,0,B|208:285|208:285|225:338,1,93.5000028533936,2|0,1:2|0:0,0:0:0:0:
409,368,123534,1,2,1:2:0:0:
461,208,123706,2,0,B|414:195|414:195|371:215,1,93.5000028533936,8|0,0:0|1:2,0:0:0:0:
196,63,124051,2,0,B|237:82|237:82|284:69,1,93.5000028533936,0|0,1:2|1:2,0:0:0:0:
472,68,124396,2,0,L|460:212,1,140.25000428009,10|0,0:0|0:0,0:0:0:0:
450,243,124740,6,0,P|409:268|384:310,1,93.5000028533936,2|0,1:2|0:0,0:0:0:0:
218,304,125085,2,0,P|258:327|283:367,1,93.5000028533936,8|0,0:0|0:0,0:0:0:0:
319,190,125430,1,2,0:0:0:0:
263,103,125603,1,2,1:2:0:0:
182,161,125775,1,10,0:0:0:0:
292,295,125947,6,0,P|348:256|479:251,1,187.000005706787,2|0,1:2|1:2,0:0:0:0:
440,131,126465,2,0,P|387:120|339:106,1,93.5000028533936,10|0,0:0|1:2,0:0:0:0:
172,231,126810,2,0,P|225:220|273:206,1,93.5000028533936,2|0,0:0|1:2,0:0:0:0:
344,28,127155,1,10,0:0:0:0:
253,53,127327,6,0,B|207:67|175:52|175:52|144:74|144:74|110:65|73:92,1,187.000005706787,2|2,1:2|0:0,0:0:0:0:
13,161,127844,1,10,0:0:0:0:
166,271,128017,2,0,L|153:163,1,93.5000028533936,2|0,0:3|0:3,0:0:0:0:
57,17,128361,1,2,1:2:0:0:
256,83,128534,1,10,0:0:0:0:
221,336,128706,6,0,P|149:349|84:246,1,187.000005706787,6|0,1:0|1:2,0:0:0:0:
187,173,129223,2,0,L|173:266,1,93.5000028533936,8|0,0:0|1:2,0:0:0:0:
13,213,129568,1,2,1:2:0:0:
73,83,129740,2,0,P|115:62|161:52,1,93.5000028533936,2|10,1:2|0:0,0:0:0:0:
324,50,130086,1,2,1:2:0:0:
305,237,130258,5,10,0:0:0:0:
231,11,130430,1,2,1:2:0:0:
138,209,130603,5,10,0:0:0:0:
408,103,130775,1,0,1:2:0:0:
205,318,130947,5,8,0:0:0:0:
324,50,131120,1,0,1:2:0:0:
412,296,131292,5,8,0:0:0:0:
201,93,131465,1,0,1:2:0:0:
112,328,131637,6,0,L|212:317,1,93.5000028533936,8|0,0:0|1:2,0:0:0:0:
451,182,131982,2,0,L|351:193,1,93.5000028533936,10|0,0:0|1:2,0:0:0:0:
90,155,132327,6,0,P|70:194|69:259,1,93.5000028533936,10|0,0:0|1:2,0:0:0:0:
297,338,132671,2,0,P|293:292|273:251,1,93.5000028533936,10|0,0:0|1:2,0:0:0:0:
167,107,133017,5,14,0:0:0:0:
248,62,133189,1,0,1:2:0:0:
339,197,133361,5,8,0:3:0:0:
258,152,133533,1,8,0:3:0:0:
162,302,133706,5,10,0:3:0:0:
222,354,133878,1,8,0:3:0:0:
297,338,134051,1,4,0:3:0:0:
177,218,134224,1,6,0:3:0:0:
90,358,134396,5,10,0:0:0:0:
90,358,134568,1,0,1:2:0:0:
57,159,134740,5,10,1:2:0:0:
219,284,134913,1,8,1:2:0:0:
297,86,135085,5,10,1:2:0:0:
95,257,135258,1,10,1:2:0:0:
163,27,135430,5,10,1:2:0:0:
364,300,135603,1,10,1:2:0:0:
391,31,135775,6,0,P|338:30|296:87,1,127.500004863739,6|0,0:1|0:0,0:0:0:0:
261,173,136292,2,0,B|191:166|191:166|135:187|135:187|49:177,1,191.250007295609,2|0,0:0|0:0,0:0:0:0:
46,91,136982,1,2,0:0:0:0:
71,75,137327,1,2,0:0:0:0:
96,61,137671,2,0,B|180:18|191:94|285:50,1,191.250007295609,2|0,0:0|0:0,0:0:0:0:
436,85,138361,1,2,0:0:0:0:
436,85,138447,1,2,0:0:0:0:
436,85,138534,6,0,B|429:125|429:125|438:149|438:149|417:217,1,127.500004863739
359,274,139051,2,0,L|363:346,2,63.7500024318696,2|0|2,0:0|0:0|0:0,0:0:0:0:
285,209,139568,1,0,0:0:0:0:
285,209,139740,2,0,B|215:181|215:181|91:224,1,191.250007295609,2|0,0:0|0:0,0:0:0:0:
43,286,140430,1,2,0:0:0:0:
59,313,140775,1,2,0:0:0:0:
73,341,141120,1,2,0:0:0:0:
200,308,141292,6,0,P|247:296|298:318,1,85,6|2,1:0|1:2,0:0:0:0:
438,347,141637,1,10,0:0:0:0:
402,210,141809,1,10,0:3:0:0:
402,210,141896,1,8,0:3:0:0:
402,210,141982,1,4,0:3:0:0:
346,371,142154,1,2,1:2:0:0:
256,202,142327,1,10,0:0:0:0:
115,265,142499,6,0,B|198:232|188:314|277:285,1,170,10|2,0:3|1:2,0:0:0:0:
380,112,143016,2,0,L|291:127,1,85,10|0,0:0|1:2,0:0:0:0:
261,132,143275,1,0,1:2:0:0:
261,132,143361,2,0,P|248:101|259:44,1,85,2|0,1:2|1:2,0:0:0:0:
436,25,143706,1,10,0:0:0:0:
484,122,143878,1,2,1:2:0:0:
484,122,143965,1,0,1:2:0:0:
484,122,144051,6,0,L|456:214,1,85,10|8,0:3|0:3,0:0:0:0:
435,239,144309,2,0,P|385:227|339:242,1,85,10|0,0:3|0:0,0:0:0:0:
303,242,144568,2,0,P|315:192|300:146,1,85,10|10,0:3|0:3,0:0:0:0:
247,54,144913,2,0,L|262:10,2,42.5,0|2|8,1:0|1:2|0:0,0:0:0:0:
182,134,145258,1,2,1:2:0:0:
182,134,145344,1,0,1:2:0:0:
182,134,145430,6,0,B|149:124|126:134|126:134|104:119|104:119|80:125|54:106,1,127.5,2|0,1:2|0:0,0:0:0:0:
27,87,145775,1,10,0:0:0:0:
160,222,145947,1,10,0:3:0:0:
160,222,146034,1,8,0:3:0:0:
160,222,146120,1,8,0:3:0:0:
120,43,146292,1,2,1:2:0:0:
28,235,146465,1,8,0:0:0:0:
253,48,146637,1,8,0:3:0:0:
253,48,146723,1,8,0:3:0:0:
253,48,146809,6,0,P|328:36|364:87,1,127.5,6|0,1:0|0:0,0:0:0:0:
362,114,147154,1,8,0:0:0:0:
244,227,147327,1,10,0:3:0:0:
244,227,147413,1,8,0:3:0:0:
244,227,147499,2,0,L|154:221,1,85,8|4,0:3|0:3,0:0:0:0:
118,199,147758,1,2,0:0:0:0:
118,199,147844,1,10,0:0:0:0:
223,350,148016,6,0,B|271:328|308:346|308:346|341:313|371:309|371:309|413:301,1,170,10|0,0:3|1:2,0:0:0:0:
481,174,148534,1,8,0:0:0:0:
313,96,148706,1,0,1:2:0:0:
313,96,148792,1,0,1:2:0:0:
313,96,148878,2,0,L|308:162,3,42.5,10|8|10|0,0:3|0:3|0:3|1:2,0:0:0:0:
197,180,149223,2,0,L|193:137,3,42.5,10|0|10|8,0:0|1:2|0:3|0:3,0:0:0:0:
123,254,149568,5,2,1:2:0:0:
162,268,149654,1,0,1:2:0:0:
204,275,149740,1,2,1:2:0:0:
246,270,149826,1,0,1:2:0:0:
284,252,149912,1,10,0:0:0:0:
321,230,149999,1,0,1:0:0:0:
361,219,150085,1,2,1:2:0:0:
404,222,150171,1,0,1:2:0:0:
444,235,150258,6,0,L|439:292,1,42.5,2|0,1:2|1:2,0:0:0:0:
351,141,150430,2,0,L|345:84,1,42.5,2|2,1:2|1:3,0:0:0:0:
284,252,150603,2,0,L|278:309,1,42.5,8|2,1:2|1:2,0:0:0:0:
94,342,150775,6,0,P|44:304|56:205,1,170,10|6,0:3|0:3,0:0:0:0:
93,188,151206,1,2,0:0:0:0:
93,188,151292,2,0,L|83:91,1,85,10|8,0:0|0:3,0:0:0:0:
266,121,151637,1,8,0:3:0:0:
226,108,151723,1,0,1:2:0:0:
210,70,151809,1,4,0:3:0:0:
228,33,151895,1,4,0:3:0:0:
268,22,151981,1,8,0:0:0:0:
302,46,152068,1,0,1:2:0:0:
307,86,152154,6,0,L|354:92,1,42.5,6|4,0:3|0:3,0:0:0:0:
497,164,152327,1,2,1:2:0:0:
329,203,152499,1,2,1:2:0:0:
436,43,152671,1,10,0:0:0:0:
426,255,152844,5,8,0:3:0:0:
426,255,152930,1,8,0:3:0:0:
426,255,153016,2,0,L|438:349,1,85,0|8,1:2|0:3,0:0:0:0:
398,364,153275,1,8,0:3:0:0:
398,364,153361,1,8,0:0:0:0:
257,273,153534,1,8,0:3:0:0:
381,143,153706,5,2,1:2:0:0:
301,362,153878,1,2,1:2:0:0:
301,362,153965,1,2,0:3:0:0:
301,362,154051,1,8,0:0:0:0:
211,187,154223,1,8,0:3:0:0:
406,242,154396,5,0,1:2:0:0:
504,217,154568,1,0,1:2:0:0:
480,118,154740,1,8,0:0:0:0:
381,143,154913,1,0,1:2:0:0:
209,313,155085,5,6,1:0:0:0:
266,104,155258,1,2,1:2:0:0:
115,193,155430,2,0,L|23:207,1,85,10|0,0:0|1:2,0:0:0:0:
9,244,155689,1,2,0:0:0:0:
9,244,155775,1,2,1:2:0:0:
174,345,155947,2,0,L|258:357,1,85,2|8,1:2|0:0,0:0:0:0:
430,291,156292,5,10,0:3:0:0:
450,129,156465,2,0,P|411:121|361:150,1,85,2|0,1:2|1:2,0:0:0:0:
188,238,156809,1,10,0:0:0:0:
158,32,156982,1,2,1:2:0:0:
195,28,157068,1,2,0:0:0:0:
231,41,157154,1,2,1:2:0:0:
258,68,157240,1,2,0:0:0:0:
270,104,157326,1,2,1:2:0:0:
300,294,157499,1,8,0:0:0:0:
96,213,157671,5,8,0:3:0:0:
96,213,157758,1,8,0:3:0:0:
96,213,157844,2,0,L|91:160,2,42.5,0|0|0,1:2|1:2|1:2,0:0:0:0:
186,258,158103,1,8,0:0:0:0:
186,258,158189,2,0,L|182:300,1,42.5,8|4,0:3|0:3,0:0:0:0:
304,336,158361,2,0,L|300:294,1,42.5,8|0,0:0|1:2,0:0:0:0:
278,164,158534,5,8,0:0:0:0:
307,161,158620,1,8,0:0:0:0:
337,158,158706,1,8,0:3:0:0:
366,155,158792,1,8,0:3:0:0:
396,152,158878,2,0,L|461:143,3,42.5,8|8|4|8,0:0|0:3|0:3|0:0,0:0:0:0:
379,49,159223,5,10,0:0:0:0:
344,24,159309,1,10,0:0:0:0:
302,17,159395,1,10,0:3:0:0:
260,23,159481,1,10,0:3:0:0:
229,52,159567,1,10,0:3:0:0:
230,94,159654,1,10,0:3:0:0:
235,136,159740,1,6,0:3:0:0:
241,177,159826,1,6,0:3:0:0:
234,218,159912,5,8,0:3:0:0:
213,255,159999,1,8,0:3:0:0:
179,281,160085,1,8,0:3:0:0:
136,281,160171,1,8,0:3:0:0:
97,263,160257,1,12,0:3:0:0:
68,231,160343,1,4,0:3:0:0:
64,188,160430,1,4,0:3:0:0:
75,147,160516,1,4,0:3:0:0:
107,113,160603,6,0,B|126:121|155:97|155:97|190:76|237:111,1,140.25000428009,6|0,1:0|0:0,0:0:0:0:
262,139,160947,1,8,0:0:0:0:
189,276,161120,2,0,P|130:267|76:259,1,93.5000028533936,2|0,1:2|0:0,0:0:0:0:
262,139,161465,1,0,1:2:0:0:
93,345,161637,1,10,0:0:0:0:
68,101,161809,6,0,P|128:68|194:85,1,140.25000428009,2|0,1:2|0:0,0:0:0:0:
235,110,162154,1,0,1:2:0:0:
438,227,162327,2,0,P|383:265|296:249,1,140.25000428009,10|0,0:0|0:0,0:0:0:0:
275,234,162671,1,2,1:2:0:0:
193,297,162844,1,2,1:2:0:0:
144,163,163016,1,10,0:0:0:0:
237,152,163189,1,2,1:2:0:0:
115,247,163361,5,6,1:0:0:0:
175,78,163534,1,2,1:2:0:0:
275,234,163706,1,10,0:0:0:0:
75,109,163878,1,2,1:2:0:0:
196,302,164051,1,2,1:2:0:0:
264,108,164223,1,2,1:2:0:0:
171,305,164396,1,10,0:0:0:0:
314,180,164568,6,0,B|387:152|369:229|457:194,1,140.25000428009,0|0,1:2|0:0,0:0:0:0:
481,190,164913,1,2,1:2:0:0:
335,362,165085,2,0,P|332:315|327:269,1,93.5000028533936,10|0,0:0|1:2,0:0:0:0:
373,82,165430,1,2,1:2:0:0:
233,198,165603,1,2,1:2:0:0:
445,199,165775,1,10,0:0:0:0:
289,61,165947,1,2,1:2:0:0:
327,268,166120,5,6,1:2:0:0:
233,198,166292,1,2,1:2:0:0:
242,346,166465,1,10,0:0:0:0:
327,268,166637,1,0,1:2:0:0:
142,281,166809,1,2,1:2:0:0:
228,155,166982,1,2,1:2:0:0:
206,352,167154,1,10,0:0:0:0:
421,305,167327,6,0,P|450:214|463:137,1,140.25000428009,2|0,1:2|0:0,0:0:0:0:
438,134,167671,1,0,1:2:0:0:
236,208,167844,2,0,L|331:201,1,93.5000028533936,10|0,0:0|1:2,0:0:0:0:
458,170,168189,1,2,1:2:0:0:
359,92,168361,1,2,1:2:0:0:
329,201,168534,1,10,0:0:0:0:
450,85,168706,1,2,1:2:0:0:
413,272,168878,5,6,1:0:0:0:
263,124,169051,1,0,1:2:0:0:
255,324,169223,1,10,0:0:0:0:
458,170,169396,1,0,1:2:0:0:
458,170,169482,1,0,1:2:0:0:
458,170,169568,2,0,P|467:105|470:60,1,93.5000028533936,2|2,1:2|1:2,0:0:0:0:
293,22,169913,1,8,0:0:0:0:
149,117,170085,1,2,1:2:0:0:
149,117,170171,1,8,0:3:0:0:
149,117,170258,6,0,B|223:72|244:177|347:112,1,187.000005706787,0|10,1:2|0:0,0:0:0:0:
428,19,170775,1,8,0:0:0:0:
428,19,170861,1,8,0:0:0:0:
428,19,170947,1,10,0:0:0:0:
310,253,171120,1,10,0:0:0:0:
288,56,171292,1,10,0:0:0:0:
506,187,171465,1,10,0:0:0:0:
239,330,171637,6,0,B|211:290|211:290|177:276|177:276|146:229,1,140.25000428009,6|0,1:0|0:0,0:0:0:0:
123,188,171982,1,10,0:0:0:0:
288,56,172154,2,0,P|355:28|402:118,1,187.000005706787,2|2,1:2|1:2,0:0:0:0:
310,279,172671,1,10,0:0:0:0:
254,353,172844,6,0,P|246:259|233:154,1,187.000005706787,2|0,1:2|1:2,0:0:0:0:
104,48,173361,2,0,P|89:115|77:150,1,93.5000028533936,10|0,0:0|1:2,0:0:0:0:
33,263,173706,1,2,1:2:0:0:
33,263,173878,1,2,1:2:0:0:
216,147,174051,2,0,L|324:142,1,93.5000028533936,10|2,0:0|1:2,0:0:0:0:
492,167,174396,5,2,1:2:0:0:
342,59,174568,1,2,1:2:0:0:
299,263,174740,1,10,0:0:0:0:
444,61,174913,2,0,P|469:48|447:80,1,93.5000028533936,2|2,1:2|1:2,0:0:0:0:
309,142,175258,1,2,1:2:0:0:
215,35,175430,1,10,0:0:0:0:
181,237,175603,6,0,B|126:229|126:229|86:245|86:245|26:232,1,140.25000428009,2|0,1:2|0:0,0:0:0:0:
24,202,175947,1,2,1:2:0:0:
79,35,176120,2,0,B|134:27|134:27|174:43|174:43|234:30,1,140.25000428009,10|0,0:0|0:0,0:0:0:0:
249,56,176465,1,2,1:2:0:0:
181,187,176637,1,2,1:2:0:0:
384,224,176809,1,10,0:0:0:0:
349,27,176982,1,2,1:2:0:0:
263,243,177154,5,2,1:2:0:0:
404,122,177327,1,2,1:2:0:0:
396,312,177499,1,10,0:0:0:0:
174,220,177671,2,0,P|196:179|335:187,1,187.000005706787,2|2,1:2|1:2,0:0:0:0:
396,312,178189,1,10,0:0:0:0:
297,353,178361,6,0,B|226:322|226:322|183:356|122:329,1,187.000005706787,6|0,1:0|1:2,0:0:0:0:
130,139,178878,2,0,P|156:175|168:233,1,93.5000028533936,10|2,0:0|1:2,0:0:0:0:
297,353,179223,1,2,1:2:0:0:
509,218,179396,1,2,1:2:0:0:
362,245,179568,2,0,L|369:147,1,93.5000028533936,10|0,0:0|1:2,0:0:0:0:
467,22,179913,5,14,0:0:0:0:
264,161,180085,1,0,1:2:0:0:
509,218,180258,5,8,0:0:0:0:
319,15,180430,1,2,1:2:0:0:
369,275,180603,5,8,0:0:0:0:
467,22,180775,1,0,1:2:0:0:
464,303,180947,5,8,0:0:0:0:
254,73,181120,1,0,1:2:0:0:
126,314,181292,6,0,L|216:288,1,93.5000028533936,8|0,0:0|1:2,0:0:0:0:
466,130,181637,2,0,L|376:103,1,93.5000028533936,8|0,0:0|1:2,0:0:0:0:
81,241,181982,6,0,L|170:214,1,93.5000028533936,10|0,0:0|1:2,0:0:0:0:
494,59,182327,2,0,L|404:32,1,93.5000028533936,8|0,0:0|1:2,0:0:0:0:
115,37,182671,5,14,0:0:0:0:
376,103,182844,1,0,1:2:0:0:
170,213,183016,1,8,0:3:0:0:
260,20,183189,1,8,0:3:0:0:
309,316,183361,5,4,0:3:0:0:
220,109,183534,1,4,0:3:0:0:
450,203,183706,1,4,0:3:0:0:
171,245,183878,1,4,0:3:0:0:
322,119,184051,6,0,P|364:150|434:118,1,127.500004863739,2|2,0:0|0:0,0:0:0:0:
358,173,185430,6,0,B|346:146|346:89|426:119|444:74|433:3|360:0|342:38|342:38|312:0|239:16|257:87|285:112|320:101|328:131,1,420.750012840271,6|2,0:0|0:0,0:0:0:0:
421,293,187844,1,2,0:0:0:0:
421,293,188189,6,0,B|368:263|335:175|335:175|248:281|297:266|297:266|332:264|356:295,1,327.250009986878,2|0,0:0|0:0,0:0:0:0:
504,293,189568,5,8,0:0:0:0:
374,362,189740,2,0,L|330:371,2,31.8750012159348,10|8|8,0:3|0:0|0:3,0:0:0:0:
444,206,190085,2,0,L|488:197,2,31.8750012159348,10|4|2,0:3|0:3|0:0,0:0:0:0:
345,283,190430,1,8,0:0:0:0:
247,325,190603,2,0,L|237:284,1,31.8750012159348,10|6,0:3|0:3,0:0:0:0:
155,232,190775,2,0,L|145:273,1,31.8750012159348,2|6,0:0|0:3,0:0:0:0:
72,343,190947,5,4,1:0:0:0:
244,212,191120,1,2,0:0:0:0:
33,55,191292,2,0,B|77:112|77:112|133:119|186:85,1,187.000005706787,10|0,0:0|0:0,0:0:0:0:
320,9,191809,1,2,1:2:0:0:
149,195,191982,1,10,0:0:0:0:
348,327,192154,6,0,P|357:239|442:212,1,187.000005706787,2|0,1:2|1:2,0:0:0:0:
485,75,192671,2,0,P|435:82|382:65,1,93.5000028533936,10|0,0:0|1:2,0:0:0:0:
213,41,193016,2,0,P|223:86|216:132,1,93.5000028533936,2|0,0:0|1:2,0:0:0:0:
101,278,193361,1,10,0:0:0:0:
312,162,193534,1,2,1:2:0:0:
104,103,193706,5,4,1:0:0:0:
313,320,193878,1,2,1:2:0:0:
383,114,194051,1,10,0:0:0:0:
469,349,194223,1,8,0:3:0:0:
469,349,194309,1,8,0:3:0:0:
469,349,194396,2,0,P|453:295|433:246,1,93.5000028533936,8|0,0:3|1:2,0:0:0:0:
355,41,194740,1,8,0:0:0:0:
272,201,194913,2,0,L|235:258,1,46.7500014266968,8|8,0:3|0:3,0:0:0:0:
191,315,195085,6,0,B|149:325|149:325|95:315,1,93.5000028533936,8|0,0:3|1:2,0:0:0:0:
43,161,195430,1,10,0:0:0:0:
271,156,195603,1,10,0:0:0:0:
276,178,195689,1,8,0:0:0:0:
272,201,195775,1,10,0:0:0:0:
191,315,195947,5,10,0:0:0:0:
117,114,196120,1,10,0:0:0:0:
364,243,196292,1,10,0:0:0:0:
55,344,196465,6,0,P|59:302|66:238,1,93.5000028533936,6|0,1:0|0:0,0:0:0:0:
181,40,196809,1,10,0:0:0:0:
277,80,196982,2,0,P|229:131|97:90,1,187.000005706787,0|2,1:0|1:2,0:0:0:0:
47,40,197499,1,10,0:0:0:0:
10,227,197671,6,0,B|-5:267|-5:267|18:315,1,93.5000028533936,6|0,1:2|0:0,0:0:0:0:
203,331,198016,1,2,1:2:0:0:
339,172,198189,2,0,L|237:182,1,93.5000028533936,8|0,0:0|1:2,0:0:0:0:
86,33,198534,2,0,L|179:42,1,93.5000028533936,0|0,1:2|1:2,0:0:0:0:
474,97,198878,2,0,B|447:125|407:121|407:121|428:159|420:195,1,140.25000428009,8|0,0:0|0:0,0:0:0:0:
428,223,199223,6,0,L|420:320,1,93.5000028533936,6|0,1:2|0:0,0:0:0:0:
281,356,199568,2,0,L|273:262,1,93.5000028533936,8|4,0:0|0:3,0:0:0:0:
243,43,199913,1,2,1:2:0:0:
324,113,200085,1,2,1:2:0:0:
171,121,200258,1,10,0:0:0:0:
369,25,200430,6,0,P|411:68|377:190,1,187.000005706787,2|0,1:2|1:2,0:0:0:0:
276,287,200947,2,0,L|262:184,1,93.5000028533936,10|0,0:0|1:2,0:0:0:0:
115,57,201292,2,0,L|102:149,1,93.5000028533936,2|0,0:0|1:2,0:0:0:0:
167,323,201637,1,10,0:0:0:0:
276,287,201809,6,0,B|325:258|368:286|368:286|406:313|480:289,1,187.000005706787,2|2,1:2|0:0,0:0:0:0:
420,209,202327,1,10,0:0:0:0:
304,60,202499,2,0,P|281:117|276:157,1,93.5000028533936,4|0,0:3|0:0,0:0:0:0:
281,335,202844,1,2,1:2:0:0:
420,209,203016,1,10,0:0:0:0:
182,155,203189,6,0,B|91:108|96:186|-4:118,1,187.000005706787,6|2,1:0|1:2,0:0:0:0:
44,33,203706,2,0,P|77:13|77:52,1,93.5000028533936,8|0,0:0|1:2,0:0:0:0:
26,241,204051,1,2,1:2:0:0:
188,335,204223,2,0,P|240:341|294:330,1,93.5000028533936,2|8,1:2|0:0,0:0:0:0:
370,197,204568,1,2,1:2:0:0:
107,298,204740,5,14,0:0:0:0:
268,98,204913,1,2,1:2:0:0:
358,360,205085,5,10,0:0:0:0:
127,215,205258,1,0,1:2:0:0:
398,86,205430,5,8,0:0:0:0:
239,304,205603,1,0,1:2:0:0:
188,44,205775,5,8,0:0:0:0:
424,250,205947,1,0,1:2:0:0:
133,132,206120,6,0,P|86:127|41:139,1,93.5000028533936,8|0,0:0|1:2,0:0:0:0:
156,334,206465,2,0,P|201:345|247:340,1,93.5000028533936,10|0,0:0|1:2,0:0:0:0:
432,156,206809,6,0,L|423:255,1,93.5000028533936,10|0,0:0|1:2,0:0:0:0:
214,143,207154,2,0,L|205:49,1,93.5000028533936,10|0,0:0|1:2,0:0:0:0:
77,264,207499,5,14,0:0:0:0:
156,334,207671,1,0,1:2:0:0:
286,197,207844,5,8,0:3:0:0:
184,225,208016,1,8,0:3:0:0:
306,324,208189,5,10,0:3:0:0:
353,251,208361,1,8,0:3:0:0:
286,197,208534,1,4,0:3:0:0:
204,355,208706,1,10,0:3:0:0:
119,298,208878,6,0,P|74:287|19:310,2,93.5000028533936,2|2|2,0:1|0:0|0:0,0:0:0:0:
312,356,209913,1,2,0:0:0:0:
312,356,210085,1,2,0:0:0:0:
430,244,210258,5,10,0:0:0:0:
296,187,210430,1,0,1:2:0:0:
296,187,210603,1,2,1:2:0:0:
413,344,210775,5,8,0:0:0:0:
387,162,210947,1,2,1:2:0:0:
387,162,211120,1,0,1:2:0:0:
259,284,211292,5,8,0:0:0:0:
308,110,211465,1,10,0:0:0:0:
494,348,211637,6,0,P|452:335|398:352,1,85,6|0,1:0|0:0,0:0:0:0:
259,284,211982,2,0,P|300:292|340:279,1,85,2|0,1:2|0:0,0:0:0:0:
453,96,212327,2,0,B|401:56|401:56|364:71|337:107,1,127.5,10|0,0:0|0:0,0:0:0:0:
308,110,212671,1,0,1:2:0:0:
195,228,212844,6,0,P|127:196|63:125,1,170,2|0,1:2|1:2,0:0:0:0:
141,29,213361,2,0,L|234:41,1,85,2|0,1:2|1:2,0:0:0:0:
406,164,213706,2,0,L|322:175,1,85,10|0,0:0|0:0,0:0:0:0:
72,342,214051,2,0,P|125:313|210:351,1,127.5,0|0,1:2|0:0,0:0:0:0:
233,343,214396,6,0,L|223:236,1,85,2|0,1:2|0:0,0:0:0:0:
143,133,214740,2,0,L|135:218,1,85,2|0,1:2|0:0,0:0:0:0:
334,305,215085,2,0,B|390:286|390:286|475:305,1,127.5,10|0,0:0|0:0,0:0:0:0:
499,300,215430,1,2,0:3:0:0:
488,149,215603,6,0,P|438:123|331:148,1,170,2|0,1:2|1:2,0:0:0:0:
219,160,216120,2,0,P|224:118|242:80,1,85,2|0,1:2|0:0,0:0:0:0:
412,214,216465,1,10,0:0:0:0:
412,214,216551,1,2,0:0:0:0:
412,214,216637,1,2,0:0:0:0:
462,298,216809,2,0,P|383:306|333:258,1,127.5,2|0,1:2|0:0,0:0:0:0:
347,280,217154,6,0,P|288:295|249:303,1,85,2|0,1:2|0:0,0:0:0:0:
101,338,217499,2,0,P|143:347|184:358,1,85,2|0,1:2|0:0,0:0:0:0:
251,192,217844,2,0,B|217:181|195:144|195:144|169:192,1,127.5,10|0,0:0|0:0,0:0:0:0:
151,229,218189,1,2,0:3:0:0:
144,54,218361,6,0,B|199:40|199:40|246:51|246:51|320:39,1,170,2|0,1:2|1:2,0:0:0:0:
437,41,218878,2,0,L|424:135,1,85,2|0,1:2|0:0,0:0:0:0:
315,260,219223,2,0,L|303:176,1,85,8|0,0:0|0:0,0:0:0:0:
142,75,219568,2,0,P|93:104|81:178,1,127.5,2|0,1:2|0:0,0:0:0:0:
79,169,219913,6,0,B|100:242|174:225|196:318,1,170,2|0,1:2|1:2,0:0:0:0:
191,148,220430,1,2,0:0:0:0:
274,93,220603,2,0,B|316:87|316:87|357:105,1,85,8|8,0:0|0:3,0:0:0:0:
444,233,220947,2,0,B|402:239|402:239|361:221,1,85,2|0,1:2|1:2,0:0:0:0:
199,67,221292,5,8,0:0:0:0:
149,227,221465,1,0,1:2:0:0:
81,25,221637,5,8,0:0:0:0:
246,184,221809,1,8,0:0:0:0:
13,148,221982,5,8,0:0:0:0:
241,37,222154,1,8,0:0:0:0:
67,254,222327,5,8,0:0:0:0:
160,21,222499,1,8,0:0:0:0:
292,120,222691,6,0,P|337:132|391:121,1,93.5000028533936,2|2,0:0|0:0,0:0:0:0:
458,63,223421,1,2,0:0:0:0:
185,27,223878,1,2,0:0:0:0:
256,192,223964,12,0,226809,0:0:0:0:
