osu file format v14

[General]
AudioFilename: audio.mp3
AudioLeadIn: 0
PreviewTime: 58279
Countdown: 0
SampleSet: Soft
StackLeniency: 0.7
Mode: 2
LetterboxInBreaks: 0
WidescreenStoryboard: 1

[Editor]
DistanceSpacing: 1
BeatDivisor: 4
GridSize: 8
TimelineZoom: 1.6

[Metadata]
Title:Rakuen PROJECT (TV Size)
TitleUnicode:楽園PROJECT (TV Size)
Artist:Ray
ArtistUnicode:Ray
Creator:Kukkai
Version:zerokt's Overdose
Source:To LOVEる-とらぶる-ダークネス
Tags:zerokt -hex- Daletto NyalettOwO x3 bigh bighzonda anime opening season 3 japanese jp to love ru toloveru darkness OP Toraburu Trouble pop j-pop jpop 高瀬一矢 Takase Kazuya Happy days single album Xebec Madman Entertainment Sentai Filmworks paradise 中山怜香 Reika Nakayama Clione Geneon Universal NBCUniversal Japan LLC
BeatmapID:3723524
BeatmapSetID:1813639

[Difficulty]
HPDrainRate:5
CircleSize:3
OverallDifficulty:9.4
ApproachRate:9.4
SliderMultiplier:2.35
SliderTickRate:2

[Events]
//Background and Video events
0,0,"bggggg.jpg",0,0
Video,275,"vdooo.mp4"
//Break Periods
//Storyboard Layer 0 (Background)
//Storyboard Layer 1 (Fail)
//Storyboard Layer 2 (Pass)
//Storyboard Layer 3 (Foreground)
//Storyboard Layer 4 (Overlay)
//Storyboard Sound Samples

[TimingPoints]
-5943,444.444444444444,4,2,1,60,1,0
1168,-100,4,2,1,60,0,0
8279,-100,4,2,1,65,0,0
11279,-100,4,2,1,5,0,0
11390,-100,4,2,1,65,0,0
20279,-100,4,2,1,65,0,0
21168,-83.3333333333333,4,2,1,60,0,0
21501,-83.3333333333333,4,2,1,5,0,0
21612,-71.4285714285714,4,2,1,60,0,0
21834,-83.3333333333333,4,2,1,5,0,0
21945,-40,4,2,1,60,0,0
22168,-83.3333333333333,4,2,1,5,0,0
22279,-83.3333333333333,4,2,1,60,0,0
22501,-90.9090909090909,4,2,1,65,0,0
59834,-76.9230769230769,4,2,1,70,0,1
72945,-71.4285714285714,4,2,1,70,0,1
73390,-76.9230769230769,4,2,1,70,0,1
79168,-100,4,2,1,70,0,0
79834,-100,4,2,1,60,0,0
81168,-100,4,2,1,65,0,0

[Colours]
Combo1 : 69,186,75
Combo2 : 254,150,181
Combo3 : 255,255,155

[HitObjects]
118,101,279,5,0,3:2:0:0:
176,96,390,2,0,P|232:160|200:272,1,176.25,0|0,3:2|0:2,0:0:0:0:
177,264,834,1,0,0:2:0:0:
143,268,945,1,0,0:2:0:0:
98,269,1056,1,0,0:2:0:0:
336,112,1168,6,0,L|192:112,1,117.5,6|0,3:2|0:2,0:0:0:0:
232,88,1501,1,2,0:2:0:0:
272,80,1612,1,0,3:2:0:0:
392,64,1834,1,2,0:2:0:0:
96,56,2056,2,0,L|27:158,1,117.5,2|0,3:2|0:2,0:0:0:0:
91,182,2390,1,2,0:2:0:0:
144,200,2501,1,0,3:2:0:0:
32,296,2723,1,2,0:2:0:0:
320,304,2945,6,0,L|464:304,1,117.5,2|0,3:2|0:2,0:0:0:0:
416,288,3279,1,2,0:2:0:0:
384,272,3390,1,0,3:2:0:0:
96,200,3612,1,2,0:2:0:0:
56,200,3834,1,0,3:2:0:0:
344,104,4056,1,0,0:2:0:0:
56,56,4279,2,0,L|24:184,1,117.5,0|0,3:2|0:2,0:0:0:0:
320,240,4723,6,0,L|412:138,1,117.5,6|0,3:2|0:2,0:0:0:0:
358,128,5057,1,2,0:2:0:0:
296,120,5168,1,0,3:2:0:0:
424,112,5390,1,2,0:2:0:0:
128,80,5612,2,0,L|280:80,1,117.5,2|0,3:2|0:2,0:0:0:0:
192,64,5945,1,2,0:2:0:0:
136,64,6056,1,0,3:2:0:0:
16,72,6279,1,2,0:2:0:0:
312,280,6501,6,0,L|160:280,1,117.5,2|0,3:2|0:2,0:0:0:0:
248,264,6834,1,2,0:2:0:0:
304,264,6945,1,0,3:2:0:0:
16,120,7168,1,2,0:2:0:0:
188,116,7390,1,0,3:2:0:0:
357,116,7612,1,0,3:2:0:0:
64,160,7834,2,0,L|48:288,1,117.5,0|0,3:2|3:2,0:0:0:0:
96,296,8168,1,0,3:2:0:0:
320,296,8279,6,0,L|448:288,1,117.5,4|0,3:2|0:2,0:0:0:0:
240,88,8723,1,2,3:2:0:0:
240,72,8945,1,0,0:2:0:0:
416,64,9168,2,0,L|296:64,1,117.5,2|0,3:2|0:2,0:0:0:0:
360,56,9501,1,2,0:2:0:0:
416,56,9612,1,0,3:2:0:0:
128,48,9834,1,2,0:2:0:0:
416,232,10056,6,0,L|288:184,1,117.5,2|0,3:2|0:2,0:0:0:0:
248,192,10389,1,2,0:2:0:0:
192,208,10500,1,0,3:2:0:0:
392,64,10723,1,2,0:2:0:0:
104,72,10945,2,0,L|6:243,1,176.25,2|0,3:2|0:0,0:0:0:0:
57,269,11390,1,2,3:2:0:0:
101,291,11501,1,0,0:2:0:0:
150,301,11612,1,0,0:2:0:0:
457,192,11834,6,0,L|432:69,1,117.5,6|0,3:2|0:2,0:0:0:0:
232,320,12279,2,0,L|232:200,1,117.5,2|0,3:2|0:2,0:0:0:0:
40,200,12723,2,0,L|40:80,1,117.5,2|0,3:2|0:2,0:0:0:0:
336,56,13168,2,0,L|456:56,1,117.5,2|0,3:2|0:2,0:0:0:0:
160,56,13612,5,2,3:2:0:0:
448,152,13834,2,0,L|456:288,1,117.5,2|2,3:2|0:2,0:0:0:0:
152,120,14279,2,0,L|424:120,1,235,2|2,3:2|3:2,0:0:0:0:
192,64,14945,1,0,3:2:0:0:
256,64,15056,1,2,3:2:0:0:
320,64,15168,1,0,3:2:0:0:
384,64,15279,1,0,3:2:0:0:
128,240,15390,6,0,L|272:240,1,117.5,4|0,3:2|0:2,0:0:0:0:
56,160,15834,2,0,L|192:160,1,117.5,0|0,3:2|0:2,0:0:0:0:
368,112,16279,2,0,L|224:112,1,117.5,0|0,3:2|0:2,0:0:0:0:
440,32,16723,1,0,3:2:0:0:
152,40,16945,1,2,0:2:0:0:
440,264,17168,6,0,L|312:256,1,117.5,2|0,3:2|0:2,0:0:0:0:
304,224,17502,1,2,0:2:0:0:
320,176,17613,1,0,3:2:0:0:
448,160,17835,1,2,0:2:0:0:
144,208,18056,2,0,L|49:126,1,117.5,2|0,3:2|0:2,0:0:0:0:
97,92,18390,1,2,0:2:0:0:
147,59,18501,1,0,3:2:0:0:
336,64,18723,1,2,0:2:0:0:
40,248,18945,5,6,3:2:0:0:
240,248,19167,1,2,0:2:0:0:
40,232,19389,1,0,3:2:0:0:
344,64,19612,1,4,3:2:0:0:
80,64,20056,1,0,3:2:0:0:
80,56,20279,1,0,3:2:0:0:
424,192,20501,1,4,3:2:0:0:
424,136,21168,6,0,L|200:136,1,211.499993545532,2|0,0:2|0:0,0:0:0:0:
184,216,21612,2,0,L|384:216,1,164.499994979859,2|0,3:2|0:0,0:0:0:0:
400,296,21945,2,0,L|80:296,1,293.75,2|0,3:2|0:0,0:0:0:0:
64,288,22279,1,2,3:2:0:0:
48,264,22390,1,0,3:2:0:0:
336,152,22501,6,0,L|465:152,2,129.250003944397,6|2|2,3:2|0:2|0:2,0:0:0:0:
136,152,23168,2,0,L|136:16,1,129.250003944397,2|0,3:2|0:2,0:0:0:0:
336,296,23612,1,2,0:2:0:0:
136,304,23834,1,2,3:2:0:0:
456,200,24056,6,0,L|456:56,1,129.250003944397,2|0,0:2|0:2,0:0:0:0:
144,64,24501,1,2,3:2:0:0:
456,224,24723,2,0,L|264:224,1,129.250003944397,2|2,3:2|0:2,0:0:0:0:
144,184,25168,2,0,L|328:184,1,129.250003944397,2|0,0:2|3:2,0:0:0:0:
304,160,25501,1,2,0:2:0:0:
296,136,25612,1,0,0:2:0:0:
104,120,25834,1,2,0:2:0:0:
424,304,26056,5,6,3:2:0:0:
240,304,26279,1,2,0:2:0:0:
64,304,26501,1,2,0:2:0:0:
416,112,26723,2,0,L|416:272,1,129.250003944397,2|0,3:2|0:2,0:0:0:0:
208,232,27168,1,2,3:2:0:0:
416,240,27390,1,2,0:2:0:0:
96,120,27612,1,2,3:2:0:0:
424,64,27834,5,0,3:2:0:0:
472,64,27945,1,0,3:2:0:0:
424,64,28056,1,2,3:2:0:0:
104,64,28279,5,2,3:2:0:0:
136,64,28334,1,0,0:0:0:0:
168,64,28390,1,0,0:0:0:0:
200,64,28445,1,0,0:0:0:0:
233,64,28501,1,2,3:2:0:0:
265,64,28556,1,0,0:0:0:0:
296,64,28612,1,0,3:2:0:0:
80,152,28723,5,2,3:2:0:0:
51,167,28778,1,0,0:0:0:0:
31,192,28834,1,0,3:2:0:0:
23,223,28889,1,0,0:0:0:0:
29,255,28945,1,2,3:2:0:0:
47,281,29000,1,0,0:0:0:0:
74,299,29056,1,0,3:2:0:0:
320,160,29168,5,2,3:2:0:0:
352,160,29223,1,0,0:0:0:0:
320,160,29279,1,0,3:2:0:0:
72,320,29390,1,2,3:2:0:0:
8,320,29501,1,0,3:2:0:0:
328,328,29612,6,0,L|112:320,1,193.875005916596,6|2,3:2|0:2,0:0:0:0:
176,304,30056,1,0,3:2:0:0:
496,208,30279,2,0,L|400:80,1,129.250003944397,2|0,0:2|3:2,0:0:0:0:
288,64,30723,1,2,0:2:0:0:
80,192,30945,2,0,L|232:64,1,193.875005916596,2|2,3:2|0:2,0:0:0:0:
168,56,31389,5,0,3:2:0:0:
488,136,31612,2,0,L|488:304,1,129.250003944397,2|0,0:2|3:2,0:0:0:0:
368,264,32056,1,2,0:2:0:0:
160,80,32279,2,0,L|328:80,1,129.250003944397,2|2,3:2|0:2,0:0:0:0:
80,160,32723,2,0,L|72:304,1,129.250003944397,2|2,3:2|0:2,0:0:0:0:
416,288,33168,6,0,P|440:208|400:88,1,193.875005916596,2|2,3:2|0:2,0:0:0:0:
352,104,33612,1,0,3:2:0:0:
40,120,33834,2,0,L|200:120,1,129.250003944397,2|0,0:2|3:2,0:0:0:0:
296,128,34279,1,2,0:2:0:0:
112,216,34501,2,0,L|360:216,1,193.875005916596,2|2,3:2|0:2,0:0:0:0:
384,216,34945,5,0,3:2:0:0:
56,64,35168,2,0,L|56:232,1,129.250003944397,2|0,3:2|0:2,0:0:0:0:
184,208,35612,1,2,3:2:0:0:
392,72,35835,2,0,L|224:72,1,129.250003944397,2|2,3:2|3:2,0:0:0:0:
216,120,36168,1,0,0:2:0:0:
392,112,36279,2,0,L|464:112,1,64.6250019721985,2|0,3:2|3:2,0:0:0:0:
216,136,36501,2,0,L|144:136,1,64.6250019721985,2|0,3:2|3:2,0:0:0:0:
392,128,36723,6,0,P|456:168|384:248,1,193.875005916596,6|2,3:2|0:2,0:0:0:0:
336,256,37168,1,0,3:2:0:0:
23,191,37390,2,0,L|191:207,1,129.250003944397,2|0,0:2|3:2,0:0:0:0:
333,204,37834,1,2,0:2:0:0:
146,68,38056,2,0,P|96:124|98:246,1,193.875005916596,2|2,3:2|0:2,0:0:0:0:
159,240,38501,5,0,3:2:0:0:
496,216,38723,2,0,L|496:64,1,129.250003944397,2|0,0:2|3:2,0:0:0:0:
168,56,39168,1,2,0:2:0:0:
328,56,39390,2,0,L|328:208,1,129.250003944397,2|2,3:2|0:2,0:0:0:0:
136,208,39834,2,0,L|136:360,1,129.250003944397,2|2,3:2|0:2,0:0:0:0:
449,315,40279,6,0,L|202:312,1,193.875005916596,6|2,3:2|0:2,0:0:0:0:
182,316,40723,1,0,3:2:0:0:
496,224,40945,2,0,L|496:80,1,129.250003944397,2|0,0:2|3:2,0:0:0:0:
368,72,41390,1,2,0:2:0:0:
40,72,41612,2,0,L|24:272,1,193.875005916596,2|2,3:2|0:2,0:0:0:0:
88,280,42056,5,0,3:2:0:0:
288,272,42279,2,0,L|120:224,1,129.250003944397,2|0,0:2|3:2,0:0:0:0:
128,200,42612,1,0,3:2:0:0:
136,168,42723,1,2,0:2:0:0:
320,80,42945,2,0,L|464:80,1,129.250003944397,2|2,3:2|3:2,0:0:0:0:
112,40,43390,2,0,L|96:192,1,129.250003944397,2|2,3:2|3:2,0:0:0:0:
128,184,43723,1,0,3:2:0:0:
360,272,43834,6,0,L|200:272,2,129.250003944397,4|2|0,3:2|0:2|3:2,0:0:0:0:
168,168,44501,2,0,L|168:16,1,129.250003944397,2|0,0:2|3:2,0:0:0:0:
360,296,44945,2,0,L|360:144,1,129.250003944397,2|0,0:2|3:2,0:0:0:0:
184,176,45390,1,2,0:2:0:0:
496,32,45612,6,0,L|280:64,1,193.875005916596,2|2,3:2|0:2,0:0:0:0:
336,88,46056,1,0,3:2:0:0:
464,104,46279,1,2,0:2:0:0:
128,288,46501,2,0,P|48:232|128:168,1,193.875005916596,2|2,3:2|0:2,0:0:0:0:
168,160,46945,1,0,3:2:0:0:
16,80,47168,1,2,0:2:0:0:
344,288,47390,6,0,L|464:208,1,129.250003944397,2|0,3:2|0:2,0:0:0:0:
456,176,47723,1,2,0:2:0:0:
416,128,47834,1,0,3:2:0:0:
272,88,48056,1,2,0:2:0:0:
464,16,48279,2,0,L|316:21,1,129.250003944397,2|0,3:2|0:2,0:0:0:0:
399,21,48612,1,2,0:2:0:0:
464,16,48723,1,0,3:2:0:0:
336,240,48945,1,2,0:2:0:0:
16,240,49168,6,0,L|184:240,2,129.250003944397,2|2|0,3:2|0:2|3:2,0:0:0:0:
224,232,49834,1,2,3:2:0:0:
16,190,50056,2,0,L|68:68,1,129.250003944397,2|2,3:2|0:2,0:0:0:0:
272,120,50501,2,0,L|142:120,1,129.250003944397,2|2,3:2|3:2,0:0:0:0:
176,96,50834,1,0,3:2:0:0:
464,32,50945,6,0,L|232:32,1,193.875005916596,6|2,3:2|0:2,0:0:0:0:
328,56,51390,1,0,3:2:0:0:
496,136,51612,2,0,L|504:296,1,129.250003944397,2|0,0:2|3:2,0:0:0:0:
304,184,52056,2,0,L|312:344,1,129.250003944397,0|0,0:2|3:2,0:0:0:0:
496,288,52501,1,2,0:2:0:0:
120,104,52723,6,0,L|368:96,1,193.875005916596,2|2,3:2|0:2,0:0:0:0:
256,72,53168,1,0,3:2:0:0:
72,296,53390,2,0,L|64:144,1,129.250003944397,2|0,0:2|3:2,0:0:0:0:
248,168,53834,2,0,L|392:168,1,129.250003944397,2|2,0:2|3:2,0:0:0:0:
416,176,54168,1,2,0:2:0:0:
448,200,54279,1,2,0:2:0:0:
144,56,54501,6,0,P|46:127|32:224,1,193.875005916596,2|2,3:2|0:2,0:0:0:0:
83,241,54945,1,0,3:2:0:0:
408,280,55168,2,0,L|416:128,1,129.250003944397,2|0,0:2|3:2,0:0:0:0:
224,128,55612,1,2,0:2:0:0:
414,150,55834,2,0,L|422:-2,1,129.250003944397,2|2,3:2|3:2,0:0:0:0:
104,56,56279,6,0,L|248:64,1,129.250003944397,2|0,0:2|3:2,0:0:0:0:
272,80,56612,1,0,0:2:0:0:
280,128,56723,1,0,0:2:0:0:
224,160,56834,1,0,0:0:0:0:
32,200,56945,2,0,P|24:272|48:328,1,129.250003944397,0|0,3:2|0:2,0:0:0:0:
80,320,57279,1,0,0:2:0:0:
280,312,57390,2,0,L|360:312,1,64.6250019721985,0|0,3:2|0:2,0:0:0:0:
144,56,57612,2,0,L|80:56,1,64.6250019721985,0|0,3:2|3:2,0:0:0:0:
296,56,57834,2,0,L|368:56,1,64.6250019721985,0|0,3:2|3:2,0:0:0:0:
368,112,58056,5,0,3:2:0:0:
144,256,58168,2,0,P|112:192|160:144,1,129.250003944397,4|0,3:2|0:2,0:0:0:0:
352,184,58501,2,0,L|216:184,1,129.250003944397,4|0,3:2|0:0,0:0:0:0:
425,186,58834,1,4,3:2:0:0:
493,225,58945,2,0,L|261:225,2,193.875005916596,2|2|2,0:2|0:2|0:2,0:0:0:0:
104,208,59834,6,0,L|32:64,1,152.74999300766,6|0,3:2|0:2,0:0:0:0:
64,48,60168,1,2,0:2:0:0:
120,32,60279,1,0,3:2:0:0:
304,40,60501,1,2,0:2:0:0:
16,192,60723,2,0,L|168:216,1,152.74999300766,2|0,3:2|0:2,0:0:0:0:
160,176,61056,1,2,0:2:0:0:
136,120,61168,1,0,3:2:0:0:
16,104,61390,1,2,0:2:0:0:
312,40,61612,6,0,L|472:64,1,152.74999300766,2|0,3:2|0:2,0:0:0:0:
496,96,61945,1,2,0:2:0:0:
464,152,62056,1,0,3:2:0:0:
224,192,62168,1,2,0:2:0:0:
152,184,62279,2,0,L|320:184,1,152.74999300766,2|0,0:2|3:2,0:0:0:0:
16,96,62723,1,2,0:2:0:0:
352,80,62945,2,0,L|184:80,1,152.74999300766,2|2,3:2|0:2,0:0:0:0:
488,288,63390,6,0,L|488:128,1,152.74999300766,6|0,3:2|0:2,0:0:0:0:
440,96,63723,1,2,0:2:0:0:
384,88,63834,1,0,3:2:0:0:
184,80,64056,1,2,0:2:0:0:
472,320,64279,2,0,L|320:320,1,152.74999300766,2|0,3:2|0:2,0:0:0:0:
248,296,64612,1,2,0:2:0:0:
208,232,64723,1,0,3:2:0:0:
424,200,64945,1,2,0:2:0:0:
112,96,65168,6,0,L|280:88,1,152.74999300766,2|0,3:2|0:2,0:0:0:0:
312,56,65501,1,2,0:2:0:0:
272,24,65612,1,0,3:2:0:0:
56,32,65723,1,2,0:2:0:0:
104,32,65834,1,0,0:0:0:0:
416,32,66056,1,2,3:2:0:0:
120,128,66279,2,0,L|296:128,2,152.74999300766,0|0|0,3:0|3:2|3:2,0:0:0:0:
168,128,66834,1,0,3:2:0:0:
392,192,66945,6,0,L|488:64,1,152.74999300766,4|0,3:2|0:2,0:0:0:0:
328,304,67390,2,0,L|168:304,1,152.74999300766,2|0,3:2|0:2,0:0:0:0:
392,200,67834,2,0,L|232:200,1,152.74999300766,2|0,3:2|0:2,0:0:0:0:
256,152,68168,1,2,0:2:0:0:
320,120,68279,1,0,3:2:0:0:
472,112,68501,1,2,0:2:0:0:
152,200,68723,6,0,L|110:45,1,152.74999300766,2|0,3:2|0:2,0:0:0:0:
168,32,69057,1,2,0:2:0:0:
232,40,69168,1,0,3:2:0:0:
16,144,69390,1,2,0:2:0:0:
312,240,69612,2,0,L|480:240,1,152.74999300766,2|0,3:2|0:2,0:0:0:0:
176,80,70056,1,2,3:2:0:0:
256,80,70168,1,0,0:2:0:0:
336,80,70279,1,0,0:2:0:0:
40,200,70501,6,0,L|40:32,1,152.74999300766,6|0,3:2|0:2,0:0:0:0:
232,288,70945,2,0,L|232:128,1,152.74999300766,2|0,3:2|0:2,0:0:0:0:
416,200,71390,2,0,L|416:32,1,152.74999300766,2|0,3:2|0:2,0:0:0:0:
232,112,71834,2,0,L|48:112,1,152.74999300766,2|0,3:2|0:2,0:0:0:0:
416,120,72279,5,2,3:2:0:0:
88,224,72501,2,0,L|88:56,1,152.74999300766,2|2,3:2|0:2,0:0:0:0:
424,157,72945,2,0,L|65:159,1,328.999989959717,2|2,3:2|3:2,0:0:0:0:
138,124,73501,1,0,0:0:0:0:
360,248,73612,2,0,L|456:248,1,76.3749965038301,0|2,3:2|3:2,0:0:0:0:
200,216,73834,2,0,L|72:216,1,76.3749965038301,0|0,3:2|3:2,0:0:0:0:
360,272,74056,6,0,P|456:200|328:96,1,305.49998601532,6|0,3:2|3:2,0:0:0:0:
200,80,74723,1,0,0:2:0:0:
416,176,74945,2,0,L|216:176,1,152.74999300766,0|0,3:2|0:2,0:0:0:0:
480,240,75390,2,0,L|280:240,1,152.74999300766,0|2,3:2|0:2,0:0:0:0:
32,144,75834,6,0,L|152:32,1,152.74999300766,2|0,3:2|0:2,0:0:0:0:
192,32,76168,1,2,0:2:0:0:
240,48,76279,1,0,3:2:0:0:
80,168,76501,1,2,0:2:0:0:
376,288,76723,2,0,L|200:264,1,152.74999300766,2|0,3:2|0:2,0:0:0:0:
176,240,77056,1,2,0:2:0:0:
160,184,77168,1,0,3:2:0:0:
384,160,77390,1,2,0:2:0:0:
72,56,77612,6,0,L|240:56,2,152.74999300766,6|2|0,3:2|0:2|3:2,0:0:0:0:
368,216,78279,2,0,L|-8:216,1,305.49998601532,4|0,3:2|3:2,0:0:0:0:
208,192,78945,1,0,3:2:0:0:
496,192,79168,5,4,3:2:0:0:
216,128,79834,2,0,L|496:128,1,235,2|2,0:2|3:2,0:0:0:0:
224,64,80612,2,0,L|432:64,1,176.25,2|2,3:2|3:2,0:0:0:0:
352,40,81056,1,0,3:2:0:0:
152,120,81168,6,0,L|8:120,2,117.5,6|2|2,3:2|0:2|0:2,0:0:0:0:
328,240,81834,2,0,L|328:368,1,117.5,2|0,3:2|0:2,0:0:0:0:
208,352,82279,1,2,0:2:0:0:
392,64,82501,1,2,3:2:0:0:
96,136,82723,6,0,L|240:136,1,117.5,2|0,0:2|0:2,0:0:0:0:
392,144,83168,1,2,3:2:0:0:
200,224,83390,2,0,L|56:224,1,117.5,2|2,3:2|0:2,0:0:0:0:
376,256,83834,2,0,L|496:224,1,117.5,2|0,0:2|3:2,0:0:0:0:
440,200,84168,1,2,0:2:0:0:
384,192,84279,1,0,0:2:0:0:
496,112,84501,1,2,0:2:0:0:
200,112,84723,6,0,L|82:112,2,117.5,6|2|2,3:2|0:2|0:2,0:0:0:0:
376,112,85390,2,0,L|376:256,1,117.5,2|0,3:2|0:2,0:0:0:0:
208,240,85834,2,0,L|208:384,1,117.5,2|2,3:2|3:2,0:0:0:0:
496,64,86279,6,0,L|112:64,1,352.5,2|0,0:2|0:2,0:0:0:0:
432,168,87168,1,2,3:2:0:0:
136,208,87390,2,0,L|128:360,1,117.5,2|2,3:2|3:2,0:0:0:0:
432,208,87834,2,0,L|440:360,1,117.5,2|2,3:2|3:2,0:0:0:0:
80,216,88279,6,0,L|210:181,1,117.5,6|0,3:2|0:0,0:0:0:0:
437,216,88612,2,0,L|307:181,1,117.5,6|0,3:2|0:0,0:0:0:0:
80,212,88945,1,6,3:2:0:0:
