osu file format v14

[General]
AudioFilename: audio.mp3
AudioLeadIn: 0
PreviewTime: 58279
Countdown: 0
SampleSet: Soft
StackLeniency: 0.7
Mode: 2
LetterboxInBreaks: 0
WidescreenStoryboard: 0

[Editor]
Bookmarks: 4723
DistanceSpacing: 1
BeatDivisor: 4
GridSize: 4
TimelineZoom: 1.6

[Metadata]
Title:Rakuen PROJECT (TV Size)
TitleUnicode:楽園PROJECT (TV Size)
Artist:Ray
ArtistUnicode:Ray
Creator:Kukkai
Version:Rain
Source:To LOVEる-とらぶる-ダークネス
Tags:zerokt -hex- Daletto NyalettOwO x3 bigh bighzonda anime opening season 3 japanese jp to love ru toloveru darkness OP Toraburu Trouble pop j-pop jpop 高瀬一矢 Takase Kazuya Happy days single album Xebec Madman Entertainment Sentai Filmworks paradise 中山怜香 Reika Nakayama Clione Geneon Universal NBCUniversal Japan LLC
BeatmapID:3720659
BeatmapSetID:1813639

[Difficulty]
HPDrainRate:5
CircleSize:4
OverallDifficulty:9
ApproachRate:9
SliderMultiplier:2.5
SliderTickRate:2

[Events]
//Background and Video events
0,0,"bggggg.jpg",0,0
Video,275,"vdooo.mp4"
//Break Periods
//Storyboard Layer 0 (Background)
//Storyboard Layer 1 (Fail)
//Storyboard Layer 2 (Pass)
//Storyboard Layer 3 (Foreground)
//Storyboard Layer 4 (Overlay)
//Storyboard Sound Samples

[TimingPoints]
-5943,444.444444444444,4,2,1,60,1,0
1168,-100,4,2,1,60,0,0
8279,-100,4,2,1,65,0,0
21168,-100,4,2,1,60,0,0
22501,-100,4,2,1,65,0,0
59834,-90.9090909090909,4,2,1,70,0,1
79168,-100,4,2,1,70,0,0
79834,-100,4,2,1,60,0,0
81168,-100,4,2,1,65,0,0

[Colours]
Combo1 : 69,186,75
Combo2 : 254,150,181
Combo3 : 255,255,155

[HitObjects]
256,332,279,5,0,3:2:0:0:
320,332,390,2,0,P|372:272|288:212,1,187.5,0|0,3:2|0:2,0:2:0:0:
244,208,834,1,0,0:2:0:0:
180,208,945,1,0,0:2:0:0:
244,208,1056,1,0,0:2:0:0:
436,88,1168,6,0,L|308:88,1,125,6|0,3:2|0:2,0:2:0:0:
248,88,1501,1,2,0:2:0:0:
311,88,1612,1,0,3:2:0:0:
436,88,1834,1,2,0:2:0:0:
144,336,2056,2,0,L|144:184,1,125,2|0,3:2|0:2,0:2:0:0:
208,216,2390,1,2,0:2:0:0:
272,216,2501,1,0,3:2:0:0:
396,220,2723,1,2,0:2:0:0:
108,172,2945,6,0,L|260:172,1,125,2|0,3:2|0:2,0:2:0:0:
296,172,3279,1,2,0:2:0:0:
232,172,3390,1,0,3:2:0:0:
44,172,3612,2,0,L|44:28,1,125,2|0,0:2|3:2,0:2:0:0:
332,280,4056,2,0,L|464:280,2,125,0|0|0,0:2|3:2|0:2,0:2:0:0:
44,208,4723,6,0,L|196:208,1,125,6|0,3:2|0:2,0:2:0:0:
232,208,5056,1,2,0:2:0:0:
169,208,5168,1,0,3:2:0:0:
44,208,5390,1,2,0:2:0:0:
332,384,5612,2,0,P|352:312|296:256,1,125,2|0,3:2|0:2,0:2:0:0:
264,272,5945,1,2,0:2:0:0:
200,272,6056,1,0,3:2:0:0:
324,272,6279,1,2,0:2:0:0:
36,228,6501,6,0,L|176:228,1,125,2|0,3:2|0:2,0:2:0:0:
100,228,6834,1,2,0:2:0:0:
36,228,6945,1,0,3:2:0:0:
332,244,7168,1,2,0:2:0:0:
156,180,7390,2,0,L|156:320,1,125,0|0,3:2|3:2,3:2:0:0:
344,244,7834,2,0,L|484:244,1,125,0|0,3:2|3:2,0:2:0:0:
408,248,8168,1,0,3:2:0:0:
240,244,8279,6,0,L|80:244,1,125,4|0,3:2|0:2,0:2:0:0:
304,240,8723,2,0,L|480:240,1,125,2|0,3:2|0:2,0:2:0:0:
240,236,9168,2,0,L|240:76,1,125,2|0,3:2|0:2,0:2:0:0:
304,112,9501,1,2,0:2:0:0:
368,112,9612,1,0,3:2:0:0:
180,112,9834,1,2,0:2:0:0:
472,48,10056,6,0,L|328:48,1,125,2|0,3:2|0:2,0:2:0:0:
284,48,10390,1,2,0:2:0:0:
347,48,10501,1,0,3:2:0:0:
472,48,10723,1,2,0:2:0:0:
184,360,10945,2,0,L|184:208,1,125,2|0,3:2|0:2,0:2:0:0:
372,216,11390,2,0,L|480:216,2,62.5,2|0|0,3:2|0:2|0:2,0:2:0:0:
72,224,11834,6,0,L|244:224,1,125,6|0,3:2|0:2,0:2:0:0:
384,228,12279,2,0,L|384:88,1,125,2|0,3:2|0:2,0:2:0:0:
196,120,12723,2,0,L|196:-8,1,125,2|0,3:2|0:2,0:2:0:0:
384,8,13168,2,0,L|516:8,1,125,2|0,3:2|0:2,0:2:0:0:
228,352,13612,5,2,3:2:0:0:
416,356,13834,2,0,L|416:200,1,125,2|2,3:2|0:2,0:2:0:0:
228,240,14279,2,0,L|488:240,1,250,2|2,3:2|3:2,0:2:0:0:
292,240,14945,2,0,L|216:240,1,62.5,0|2,3:2|3:2,3:2:0:0:
167,240,15168,2,0,L|255:240,1,62.5,0|0,3:2|3:2,3:2:0:0:
408,240,15390,6,0,L|408:104,1,125,4|0,3:2|0:2,0:2:0:0:
220,124,15834,2,0,L|72:124,1,125,0|0,3:2|0:2,0:2:0:0:
220,124,16279,2,0,L|348:124,1,125,0|0,3:2|0:2,0:2:0:0:
156,124,16723,2,0,L|156:276,1,125,0|2,3:2|0:2,0:2:0:0:
444,188,17168,6,0,L|272:188,1,125,2|0,3:2|0:2,0:2:0:0:
256,188,17501,1,2,0:2:0:0:
320,188,17612,1,0,3:2:0:0:
444,184,17834,1,2,0:2:0:0:
148,124,18056,2,0,L|308:124,1,125,2|0,3:2|0:2,0:2:0:0:
336,124,18390,1,2,0:2:0:0:
273,124,18501,1,0,3:2:0:0:
148,124,18723,1,2,0:2:0:0:
432,60,18945,6,0,L|256:60,2,125,6|2|0,3:2|0:2|3:2,0:2:0:0:
144,364,19612,2,0,P|88:332|180:204,1,250,4|0,3:2|3:2,0:2:0:0:
340,200,20279,1,0,3:2:0:0:
52,156,20501,1,4,3:2:0:0:
308,292,21168,6,2,P|376:252|280:148,1,250,2|2,0:2|3:2,0:2:0:0:
108,148,21945,1,2,3:2:0:0:
300,160,22279,2,0,L|300:72,1,62.5,2|0,3:2|3:2,3:2:0:0:
128,284,22501,6,0,L|4:248,2,125,6|2|2,3:2|0:2|0:2,0:2:0:0:
316,276,23168,2,0,L|316:124,1,125,2|0,3:2|0:2,0:2:0:0:
188,160,23612,1,2,0:2:0:0:
376,160,23834,1,2,3:2:0:0:
64,288,24056,6,0,L|63:152,1,125,2|0,0:2|0:2,0:2:0:0:
252,160,24501,1,2,3:2:0:0:
64,164,24723,2,2,L|64:32,1,125,2|2,3:2|0:2,0:2:0:0:
252,40,25168,2,0,L|252:180,1,125,2|0,0:2|3:2,0:2:0:0:
189,167,25501,1,2,0:2:0:0:
126,167,25612,1,0,0:2:0:0:
1,167,25834,1,2,0:2:0:0:
312,96,26056,6,2,L|464:96,2,125,6|2|2,3:2|0:2|0:2,0:2:0:0:
124,104,26723,2,0,L|124:252,1,125,2|0,3:2|0:2,0:2:0:0:
312,236,27168,2,0,L|184:236,1,125,2|2,3:2|0:2,0:2:0:0:
156,236,27464,1,0,0:2:0:0:
185,236,27538,1,0,0:2:0:0:
352,236,27612,6,0,L|352:92,1,125,2|0,3:2|3:2,0:2:0:0:
272,112,27945,1,0,3:2:0:0:
192,112,28056,1,2,3:2:0:0:
472,328,28279,2,0,L|472:196,1,125,2|2,3:2|3:2,0:2:0:0:
408,204,28612,1,0,3:2:0:0:
228,200,28723,5,2,3:2:0:0:
228,132,28834,1,0,3:2:0:0:
292,132,28945,1,2,3:2:0:0:
292,68,29056,1,0,3:2:0:0:
120,76,29168,1,2,3:2:0:0:
56,76,29279,1,0,3:2:0:0:
120,76,29390,1,2,3:2:0:0:
184,76,29501,1,0,3:2:0:0:
360,216,29612,6,0,L|160:216,1,187.5,6|2,3:2|0:2,0:2:0:0:
112,216,30056,1,0,3:2:0:0:
296,216,30279,2,0,L|296:84,1,125,2|0,0:2|3:2,0:2:0:0:
172,100,30723,1,2,0:2:0:0:
360,364,30945,6,0,P|420:312|344:248,1,187.5,2|2,3:2|0:2,0:2:0:0:
296,248,31390,1,0,3:2:0:0:
112,252,31612,2,0,L|112:104,1,125,2|0,0:2|3:2,0:2:0:0:
236,128,32056,1,2,0:2:0:0:
44,56,32279,6,2,L|184:56,1,125,2|2,3:2|0:2,0:2:0:0:
356,52,32723,2,2,L|356:204,1,125,2|2,3:2|0:2,0:2:0:0:
68,304,33168,6,0,L|296:304,1,187.5,2|2,3:2|0:2,0:2:0:0:
316,304,33612,1,0,3:2:0:0:
132,224,33834,2,0,L|132:96,1,125,2|0,0:2|3:2,0:2:0:0:
256,92,34279,1,2,0:2:0:0:
68,32,34501,6,0,L|240:32,1,125,2|0,3:2|3:2,3:2:0:0:
132,32,34834,1,2,0:2:0:0:
68,32,34945,1,0,3:2:0:0:
356,364,35168,2,0,L|356:216,1,125,2|0,3:2|0:2,0:2:0:0:
176,228,35612,1,2,3:2:0:0:
356,232,35834,6,0,L|500:232,1,125,2|2,3:2|3:2,0:2:0:0:
420,232,36168,1,0,0:2:0:0:
248,232,36279,2,0,L|168:232,1,62.5,2|0,3:2|3:2,3:2:0:0:
404,172,36501,2,0,L|340:136,1,62.5,2|0,3:2|3:2,3:2:0:0:
180,296,36723,6,0,L|404:296,1,187.5,6|2,3:2|0:2,0:2:0:0:
304,296,37168,1,0,3:2:0:0:
116,300,37390,2,0,L|116:148,1,125,2|0,0:2|3:2,0:2:0:0:
304,184,37834,1,2,0:2:0:0:
116,192,38056,6,2,P|60:144|144:72,1,187.5,2|2,3:2|0:2,0:2:0:0:
180,68,38501,1,0,3:2:0:0:
368,68,38723,2,0,L|368:208,1,125,2|0,0:2|3:2,0:2:0:0:
84,352,39168,5,2,0:2:0:0:
272,348,39390,2,0,L|272:192,1,125,2|2,3:2|0:2,0:2:0:0:
84,228,39834,2,2,L|84:88,1,125,2|2,3:2|0:2,0:2:0:0:
380,112,40279,6,2,L|168:112,1,187.5,6|2,3:2|0:2,0:2:0:0:
256,112,40723,1,0,3:2:0:0:
444,112,40945,2,0,L|444:248,1,125,2|0,0:2|3:2,0:2:0:0:
256,232,41390,1,2,0:2:0:0:
444,228,41612,6,2,P|496:184|428:104,1,187.5,2|2,3:2|0:2,0:2:0:0:
376,104,42056,1,0,3:2:0:0:
188,100,42279,2,0,L|188:224,1,125,2|0,0:2|3:2,0:2:0:0:
248,224,42612,1,0,3:2:0:0:
312,224,42723,1,2,0:2:0:0:
32,168,42945,6,2,L|32:28,1,125,2|2,3:2|3:2,3:2:0:0:
220,40,43390,2,2,L|52:40,1,125,2|2,3:2|3:2,3:2:0:0:
160,40,43723,1,0,3:2:0:0:
356,184,43834,6,0,L|488:184,2,125,4|2|0,3:2|0:2|3:2,0:2:0:0:
168,180,44501,2,0,L|168:16,1,125,2|0,0:2|3:2,0:2:0:0:
356,60,44945,2,0,L|220:60,1,125,2|0,0:2|3:2,0:2:0:0:
420,60,45390,1,2,0:2:0:0:
132,248,45612,6,2,L|336:248,1,187.5,2|2,3:2|0:2,0:2:0:0:
256,248,46056,1,0,3:2:0:0:
128,248,46279,1,2,0:2:0:0:
316,248,46501,2,2,P|368:184|296:116,1,187.5,2|2,3:2|0:2,0:2:0:0:
244,116,46945,1,0,3:2:0:0:
372,116,47168,1,2,0:2:0:0:
68,68,47390,6,0,L|192:68,1,125,2|0,3:2|0:2,0:2:0:0:
256,68,47723,1,2,0:2:0:0:
193,68,47834,1,0,3:2:0:0:
68,72,48056,1,2,0:2:0:0:
256,356,48279,2,0,L|256:224,1,125,2|0,3:2|0:2,0:2:0:0:
192,232,48612,1,2,0:2:0:0:
128,232,48723,1,0,3:2:0:0:
312,168,48945,1,2,0:2:0:0:
128,164,49168,5,2,3:2:0:0:
252,164,49390,2,0,L|252:24,1,125,2|0,0:2|3:2,0:2:0:0:
128,44,49834,2,2,L|284:44,1,125,2|2,3:2|3:2,3:2:0:0:
64,168,50279,1,2,0:2:0:0:
260,244,50501,2,2,L|124:244,1,125,2|2,3:2|3:2,3:2:0:0:
72,244,50834,1,0,3:2:0:0:
264,192,50945,6,2,P|324:152|252:88,1,187.5,6|2,3:2|0:2,0:2:0:0:
200,84,51390,1,0,3:2:0:0:
388,84,51612,2,0,L|388:248,1,125,2|0,0:2|3:2,0:2:0:0:
264,208,52056,2,0,L|128:208,1,125,0|0,0:2|3:2,0:2:0:0:
328,148,52501,1,2,0:2:0:0:
40,296,52723,6,2,L|252:296,1,187.5,2|2,3:2|0:2,0:2:0:0:
292,296,53168,1,0,3:2:0:0:
104,296,53390,2,0,L|104:160,1,125,2|0,0:2|3:2,0:2:0:0:
292,184,53834,2,2,L|136:184,1,125,2|2,0:2|3:2,0:2:0:0:
104,184,54168,1,2,0:2:0:0:
104,120,54279,1,2,0:2:0:0:
384,284,54501,6,2,L|160:284,1,187.5,2|2,3:2|0:2,0:2:0:0:
136,284,54945,1,0,3:2:0:0:
320,288,55168,2,0,L|320:148,1,125,2|0,0:2|3:2,0:2:0:0:
196,164,55612,1,2,0:2:0:0:
384,160,55834,2,2,L|508:160,1,125,2|2,3:2|3:2,3:2:0:0:
212,344,56279,6,0,L|84:344,1,125,2|0,0:2|3:2,0:2:0:0:
24,340,56612,1,0,0:2:0:0:
87,344,56723,1,0,0:2:0:0:
276,284,56945,2,0,L|276:112,1,125,0|0,3:2|0:2,0:2:0:0:
212,160,57279,1,0,0:2:0:0:
148,160,57390,2,0,L|248:160,1,62.5,0|0,3:2|0:2,0:2:0:0:
400,348,57612,5,0,3:2:0:0:
457,327,57723,1,0,3:2:0:0:
479,271,57834,1,0,3:2:0:0:
452,216,57945,1,0,3:2:0:0:
394,200,58056,1,0,3:2:0:0:
176,196,58168,6,0,P|140:140|188:96,1,125,4|0,3:2|0:2,0:2:0:0:
352,96,58501,2,0,P|368:36|320:4,1,125,4|0,3:2|0:0,0:0:0:0:
80,356,58834,1,4,3:2:0:0:
12,356,58945,2,2,L|212:356,2,187.5,2|2|2,0:2|0:2|0:2,0:2:0:0:
308,284,59834,6,0,P|332:212|292:160,1,137.500004196167,6|0,3:2|0:2,0:2:0:0:
232,164,60168,1,2,0:2:0:0:
164,164,60279,1,0,3:2:0:0:
304,176,60501,1,2,0:2:0:0:
12,104,60723,2,0,L|156:104,1,137.500004196167,2|0,3:2|0:2,0:2:0:0:
220,104,61056,1,2,0:2:0:0:
149,104,61168,1,0,3:2:0:0:
12,104,61390,1,2,0:2:0:0:
292,368,61612,6,0,L|164:300,1,137.500004196167,2|0,3:2|0:2,0:2:0:0:
100,280,61945,1,2,0:2:0:0:
100,212,62056,1,0,3:2:0:0:
296,184,62168,1,2,0:2:0:0:
364,184,62279,2,0,L|364:44,1,137.500004196167,2|0,0:2|3:2,0:2:0:0:
56,80,62723,2,2,L|204:80,2,137.500004196167,2|2|2,0:2|3:2|0:2,0:2:0:0:
336,288,63390,6,0,L|480:288,1,137.500004196167,6|0,3:2|0:2,0:2:0:0:
404,288,63723,1,2,0:2:0:0:
336,288,63834,1,0,3:2:0:0:
473,288,64056,1,2,0:2:0:0:
180,248,64279,2,0,P|168:172|196:100,1,137.500004196167,2|0,3:2|0:2,0:2:0:0:
256,116,64612,1,2,0:2:0:0:
324,116,64723,1,0,3:2:0:0:
460,116,64945,1,2,0:2:0:0:
168,304,65168,6,0,L|332:304,1,137.500004196167,2|0,3:2|0:2,0:2:0:0:
374,304,65501,1,2,0:2:0:0:
374,304,65612,1,0,3:2:0:0:
192,236,65723,1,2,0:2:0:0:
123,236,65834,1,0,0:0:0:0:
404,209,66056,2,0,L|404:57,1,137.500004196167,2|0,3:2|3:0,3:0:0:0:
266,71,66501,2,0,L|446:71,1,137.500004196167,0|0,3:2|3:2,3:2:0:0:
336,72,66834,1,0,3:2:0:0:
144,356,66945,6,0,L|144:192,1,137.500004196167,4|0,3:2|0:2,0:2:0:0:
336,212,67390,2,0,L|336:48,1,137.500004196167,2|0,3:2|0:2,0:2:0:0:
144,80,67834,2,0,L|292:80,1,137.500004196167,2|0,3:2|0:2,0:2:0:0:
352,80,68168,1,2,0:2:0:0:
281,80,68279,1,0,3:2:0:0:
148,80,68501,1,2,0:2:0:0:
428,276,68723,6,0,L|264:276,1,137.500004196167,2|0,3:2|0:2,0:2:0:0:
220,276,69056,1,2,0:2:0:0:
290,276,69168,1,0,3:2:0:0:
428,276,69390,1,2,0:2:0:0:
144,228,69612,2,0,L|144:76,1,137.500004196167,2|0,3:2|0:2,0:2:0:0:
332,80,70056,2,0,L|400:80,2,68.7500020980836,2|0|0,3:2|0:2|0:2,0:2:0:0:
32,352,70501,6,0,L|32:176,1,137.500004196167,6|0,3:2|0:2,0:2:0:0:
224,208,70945,2,0,L|64:208,1,137.500004196167,2|0,3:2|0:2,0:2:0:0:
280,208,71390,2,0,L|432:208,1,137.500004196167,2|0,3:2|0:2,0:2:0:0:
224,208,71834,2,0,L|224:48,1,137.500004196167,2|0,3:2|0:2,0:2:0:0:
504,72,72279,5,2,3:2:0:0:
308,356,72501,2,2,L|308:208,1,137.500004196167,2|2,3:2|0:2,0:2:0:0:
504,72,72945,2,0,L|228:212,1,275.000008392334,2|2,3:2|3:2,0:2:0:0:
392,220,73612,1,0,3:2:0:0:
460,220,73723,1,2,3:2:0:0:
460,172,73834,1,0,3:2:0:0:
392,172,73945,1,0,3:2:0:0:
172,356,74056,6,0,L|172:208,1,137.500004196167,6|0,3:2|0:2,0:2:0:0:
368,208,74501,2,0,L|368:64,1,137.500004196167,0|0,3:2|0:2,0:2:0:0:
232,72,74945,2,0,L|56:72,1,137.500004196167,0|0,3:2|0:2,0:2:0:0:
288,236,75390,2,0,L|440:236,1,137.500004196167,0|2,3:2|0:2,0:2:0:0:
120,240,75834,6,0,P|104:168|140:96,1,137.500004196167,2|0,3:2|0:2,0:2:0:0:
196,112,76168,1,2,0:2:0:0:
264,112,76279,1,0,3:2:0:0:
128,112,76501,1,2,0:2:0:0:
420,220,76723,6,0,P|436:148|400:76,1,137.500004196167,2|0,3:2|0:2,0:2:0:0:
344,92,77057,1,2,0:2:0:0:
276,92,77168,1,0,3:2:0:0:
412,92,77390,1,2,0:2:0:0:
104,260,77612,6,0,L|256:264,2,137.500004196167,6|2|0,3:2|0:2|3:2,0:2:0:0:
396,256,78279,2,0,P|436:192|312:72,1,275.000008392334,4|0,3:2|3:2,0:2:0:0:
124,72,78945,1,0,3:2:0:0:
408,40,79168,5,4,3:2:0:0:
180,364,79834,2,2,P|132:304|200:156,1,250,2|2,0:2|3:2,0:2:0:0:
380,136,80612,1,2,3:2:0:0:
192,136,80945,1,2,3:2:0:0:
192,72,81056,1,0,3:2:0:0:
380,64,81168,6,2,L|508:64,2,125,6|2|2,3:2|0:2|0:2,0:2:0:0:
192,360,81834,2,0,L|192:192,1,125,2|0,3:2|0:2,0:2:0:0:
320,236,82279,1,2,0:2:0:0:
112,184,82501,1,2,3:2:0:0:
400,240,82723,6,0,L|400:100,1,125,2|0,0:2|0:2,0:2:0:0:
192,112,83168,1,2,3:2:0:0:
380,112,83390,2,0,L|504:112,1,125,2|2,3:2|0:2,0:2:0:0:
216,240,83834,2,0,P|200:176|224:116,1,125,2|0,0:2|3:2,0:2:0:0:
284,124,84168,1,2,0:2:0:0:
348,124,84279,1,0,0:2:0:0:
472,120,84501,1,2,0:2:0:0:
184,296,84723,6,2,L|36:296,2,125,6|2|2,3:2|0:2|0:2,0:2:0:0:
368,296,85390,2,0,L|368:144,1,125,2|0,3:2|0:2,0:2:0:0:
180,156,85834,2,2,L|320:156,1,125,2|2,3:2|3:2,3:2:0:0:
24,360,86279,6,0,P|28:228|260:120,1,375,2|0,0:2|0:2,0:2:0:0:
344,112,87168,1,2,3:2:0:0:
64,300,87390,2,2,L|64:120,1,125,2|2,3:2|3:2,3:2:0:0:
368,192,87834,2,2,L|504:192,1,125,2|2,3:2|3:2,3:2:0:0:
196,176,88279,5,6,3:2:0:0:
420,84,88612,1,6,3:2:0:0:
24,76,88945,1,6,3:2:0:0:
