osu file format v14

[General]
AudioFilename: audio.mp3
AudioLeadIn: 0
PreviewTime: 58279
Countdown: 0
SampleSet: Soft
StackLeniency: 0.7
Mode: 2
LetterboxInBreaks: 0
WidescreenStoryboard: 1

[Editor]
Bookmarks: 4723
DistanceSpacing: 1
BeatDivisor: 4
GridSize: 4
TimelineZoom: 1.6

[Metadata]
Title:Rakuen PROJECT (TV Size)
TitleUnicode:楽園PROJECT (TV Size)
Artist:Ray
ArtistUnicode:Ray
Creator:Kukkai
Version:Hex's Salad
Source:To LOVEる-とらぶる-ダークネス
Tags:zerokt -hex- Daletto NyalettOwO x3 bigh bighzonda anime opening season 3 japanese jp to love ru toloveru darkness OP Toraburu Trouble pop j-pop jpop 高瀬一矢 Takase Kazuya Happy days single album Xebec Madman Entertainment Sentai Filmworks paradise 中山怜香 Reika Nakayama Clione Geneon Universal NBCUniversal Japan LLC
BeatmapID:3722013
BeatmapSetID:1813639

[Difficulty]
HPDrainRate:3
CircleSize:3
OverallDifficulty:7
ApproachRate:7
SliderMultiplier:1.9
SliderTickRate:1

[Events]
//Background and Video events
0,0,"bggggg.jpg",0,0
Video,275,"vdooo.mp4"
//Break Periods
//Storyboard Layer 0 (Background)
//Storyboard Layer 1 (Fail)
//Storyboard Layer 2 (Pass)
//Storyboard Layer 3 (Foreground)
//Storyboard Layer 4 (Overlay)
//Storyboard Sound Samples

[TimingPoints]
-5943,444.444444444444,4,2,1,60,1,0
8279,-100,4,2,1,65,0,0
21168,-100,4,2,1,60,0,0
22501,-100,4,2,1,65,0,0
59834,-90.9090909090909,4,2,1,70,0,1
74056,-83.3333333333333,4,2,1,70,0,1
74945,-90.9090909090909,4,2,1,70,0,1
79168,-100,4,2,1,70,0,0
79834,-100,4,2,1,60,0,0
81168,-100,4,2,1,65,0,0

[Colours]
Combo1 : 69,186,75
Combo2 : 254,150,181
Combo3 : 255,255,155

[HitObjects]
125,310,1168,6,0,P|67:272|89:163,1,190,6|0,3:2|3:2,0:0:0:0:
180,148,1834,1,2,0:2:0:0:
274,89,2056,2,0,P|319:109|331:248,1,190,2|0,3:2|3:2,0:0:0:0:
245,228,2723,1,2,0:2:0:0:
421,338,2945,6,0,L|427:131,1,190,2|0,3:2|3:2,0:0:0:0:
378,137,3501,1,0,0:0:0:0:
331,136,3612,1,2,0:2:0:0:
412,214,3834,2,0,L|406:120,1,95,0|0,3:2|0:2,0:0:0:0:
320,41,4279,2,0,L|415:41,1,95,0|0,3:2|0:2,0:0:0:0:
240,297,4723,6,0,L|38:288,1,190,6|0,3:2|3:2,0:0:0:0:
50,288,5390,1,2,0:2:0:0:
135,230,5612,2,0,P|142:183|17:113,1,190,2|0,3:2|3:2,0:0:0:0:
123,30,6279,1,2,0:2:0:0:
299,30,6501,6,0,L|310:233,1,190,2|0,3:2|3:2,0:0:0:0:
223,211,7168,1,2,0:2:0:0:
138,298,7390,2,0,L|237:293,1,95,0|0,3:2|3:2,0:0:0:0:
319,217,7834,2,0,L|212:217,1,95,0|0,3:2|3:2,0:0:0:0:
48,218,8279,5,4,3:2:0:0:
196,110,8723,2,0,L|86:111,1,95,2|0,3:2|0:2,0:0:0:0:
189,188,9168,2,0,L|342:188,2,142.5,2|2|2,3:2|0:2|0:2,0:0:0:0:
365,318,10056,6,0,P|411:288|341:197,1,190,2|0,3:2|3:2,0:0:0:0:
268,196,10723,1,2,0:2:0:0:
445,79,10945,1,2,3:2:0:0:
445,79,11390,1,2,3:2:0:0:
397,79,11501,1,0,0:2:0:0:
350,79,11612,1,0,0:2:0:0:
174,79,11834,6,0,P|127:114|189:210,1,190,6|2,3:2|3:2,0:0:0:0:
332,312,12723,2,0,L|214:314,1,95,2|0,3:2|0:2,0:0:0:0:
323,238,13168,2,0,L|419:235,1,95,2|0,3:2|0:2,0:0:0:0:
243,201,13612,6,0,P|186:187|147:164,2,95,2|2|2,3:2|3:2|0:2,0:0:0:0:
419,192,14279,2,0,P|429:242|322:323,1,190,2|2,3:2|3:2,0:0:0:0:
250,348,14945,2,0,L|362:346,1,95,0|0,3:2|3:2,0:0:0:0:
169,347,15390,6,0,P|98:327|95:195,1,190,4|0,3:2|3:2,0:0:0:0:
229,64,16279,2,0,L|86:126,2,142.5,0|0|2,3:2|0:0|0:2,0:0:0:0:
405,53,17168,6,0,L|421:248,1,190,2|0,3:2|3:2,0:0:0:0:
338,237,17834,1,2,0:2:0:0:
253,237,18056,2,0,L|244:131,1,95,2|0,3:2|0:2,0:0:0:0:
293,128,18390,1,2,0:2:0:0:
341,117,18501,1,0,3:2:0:0:
426,48,18723,1,2,0:2:0:0:
250,46,18945,6,0,L|126:38,1,95,6|2,3:2|0:2,0:0:0:0:
155,39,19390,1,0,3:2:0:0:
332,177,19612,2,0,P|331:228|203:302,1,190,4|0,3:2|3:2,0:0:0:0:
316,346,20279,1,0,3:2:0:0:
140,180,20501,5,4,3:2:0:0:
43,117,21168,2,0,L|41:326,1,190,2|2,0:2|3:2,0:0:0:0:
156,339,21945,2,0,L|4:339,1,142.5,2|2,3:2|3:2,0:0:0:0:
190,232,22501,6,0,L|324:230,2,95,6|2|2,3:2|0:2|0:2,0:0:0:0:
105,232,23168,1,2,3:2:0:0:
257,136,23612,2,0,L|146:135,1,95,2|2,0:2|3:2,0:0:0:0:
338,48,24056,5,2,0:2:0:0:
490,47,24501,2,0,L|379:47,1,95,2|2,3:2|3:2,0:0:0:0:
395,47,24945,1,2,0:2:0:0:
481,149,25168,2,0,L|316:152,2,142.5,2|2|2,0:2|0:2|0:2,0:0:0:0:
305,217,26056,6,0,L|307:331,1,95,6|2,3:2|0:2,0:0:0:0:
392,304,26501,1,2,0:2:0:0:
306,344,26723,1,2,3:2:0:0:
153,242,27168,2,0,L|264:242,1,95,2|2,3:2|0:2,0:0:0:0:
73,113,27612,6,0,L|67:237,1,95,2|0,3:2|3:2,0:0:0:0:
155,197,28056,1,2,3:2:0:0:
331,190,28279,1,2,3:2:0:0:
419,190,28501,1,2,3:2:0:0:
331,190,28723,1,2,3:2:0:0:
292,163,28834,1,0,3:2:0:0:
281,118,28945,1,2,3:2:0:0:
302,76,29056,1,0,3:2:0:0:
345,58,29167,1,2,3:2:0:0:
449,51,29390,1,2,3:2:0:0:
273,57,29612,6,0,L|112:57,2,142.5,6|2|2,3:2|0:2|0:2,0:0:0:0:
121,320,30723,1,2,0:2:0:0:
33,278,30945,2,0,L|21:119,1,142.5,2|2,3:2|0:2,0:0:0:0:
168,117,31612,1,2,0:2:0:0:
358,44,32056,5,2,0:2:0:0:
182,49,32279,2,0,L|174:152,1,95,2|2,3:2|0:2,0:0:0:0:
261,189,32723,2,0,L|147:189,1,95,2|2,3:2|0:2,0:0:0:0:
342,309,33168,6,0,L|502:329,2,142.5,2|2|2,3:2|0:2|0:2,0:0:0:0:
201,138,34279,1,2,0:2:0:0:
116,138,34501,2,0,P|77:101|142:54,1,142.5,2|2,3:2|0:2,0:0:0:0:
386,52,35168,5,2,3:2:0:0:
234,144,35612,2,0,L|358:143,1,95,2|2,3:2|3:2,0:0:0:0:
244,232,36056,2,0,L|133:227,2,95,2|2|2,3:2|3:2|3:2,0:0:0:0:
420,293,36723,6,0,L|277:351,2,142.5,6|2|2,3:2|0:2|0:2,0:0:0:0:
287,179,37834,1,2,0:2:0:0:
373,121,38056,2,0,P|452:148|494:231,2,142.5,2|2|2,3:2|0:2|0:2,0:0:0:0:
220,311,39168,5,2,0:2:0:0:
395,314,39390,2,0,L|402:195,1,95,2|2,3:2|0:2,0:0:0:0:
314,166,39834,2,0,L|418:164,1,95,2|2,3:2|0:2,0:0:0:0:
233,85,40279,6,0,L|84:110,2,142.5,6|2|2,3:2|0:2|0:2,0:0:0:0:
100,240,41390,1,2,0:2:0:0:
276,214,41612,6,0,L|472:198,1,190,2|0,3:2|3:2,0:0:0:0:
370,125,42279,1,2,0:2:0:0:
370,125,42723,2,0,L|267:125,1,95,2|2,0:2|3:2,0:0:0:0:
275,125,43168,1,2,3:2:0:0:
450,148,43390,2,0,L|458:254,1,95,2|2,3:2|3:2,0:0:0:0:
282,317,43834,6,0,L|178:311,2,95,4|2|0,3:2|0:2|3:2,0:0:0:0:
369,317,44501,2,0,P|364:261|245:182,1,190,2|2,0:2|0:2,0:0:0:0:
107,177,45390,1,2,0:2:0:0:
282,189,45612,6,0,L|440:234,2,142.5,2|2|2,3:2|0:2|0:2,0:0:0:0:
374,52,46501,2,0,L|380:247,1,190,2|0,3:2|3:2,0:0:0:0:
292,234,47168,1,2,0:2:0:0:
121,324,47390,6,0,P|74:290|142:207,1,190,2|0,3:2|3:2,0:0:0:0:
223,211,48056,1,2,0:2:0:0:
138,110,48279,2,0,L|303:101,2,142.5,2|2|2,3:2|0:2|0:2,0:0:0:0:
313,26,49168,6,0,L|313:262,1,190,2|0,3:2|3:2,0:0:0:0:
228,214,49834,1,2,3:2:0:0:
313,217,50056,2,0,L|420:214,1,95,2|2,3:2|0:2,0:0:0:0:
312,291,50501,2,0,L|214:292,1,95,2|2,3:2|3:2,0:0:0:0:
392,348,50945,6,0,P|449:336|505:264,1,142.5,6|2,3:2|0:2,0:0:0:0:
366,229,51612,2,0,L|276:276,2,95,2|0|0,0:2|3:2|0:2,0:0:0:0:
366,229,52279,1,0,3:2:0:0:
452,228,52501,1,2,0:2:0:0:
277,124,52723,6,0,L|80:117,1,190,2|0,3:2|3:2,0:0:0:0:
173,183,53390,2,0,L|180:286,1,95,2|0,0:2|3:2,0:0:0:0:
94,294,53834,1,2,0:2:0:0:
7,287,54056,1,2,3:2:0:0:
23,242,54167,1,2,0:2:0:0:
57,210,54278,1,2,0:2:0:0:
232,194,54501,6,0,P|291:168|233:81,1,190,2|0,3:2|3:2,0:0:0:0:
67,76,55168,2,0,P|56:151|149:206,1,190,2|2,0:2|0:2,0:0:0:0:
230,214,55834,1,2,3:2:0:0:
143,287,56056,1,2,3:2:0:0:
319,340,56279,6,0,P|341:283|302:241,1,95,2|0,0:2|3:2,0:0:0:0:
279,254,56612,1,0,0:2:0:0:
232,256,56723,1,0,0:2:0:0:
317,145,56945,5,0,3:2:0:0:
172,52,57390,2,0,L|113:52,2,47.5,0|0|0,3:2|0:2|3:2,0:0:0:0:
267,48,57834,2,0,L|268:104,1,47.5,0|0,3:2|3:2,0:0:0:0:
28,173,58279,6,0,P|27:263|68:310,1,142.5,0|0,0:0|0:0,0:0:0:0:
200,149,58945,2,0,L|56:225,2,142.5,2|2|2,0:2|0:2|0:2,0:0:0:0:
378,145,59834,6,0,P|449:179|365:228,1,209.000006378174,6|0,3:2|3:2,0:0:0:0:
289,231,60501,1,2,0:2:0:0:
205,227,60723,2,0,P|201:159|317:97,1,209.000006378174,2|0,3:2|3:2,0:0:0:0:
395,104,61390,1,2,0:2:0:0:
218,98,61612,6,0,L|94:99,1,104.500003189087,2|0,3:2|0:2,0:0:0:0:
161,168,61945,1,2,0:2:0:0:
208,168,62056,1,0,3:2:0:0:
386,167,62279,2,0,L|494:166,1,104.500003189087,2|0,0:2|3:2,0:0:0:0:
407,245,62723,2,0,L|280:244,2,104.500003189087,2|2|2,0:2|3:2|0:2,0:0:0:0:
229,342,63390,6,0,P|154:304|182:187,1,209.000006378174,6|0,3:2|3:2,0:0:0:0:
256,200,64056,1,2,0:2:0:0:
169,202,64279,2,0,P|169:142|311:74,1,209.000006378174,2|0,3:2|3:2,0:0:0:0:
198,31,64945,1,2,0:2:0:0:
20,37,65168,6,0,P|33:103|158:190,1,209.000006378174,2|0,3:2|3:2,0:0:0:0:
111,231,65723,1,2,0:2:0:0:
67,257,65834,1,0,0:0:0:0:
245,311,66056,2,0,L|369:308,2,104.500003189087,2|0|0,3:2|3:0|3:2,0:0:0:0:
329,223,66723,1,0,3:2:0:0:
149,127,66945,5,4,3:2:0:0:
318,131,67390,2,0,L|444:128,1,104.500003189087,2|0,3:2|0:2,0:0:0:0:
506,202,67834,2,0,L|340:203,2,156.750004783631,2|2|2,3:2|0:2|0:2,0:0:0:0:
326,333,68723,6,0,P|276:300|346:193,1,209.000006378174,2|0,3:2|3:2,0:0:0:0:
419,190,69390,1,2,0:2:0:0:
238,112,69612,1,2,3:2:0:0:
238,112,70056,1,2,3:2:0:0:
290,112,70167,1,0,0:2:0:0:
342,112,70278,1,0,0:2:0:0:
165,187,70501,6,0,P|102:191|73:330,1,209.000006378174,6|2,3:2|3:2,0:0:0:0:
208,348,71390,2,0,L|75:339,1,104.500003189087,2|0,3:2|0:2,0:0:0:0:
186,268,71834,2,0,L|294:256,1,104.500003189087,2|0,3:2|0:2,0:0:0:0:
112,221,72279,6,0,P|53:202|21:153,2,104.500003189087,2|2|2,3:2|3:2|0:2,0:0:0:0:
289,220,72945,2,0,P|288:166|143:92,1,209.000006378174,2|2,3:2|3:2,0:0:0:0:
75,86,73612,2,0,L|199:86,1,104.500003189087,0|0,3:2|3:2,0:0:0:0:
371,62,74056,6,0,P|506:118|329:293,1,455.999986083985,6|0,3:2|3:2,0:0:0:0:
287,315,75168,1,0,0:2:0:0:
371,212,75390,2,0,L|243:214,1,104.500003189087,0|2,3:2|0:2,0:0:0:0:
90,215,75834,6,0,P|70:152|197:85,1,209.000006378174,2|0,3:2|3:2,0:0:0:0:
254,73,76501,1,2,0:2:0:0:
169,74,76723,2,0,L|160:211,1,104.500003189087,2|0,3:2|0:2,0:0:0:0:
208,177,77056,1,2,0:2:0:0:
255,177,77168,1,0,3:2:0:0:
172,290,77390,1,2,0:2:0:0:
350,293,77612,6,0,L|461:287,2,104.500003189087,6|2|0,3:2|0:2|3:2,0:0:0:0:
173,278,78279,2,0,P|170:226|299:147,1,209.000006378174,4|0,3:2|3:2,0:0:0:0:
368,143,78945,1,0,3:2:0:0:
192,142,79168,5,4,3:2:0:0:
352,328,79834,2,0,L|354:132,1,190,2|2,0:2|3:2,0:0:0:0:
239,70,80612,2,0,L|387:68,1,142.5,2|2,3:2|3:2,0:0:0:0:
205,199,81168,6,0,L|66:197,2,95,6|2|2,3:2|0:2|0:2,0:0:0:0:
300,203,81834,1,2,3:2:0:0:
140,321,82279,2,0,L|255:319,1,95,2|2,0:2|3:2,0:0:0:0:
59,220,82723,5,2,0:2:0:0:
212,122,83168,2,0,L|101:123,1,95,2|2,3:2|3:2,0:0:0:0:
117,122,83612,1,2,0:2:0:0:
202,236,83834,2,0,L|45:290,2,142.5,2|2|2,0:2|0:2|0:2,0:0:0:0:
377,327,84723,6,0,L|374:223,1,95,6|2,3:2|0:2,0:0:0:0:
288,230,85168,1,2,0:2:0:0:
373,160,85390,1,2,3:2:0:0:
203,66,85834,2,0,L|75:65,1,95,2|2,3:2|3:2,0:0:0:0:
289,41,86279,6,0,P|383:118|274:313,1,380,2|2,0:2|3:2,0:0:0:0:
183,314,87390,1,2,3:2:0:0:
279,312,87612,1,2,3:2:0:0:
374,317,87834,2,0,L|436:317,2,47.5,2|0|2,3:2|0:0|3:2,0:0:0:0:
198,55,88279,6,0,L|35:54,1,142.5,6|6,3:2|3:2,0:0:0:0:
298,199,88945,1,6,3:2:0:0:
