osu file format v14

[General]
AudioFilename: audio.mp3
AudioLeadIn: 0
PreviewTime: 58279
Countdown: 0
SampleSet: Soft
StackLeniency: 0.7
Mode: 2
LetterboxInBreaks: 0
WidescreenStoryboard: 1

[Editor]
Bookmarks: 4723
DistanceSpacing: 1
BeatDivisor: 4
GridSize: 8
TimelineZoom: 1

[Metadata]
Title:Rakuen PROJECT (TV Size)
TitleUnicode:楽園PROJECT (TV Size)
Artist:Ray
ArtistUnicode:Ray
Creator:Kukkai
Version:Daletto's Platter
Source:To LOVEる-とらぶる-ダークネス
Tags:zerokt -hex- Daletto NyalettOwO x3 bigh bighzonda anime opening season 3 japanese jp to love ru toloveru darkness OP Toraburu Trouble pop j-pop jpop 高瀬一矢 Takase Kazuya Happy days single album Xebec Madman Entertainment Sentai Filmworks paradise 中山怜香 Reika Nakayama Clione Geneon Universal NBCUniversal Japan LLC
BeatmapID:3720871
BeatmapSetID:1813639

[Difficulty]
HPDrainRate:4
CircleSize:3.5
OverallDifficulty:8
ApproachRate:8
SliderMultiplier:2.2
SliderTickRate:1

[Events]
//Background and Video events
0,0,"bggggg.jpg",0,0
Video,275,"vdooo.mp4"
//Break Periods
//Storyboard Layer 0 (Background)
//Storyboard Layer 1 (Fail)
//Storyboard Layer 2 (Pass)
//Storyboard Layer 3 (Foreground)
//Storyboard Layer 4 (Overlay)
//Storyboard Sound Samples

[TimingPoints]
-5943,444.444444444444,4,2,1,60,1,0
8279,-100,4,2,1,65,0,0
21168,-100,4,2,1,60,0,0
22501,-100,4,2,1,65,0,0
59834,-100,4,2,1,70,0,1
79168,-100,4,2,1,70,0,0
79834,-100,4,2,1,60,0,0
81168,-100,4,2,1,65,0,0

[Colours]
Combo1 : 69,186,75
Combo2 : 254,150,181
Combo3 : 255,255,155

[HitObjects]
224,216,279,5,0,3:2:0:0:
280,216,390,2,0,P|280:160|204:84,1,165,0|0,3:2|0:2,0:0:0:0:
152,88,834,1,0,0:2:0:0:
96,80,945,1,0,0:2:0:0:
392,208,1168,6,0,P|432:168|336:72,1,220,6|0,3:2|3:2,0:0:0:0:
224,64,1834,1,2,0:2:0:0:
424,112,2056,2,0,L|304:112,1,110,2|0,3:2|0:2,0:0:0:0:
256,88,2390,1,2,0:2:0:0:
312,80,2501,1,0,3:2:0:0:
432,88,2723,1,2,0:2:0:0:
232,200,2945,6,0,L|120:200,1,110,2|0,3:2|0:2,0:0:0:0:
192,192,3279,1,2,0:2:0:0:
264,192,3390,1,0,3:2:0:0:
64,128,3612,2,0,L|56:16,1,110,2|0,0:2|3:2,0:0:0:0:
256,168,4056,2,0,L|96:8,1,220,0|0,0:2|0:2,0:0:0:0:
384,280,4723,6,0,P|424:240|328:144,1,220,6|0,3:2|3:2,0:0:0:0:
216,128,5390,1,2,0:2:0:0:
416,232,5612,2,0,L|424:8,1,220,2|0,3:2|3:2,0:0:0:0:
304,72,6279,1,2,0:2:0:0:
104,264,6501,6,0,L|264:104,1,220,2|0,3:2|3:2,0:0:0:0:
136,112,7168,1,2,0:2:0:0:
336,144,7390,2,0,L|328:32,1,110,0|0,3:2|3:2,0:0:0:0:
128,120,7834,2,0,L|8:120,1,110,0|0,3:2|3:2,0:0:0:0:
312,200,8279,6,0,L|320:88,1,110,4|0,3:2|0:2,0:0:0:0:
120,152,8723,2,0,L|128:40,1,110,2|0,3:2|0:2,0:0:0:0:
328,112,9168,1,2,3:2:0:0:
224,112,9390,2,0,L|216:56,2,55,0|2|0,0:2|0:2|3:2,0:0:0:0:
328,112,9834,1,2,0:2:0:0:
128,208,10056,6,0,L|120:96,1,110,2|0,3:2|0:2,0:0:0:0:
192,112,10390,1,2,0:2:0:0:
264,112,10501,1,0,3:2:0:0:
136,104,10723,1,2,0:2:0:0:
336,232,10945,2,0,P|336:176|224:64,1,220,2|2,3:2|3:2,0:0:0:0:
304,72,11501,1,0,0:2:0:0:
376,72,11612,1,0,0:2:0:0:
72,240,11834,6,0,L|64:128,1,110,6|0,3:2|0:2,0:0:0:0:
264,216,12279,2,0,L|376:216,1,110,2|0,3:2|0:2,0:0:0:0:
176,152,12723,2,0,L|288:152,1,110,2|0,3:2|0:2,0:0:0:0:
488,160,13168,2,0,L|376:160,1,110,2|0,3:2|0:2,0:0:0:0:
176,160,13612,5,2,3:2:0:0:
280,160,13834,2,0,L|272:48,1,110,2|2,3:2|0:2,0:0:0:0:
72,288,14279,2,0,L|80:64,1,220,2|2,3:2|3:2,0:0:0:0:
280,160,14945,2,0,L|400:160,1,110,0|0,3:2|3:2,0:0:0:0:
104,296,15390,6,0,P|64:256|160:160,1,220,4|0,3:2|3:2,0:0:0:0:
272,144,16056,1,0,0:2:0:0:
152,152,16279,2,0,L|264:152,1,110,0|0,3:2|0:2,0:0:0:0:
384,240,16723,2,0,L|496:240,1,110,0|2,3:2|0:2,0:0:0:0:
288,200,17168,6,0,L|280:88,1,110,2|0,3:2|0:2,0:0:0:0:
352,112,17501,2,0,L|344:56,1,55,2|0,0:2|3:2,0:0:0:0:
224,88,17834,1,2,0:2:0:0:
424,200,18056,2,0,L|432:88,1,110,2|0,3:2|0:2,0:0:0:0:
360,112,18389,1,2,0:2:0:0:
288,104,18501,2,0,L|176:104,1,110,0|2,3:2|0:2,0:0:0:0:
472,272,18945,6,0,P|472:216|360:104,1,220,6|0,3:2|3:2,0:0:0:0:
160,272,19612,2,0,P|160:216|272:104,1,220,4|0,3:2|3:2,0:0:0:0:
392,104,20279,1,0,3:2:0:0:
104,120,20501,5,4,3:2:0:0:
264,232,21168,2,0,L|272:8,1,220,2|2,0:2|3:2,0:0:0:0:
96,184,21945,2,0,L|88:8,1,165,2|2,3:2|3:2,0:0:0:0:
400,184,22501,6,0,L|512:184,1,110,6|2,3:2|0:2,0:0:0:0:
392,176,22945,1,2,0:2:0:0:
192,168,23168,2,0,L|200:56,1,110,2|0,3:2|0:2,0:0:0:0:
400,168,23612,2,0,L|408:56,1,110,2|2,0:2|3:2,0:0:0:0:
208,160,24056,6,0,P|152:160|152:32,1,220,2|2,0:2|3:2,0:0:0:0:
352,144,24723,2,0,L|344:32,1,110,2|2,3:2|0:2,0:0:0:0:
144,176,25168,2,0,L|136:64,1,110,2|0,0:2|3:2,0:0:0:0:
208,112,25501,2,0,L|216:56,1,55,2|0,0:2|0:2,0:0:0:0:
96,96,25834,1,2,0:2:0:0:
384,256,26056,6,0,L|392:144,1,110,6|2,3:2|0:2,0:0:0:0:
264,144,26501,1,2,0:2:0:0:
464,112,26723,2,0,L|344:112,1,110,2|0,3:2|0:2,0:0:0:0:
152,144,27168,2,0,L|144:256,1,110,2|2,3:2|0:2,0:0:0:0:
344,224,27612,6,0,P|384:184|288:88,1,220,2|2,3:2|3:2,0:0:0:0:
96,184,28279,2,0,L|104:72,1,110,2|2,3:2|3:2,0:0:0:0:
304,200,28723,1,2,3:2:0:0:
360,168,28834,1,0,3:2:0:0:
384,112,28945,1,2,3:2:0:0:
360,168,29056,1,0,3:2:0:0:
296,200,29168,2,0,L|184:200,1,110,2|2,3:2|3:2,0:0:0:0:
480,256,29612,6,0,P|480:200|368:88,1,220,6|0,3:2|3:2,0:0:0:0:
168,136,30279,2,0,L|56:136,1,110,2|0,0:2|3:2,0:0:0:0:
176,128,30723,1,2,0:2:0:0:
376,240,30945,6,0,L|384:16,1,220,2|0,3:2|3:2,0:0:0:0:
184,184,31612,2,0,L|192:72,1,110,2|0,0:2|3:2,0:0:0:0:
312,112,32056,1,2,0:2:0:0:
112,136,32279,2,0,L|232:136,1,110,2|2,3:2|0:2,0:0:0:0:
424,144,32723,2,0,L|304:144,1,110,2|2,3:2|0:2,0:0:0:0:
24,296,33168,6,0,L|32:72,1,220,2|0,3:2|3:2,0:0:0:0:
232,168,33834,2,0,L|352:168,1,110,2|0,0:2|3:2,0:0:0:0:
224,160,34279,1,2,0:2:0:0:
424,248,34501,6,0,P|464:208|368:112,1,220,2|0,3:2|3:2,0:0:0:0:
176,144,35168,2,0,L|288:144,1,110,2|0,3:2|0:2,0:0:0:0:
168,136,35612,1,2,3:2:0:0:
368,96,35834,2,0,L|360:208,1,110,2|2,3:2|3:2,0:0:0:0:
160,136,36279,1,2,3:2:0:0:
152,128,36390,1,0,3:2:0:0:
144,120,36501,1,2,3:2:0:0:
432,216,36723,6,0,P|472:176|376:80,1,220,6|0,3:2|3:2,0:0:0:0:
184,128,37390,2,0,L|64:128,1,110,2|0,0:2|3:2,0:0:0:0:
192,120,37834,1,2,0:2:0:0:
392,224,38056,6,0,P|392:168|280:56,1,220,2|0,3:2|3:2,0:0:0:0:
488,192,38723,2,0,L|496:80,1,110,2|0,0:2|3:2,0:0:0:0:
384,112,39168,1,2,0:2:0:0:
184,128,39390,2,0,L|192:240,1,110,2|2,3:2|0:2,0:0:0:0:
392,208,39834,2,0,L|504:208,1,110,2|2,3:2|0:2,0:0:0:0:
208,264,40279,6,0,P|152:264|152:136,1,220,6|0,3:2|3:2,0:0:0:0:
352,176,40945,2,0,L|360:64,1,110,2|0,0:2|3:2,0:0:0:0:
240,104,41390,1,2,0:2:0:0:
440,176,41612,6,0,P|480:136|384:40,1,220,2|0,3:2|3:2,0:0:0:0:
192,128,42279,2,0,L|304:128,1,110,2|0,0:2|3:2,0:0:0:0:
184,120,42723,1,2,0:2:0:0:
384,216,42945,2,0,L|376:104,1,110,2|2,3:2|3:2,0:0:0:0:
176,144,43390,2,0,L|64:144,1,110,2|2,3:2|3:2,0:0:0:0:
384,248,43834,6,0,L|392:24,1,220,4|0,3:2|3:2,0:0:0:0:
192,184,44501,2,0,L|184:72,1,110,2|0,0:2|3:2,0:0:0:0:
384,136,44945,2,0,L|256:136,1,110,2|0,0:2|3:2,0:0:0:0:
392,128,45390,1,2,0:2:0:0:
192,240,45612,6,0,P|136:240|136:112,1,220,2|0,3:2|3:2,0:0:0:0:
336,152,46279,1,2,0:2:0:0:
136,304,46501,2,0,L|128:192,1,110,2|0,3:2|0:0,0:0:0:0:
240,184,46945,1,0,3:2:0:0:
112,168,47168,1,2,0:2:0:0:
408,264,47390,6,0,P|408:208|296:96,1,220,2|0,3:2|3:2,0:0:0:0:
96,128,48056,1,2,0:2:0:0:
304,128,48279,2,0,L|176:128,1,110,2|0,3:2|0:2,0:0:0:0:
312,120,48723,1,0,3:2:0:0:
512,120,48945,1,2,0:2:0:0:
312,200,49168,6,0,L|304:88,1,110,2|2,3:2|0:2,0:0:0:0:
440,96,49612,2,0,L|448:208,1,110,0|2,3:2|3:2,0:0:0:0:
248,120,50056,2,0,L|368:120,1,110,2|2,3:2|0:2,0:0:0:0:
152,88,50501,2,0,L|144:200,1,110,2|2,3:2|3:2,0:0:0:0:
456,280,50945,6,0,L|464:56,1,220,6|0,3:2|3:2,0:0:0:0:
264,184,51612,2,0,L|256:72,1,110,2|0,0:2|3:2,0:0:0:0:
456,136,52056,2,0,L|336:136,1,110,0|0,0:2|3:2,0:0:0:0:
464,128,52501,1,2,0:2:0:0:
176,248,52723,6,0,P|136:208|232:112,1,220,2|0,3:2|3:2,0:0:0:0:
424,112,53390,2,0,L|416:224,1,110,2|0,0:2|3:2,0:0:0:0:
208,184,53834,2,0,L|88:184,1,110,2|2,0:2|3:2,0:0:0:0:
104,168,54168,1,2,0:2:0:0:
112,144,54279,1,2,0:2:0:0:
400,256,54501,6,0,P|400:200|288:88,1,220,2|0,3:2|3:2,0:0:0:0:
88,80,55168,2,0,L|200:80,1,110,2|0,0:2|3:2,0:0:0:0:
400,144,55612,2,0,L|288:144,1,110,2|2,0:2|3:2,0:0:0:0:
408,136,56056,1,2,3:2:0:0:
120,264,56279,6,0,P|120:208|304:24,1,330,2|0,0:2|3:2,0:0:0:0:
496,248,57168,2,0,L|384:248,1,110,0|0,0:2|3:2,0:0:0:0:
448,192,57501,1,0,0:2:0:0:
480,160,57612,1,0,3:2:0:0:
448,120,57723,1,0,3:2:0:0:
480,160,57834,1,0,3:2:0:0:
448,192,57945,1,0,3:2:0:0:
96,144,58167,5,4,3:2:0:0:
24,144,58279,2,0,L|144:24,1,165,0|0,0:0|0:0,0:0:0:0:
296,136,58945,2,0,L|304:304,1,165,2|2,0:2|0:2,0:0:0:0:
464,192,59612,1,2,0:2:0:0:
168,264,59834,6,0,P|112:264|112:136,1,220,6|0,3:2|3:2,0:0:0:0:
312,144,60501,1,2,0:2:0:0:
112,120,60723,2,0,L|224:120,1,110,2|0,3:2|0:2,0:0:0:0:
288,112,61056,2,0,L|296:56,1,55,2|0,0:2|3:2,0:0:0:0:
176,112,61390,1,2,0:2:0:0:
488,248,61612,6,0,L|480:136,1,110,2|0,3:2|0:2,0:0:0:0:
408,128,61945,1,2,0:2:0:0:
336,128,62056,1,0,3:2:0:0:
136,112,62279,2,0,L|256:112,1,110,2|0,0:2|3:2,0:0:0:0:
128,104,62723,1,2,0:2:0:0:
328,184,62945,2,0,L|440:184,1,110,2|2,3:2|0:2,0:0:0:0:
144,280,63390,6,0,L|136:56,1,220,6|0,3:2|3:2,0:0:0:0:
336,128,64056,1,2,0:2:0:0:
136,144,64279,2,0,L|144:32,1,110,2|0,3:2|0:2,0:0:0:0:
216,64,64612,1,2,0:2:0:0:
288,64,64723,1,0,3:2:0:0:
160,64,64945,1,2,0:2:0:0:
360,128,65168,6,0,L|480:128,1,110,2|0,3:2|0:2,0:0:0:0:
400,104,65501,1,2,0:2:0:0:
328,104,65612,1,0,3:2:0:0:
128,96,65834,1,0,0:0:0:0:
328,184,66056,2,0,L|336:72,1,110,2|0,3:2|3:0,0:0:0:0:
136,96,66501,2,0,L|24:96,1,110,0|0,3:2|3:2,0:0:0:0:
360,288,66945,6,0,P|360:232|248:120,1,220,4|2,3:2|3:2,0:0:0:0:
48,128,67612,1,0,0:2:0:0:
256,184,67834,2,0,L|248:72,1,110,2|0,3:2|0:2,0:0:0:0:
176,96,68168,1,2,0:2:0:0:
104,136,68279,2,0,L|96:24,1,110,0|2,3:2|0:2,0:0:0:0:
384,272,68723,6,0,L|496:272,1,110,2|0,3:2|0:2,0:0:0:0:
376,264,69168,1,0,3:2:0:0:
176,200,69390,1,2,0:2:0:0:
376,168,69612,2,0,L|256:168,1,110,2|0,3:2|0:2,0:0:0:0:
64,160,70056,2,0,L|56:104,2,55,2|0|0,3:2|0:2|0:2,0:0:0:0:
360,240,70501,6,0,L|368:128,1,110,6|0,3:2|0:2,0:0:0:0:
168,208,70945,2,0,L|48:208,1,110,2|0,3:2|0:2,0:0:0:0:
256,152,71390,2,0,L|368:152,1,110,2|0,3:2|0:2,0:0:0:0:
168,208,71834,2,0,L|160:96,1,110,2|0,3:2|0:2,0:0:0:0:
360,168,72279,6,0,L|232:168,1,110,2|2,3:2|3:2,0:0:0:0:
368,160,72723,1,2,0:2:0:0:
168,192,72945,2,0,P|112:192|112:64,1,220,2|2,3:2|3:2,0:0:0:0:
312,112,73612,2,0,L|424:112,1,110,0|0,3:2|3:2,0:0:0:0:
128,312,74056,6,0,L|120:88,1,220,6|0,3:2|3:2,0:0:0:0:
320,104,74723,1,0,0:2:0:0:
120,160,74945,2,0,L|128:272,1,110,0|0,3:2|0:2,0:0:0:0:
328,272,75390,2,0,L|336:160,1,110,0|2,3:2|0:2,0:0:0:0:
136,192,75834,6,0,L|24:192,1,110,2|0,3:2|0:2,0:0:0:0:
96,160,76168,1,2,0:2:0:0:
168,160,76279,1,0,3:2:0:0:
368,144,76501,1,2,0:2:0:0:
168,192,76723,2,0,L|160:80,1,110,2|0,3:2|0:2,0:0:0:0:
232,96,77056,1,2,0:2:0:0:
304,96,77168,1,0,3:2:0:0:
176,96,77390,1,2,0:2:0:0:
472,232,77612,6,0,L|480:120,1,110,6|2,3:2|0:2,0:0:0:0:
360,128,78056,1,0,3:2:0:0:
160,320,78279,2,0,P|120:280|216:184,1,220,4|0,3:2|3:2,0:0:0:0:
328,160,78945,1,0,3:2:0:0:
24,168,79168,5,4,3:2:0:0:
176,216,79834,2,0,P|232:216|232:88,1,220,2|2,0:2|3:2,0:0:0:0:
80,240,80612,2,0,L|88:72,1,165,2|2,3:2|3:2,0:0:0:0:
376,184,81168,6,0,L|488:184,1,110,6|2,3:2|0:2,0:0:0:0:
368,176,81612,1,2,0:2:0:0:
168,176,81834,2,0,L|176:64,1,110,2|0,3:2|0:2,0:0:0:0:
376,168,82279,2,0,L|384:56,1,110,2|2,0:2|3:2,0:0:0:0:
184,216,82723,6,0,P|104:136|168:72,1,220,2|2,0:2|3:2,0:0:0:0:
360,128,83390,2,0,L|368:16,1,110,2|2,3:2|0:2,0:0:0:0:
168,128,83834,2,0,L|56:128,1,110,2|0,0:2|3:2,0:0:0:0:
128,112,84168,2,0,L|136:56,1,55,2|0,0:2|0:2,0:0:0:0:
16,72,84501,1,2,0:2:0:0:
304,280,84723,6,0,L|312:168,1,110,6|2,3:2|0:2,0:0:0:0:
208,200,85168,1,2,0:2:0:0:
408,184,85390,2,0,L|416:72,1,110,2|0,3:2|0:2,0:0:0:0:
216,144,85834,2,0,L|96:144,1,110,2|2,3:2|3:2,0:0:0:0:
312,256,86279,6,0,P|368:256|368:48,1,330,2|0,0:2|0:2,0:0:0:0:
168,192,87168,1,2,3:2:0:0:
368,168,87390,2,0,L|256:168,1,110,2|2,3:2|3:2,0:0:0:0:
56,144,87834,2,0,L|168:144,1,110,2|2,3:2|3:2,0:0:0:0:
456,240,88279,6,0,L|464:72,1,165,6|6,3:2|3:2,0:0:0:0:
56,240,88945,1,6,3:2:0:0:
