osu file format v14

[General]
AudioFilename: i love yami.mp3
AudioLeadIn: 0
PreviewTime: 58089
Countdown: 0
SampleSet: Soft
StackLeniency: 0.5
Mode: 0
LetterboxInBreaks: 0
WidescreenStoryboard: 0

[Editor]
Bookmarks: 8033,22255,29366,36477,43588,59588,77366,80922,88699
DistanceSpacing: 1
BeatDivisor: 4
GridSize: 32
TimelineZoom: 1

[Metadata]
Title:Rakuen PROJECT (TV Size)
TitleUnicode:楽園PROJECT (TV Size)
Artist:Ray
ArtistUnicode:Ray
Creator:Cami
Version:Easy
Source:To LOVEる -とらぶる- ダークネス
Tags:_Meep_ serizawa haruki jack J_a_c_k tomadoi Shiinoha Kotone LOVE-Ru Trouble Darkness anime opening short version Japanese Pop
BeatmapID:1922310
BeatmapSetID:920486

[Difficulty]
HPDrainRate:2
CircleSize:3.1
OverallDifficulty:3
ApproachRate:3.1
SliderMultiplier:0.9
SliderTickRate:1

[Events]
//Background and Video events
0,0,"bg10.jpg",0,0
Video,-370,"good anime opening ok thank you.mp4"
//Break Periods
//Storyboard Layer 0 (Background)
//Storyboard Layer 1 (Fail)
//Storyboard Layer 2 (Pass)
//Storyboard Layer 3 (Foreground)
//Storyboard Layer 4 (Overlay)
//Storyboard Sound Samples

[TimingPoints]
201,444.444444444444,4,2,1,60,1,0
1090,444.444444444444,4,2,1,60,1,0
22423,-100,4,2,1,45,0,0
29534,-100,4,2,1,55,0,0
36645,-100,4,2,1,60,0,0
43756,-100,4,2,1,55,0,0
59756,-100,4,2,1,75,0,1
77534,-100,4,2,1,60,0,0
81089,-100,4,2,1,45,0,0
87089,-100,4,2,1,55,0,0
88201,-100,4,2,1,60,0,0

[Colours]
Combo1 : 163,211,141
Combo2 : 215,146,218
Combo3 : 164,168,162
Combo4 : 184,94,84

[HitObjects]
181,239,201,5,0,1:0:0:0:
269,222,645,1,2,0:0:0:0:
317,297,1090,6,0,P|363:323|407:312,1,90,6|8,1:2|0:0,0:0:0:0:
469,263,1978,2,0,L|459:158,1,90,2|8,1:2|0:0,0:0:0:0:
424,91,2867,2,0,B|357:66|357:66|290:82,1,135,2|2,1:2|0:0,0:0:0:0:
250,158,3978,1,4,0:1:0:0:
118,129,4645,6,0,L|108:36,1,90,6|8,1:2|0:0,0:0:0:0:
18,36,5534,2,0,L|8:125,1,90,2|8,1:2|0:0,0:0:0:0:
58,200,6423,2,0,B|122:224|122:224|183:195,1,135,2|2,1:2|0:0,0:0:0:0:
233,121,7534,1,4,1:0:0:0:
334,210,8201,6,0,L|315:311,2,90,6|8|2,1:2|0:0|1:2,0:0:0:0:
418,178,9534,1,8,0:0:0:0:
496,222,9978,2,0,L|515:323,2,90,2|8|2,1:2|0:0|1:2,0:0:0:0:
501,131,11312,1,10,0:0:0:0:
448,58,11756,6,0,P|402:41|351:54,1,90,6|0,1:2|1:0,0:0:0:0:
317,125,12645,2,0,P|271:142|220:129,1,90,2|0,1:2|1:0,0:0:0:0:
154,89,13534,1,2,1:2:0:0:
63,189,14201,2,0,L|81:291,1,90,2|0,1:2|1:0,0:0:0:0:
181,364,15312,6,0,P|267:377|334:321,1,180,6|2,1:2|1:2,0:0:0:0:
323,232,16645,1,8,0:0:0:0:
386,168,17089,2,0,P|421:151|486:157,1,90,2|8,1:2|0:0,0:0:0:0:
498,237,17978,2,0,P|463:254|398:248,1,90,2|8,1:2|0:0,0:0:0:0:
323,232,18867,5,6,1:2:0:0:
212,154,19534,1,6,1:2:0:0:
59,249,20423,1,6,1:2:0:0:
59,249,22423,6,0,P|123:258|189:317,1,135,6|2,1:2|1:2,0:0:0:0:
247,356,23534,2,0,P|288:366|336:345,1,90,2|2,0:0|0:0,0:0:0:0:
410,305,24423,2,0,L|388:153,1,135,2|2,1:2|0:0,0:0:0:0:
373,82,25534,1,2,0:0:0:0:
428,11,25978,6,0,P|366:40|291:16,1,135,6|2,1:2|1:2,0:0:0:0:
215,8,27089,1,2,0:0:0:0:
150,70,27534,1,2,1:2:0:0:
178,155,27978,1,2,1:2:0:0:
69,236,28645,2,0,B|64:280|64:280|80:321,1,90,2|2,1:2|1:2,0:0:0:0:
157,369,29534,5,6,1:2:0:0:
260,282,30201,1,2,0:0:0:0:
393,298,30867,1,10,0:0:0:0:
496,211,31534,1,2,0:0:0:0:
472,77,32201,2,0,P|435:38|383:31,1,90,2|8,1:2|0:0,0:0:0:0:
320,68,33089,5,2,1:2:0:0:
189,34,33756,1,2,0:0:0:0:
155,165,34423,1,10,0:0:0:0:
286,199,35089,1,2,1:2:0:0:
191,295,35756,2,0,P|142:306|98:287,1,90,2|8,1:2|0:0,0:0:0:0:
50,221,36645,6,0,B|35:154|35:154|68:88,1,135,6|2,1:2|0:0,0:0:0:0:
186,36,37978,2,0,P|256:23|330:39,1,135,10|2,0:0|0:0,0:0:0:0:
438,96,39312,1,2,1:2:0:0:
431,185,39756,1,10,0:2:0:0:
369,248,40201,6,0,B|298:271|317:224|230:245,1,135,6|2,1:2|0:0,0:0:0:0:
139,336,41534,2,0,P|77:358|19:328,1,135,10|0,0:0|1:0,0:0:0:0:
48,196,42867,2,0,P|91:186|136:207,1,90,2|8,1:2|0:0,0:0:0:0:
197,265,43756,5,6,1:2:0:0:
307,186,44423,2,0,L|293:76,1,90,2|2,0:0|0:0,0:0:0:0:
177,30,45534,2,0,L|165:119,1,90,2|8,1:2|0:0,0:0:0:0:
131,203,46423,2,0,P|113:241|112:298,1,90,2|8,1:2|0:0,0:0:0:0:
176,348,47312,5,2,1:2:0:0:
262,322,47756,1,8,0:0:0:0:
347,351,48201,2,0,P|396:356|441:360,1,90,2|8,1:2|0:0,0:0:0:0:
504,300,49089,1,2,1:2:0:0:
385,164,49978,2,0,L|384:67,1,90,2|8,0:0|0:0,0:0:0:0:
304,31,50867,6,0,B|256:40|256:40|231:71|231:71|172:80,1,135,6|2,1:2|0:0,0:0:0:0:
58,125,52201,1,0,1:0:0:0:
88,209,52645,6,0,B|136:218|136:218|161:249|161:249|220:258,1,135,6|2,1:2|0:0,0:0:0:0:
338,227,53978,1,2,1:2:0:0:
405,288,54423,6,0,P|354:341|288:355,1,135,2|4,1:2|0:1,0:0:0:0:
206,255,55756,1,10,0:2:0:0:
256,192,56201,12,0,57978,0:0:0:0:
189,253,59756,6,0,P|179:210|192:162,1,90,6|8,1:2|0:0,0:0:0:0:
279,172,60645,2,0,P|289:215|276:263,1,90,2|8,1:2|0:0,0:0:0:0:
231,336,61534,2,0,P|280:301|366:308,1,135,2|2,1:2|0:0,0:0:0:0:
407,373,62645,1,4,0:1:0:0:
511,291,63312,6,0,L|498:194,1,90,6|8,1:2|0:0,0:0:0:0:
447,128,64201,2,0,P|401:106|348:114,1,90,2|8,1:2|0:0,0:0:0:0:
293,164,65089,2,0,P|220:187|197:176,1,90,2|8,1:2|0:0,0:0:0:0:
157,111,65978,2,0,B|165:185|165:185|136:216|136:216|145:295,1,180,2|4,1:2|1:2,0:0:0:0:
201,347,67312,6,0,L|299:323,1,90,10|0,0:0|1:2,0:0:0:0:
374,298,68201,1,10,0:0:0:0:
412,216,68645,2,0,P|424:171|409:124,1,90,2|8,1:2|0:0,0:0:0:0:
341,75,69534,1,2,1:2:0:0:
266,125,69978,1,10,0:0:0:0:
195,69,70423,6,0,B|150:52|150:52|104:66,1,90,6|8,1:2|0:0,0:0:0:0:
42,124,71312,2,0,B|25:169|25:169|39:215,1,90,2|8,1:2|0:0,0:0:0:0:
88,282,72201,5,2,1:2:0:0:
150,162,72867,1,2,1:2:0:0:
233,196,73312,1,2,1:2:0:0:
307,307,73978,6,0,P|368:293|386:182,1,180,6|0,1:2|1:0,0:0:0:0:
317,136,75312,1,8,0:0:0:0:
240,182,75756,2,0,P|196:195|150:172,1,90,2|8,1:2|0:0,0:0:0:0:
114,100,76645,2,0,P|70:86|24:109,1,90,2|8,1:2|0:0,0:0:0:0:
0,186,77534,5,6,1:2:0:0:
112,260,78201,1,6,1:2:0:0:
202,104,79089,1,6,1:2:0:0:
202,104,81089,6,0,P|180:151|213:238,1,135,6|2,1:2|1:2,0:0:0:0:
287,257,82201,2,0,P|324:230|384:230,1,90,2|2,0:0|0:0,0:0:0:0:
430,288,83089,2,0,L|409:138,1,135,2|2,1:2|0:0,0:0:0:0:
396,65,84201,1,10,0:0:0:0:
315,25,84645,6,0,B|241:17|263:58|184:56,1,135,6|2,1:2|1:2,0:0:0:0:
102,23,85756,1,2,1:2:0:0:
33,82,86201,1,2,0:0:0:0:
111,243,87089,6,0,P|158:257|232:212,1,135,2|2,1:2|1:2,0:0:0:0:
277,140,88201,1,6,1:2:0:0:
298,272,88867,1,6,1:2:0:0:
