osu file format v14

[General]
AudioFilename: audio.mp3
AudioLeadIn: 0
PreviewTime: 26207
Countdown: 0
SampleSet: Soft
StackLeniency: 0.4
Mode: 0
LetterboxInBreaks: 0
WidescreenStoryboard: 1

[Editor]
Bookmarks: 14096,26021,37947,51363,69251,93102,105027,116953,130369,146766,172108,191487,201922,231735,243661
DistanceSpacing: 1.5
BeatDivisor: 8
GridSize: 32
TimelineZoom: 2.1

[Metadata]
Title:Kimi to Ita Sora
TitleUnicode:君といた空
Artist:Ray
ArtistUnicode:Ray
Creator:cocona
Version:Tycani's Hard
Source:蒼の彼方のフォーリズム
Tags:Ao no Kanata no Four Rhythm Across the Blue Aokana eroge visual novel vn japanese video game anime ed ending tycani
BeatmapID:2826310
BeatmapSetID:1291251

[Difficulty]
HPDrainRate:4.5
CircleSize:4
OverallDifficulty:6
ApproachRate:7.5
SliderMultiplier:1.1
SliderTickRate:1

[Events]
//Background and Video events
0,0,"PopOGPOPGopOGPOPGOPG.jpg",0,0
//Break Periods
//Storyboard Layer 0 (Background)
//Storyboard Layer 1 (Fail)
//Storyboard Layer 2 (Pass)
//Storyboard Layer 3 (Foreground)
//Storyboard Layer 4 (Overlay)
//Storyboard Sound Samples

[TimingPoints]
680,372.670807453416,4,2,1,20,1,0
680,-285.714285714286,4,2,1,20,0,0
13723,-125,4,2,1,20,0,0
13909,-125,4,2,1,30,0,0
14096,-125,4,2,1,40,0,0
20058,-138.888888888889,4,2,1,50,0,0
23785,-100,4,2,1,50,0,0
26021,-138.888888888889,4,2,1,50,0,0
36456,-100,4,2,1,50,0,0
36735,-138.888888888889,4,2,1,45,0,0
37108,-100,4,2,1,45,0,0
37947,-100,4,2,1,50,0,0
38226,-100,4,2,1,5,0,0
38319,-100,4,2,1,50,0,0
40835,-100,4,2,1,5,0,0
40928,-100,4,2,1,50,0,0
46798,-100,4,2,1,5,0,0
46891,-100,4,2,1,50,0,0
49779,-100,4,2,1,5,0,0
49872,-100,4,2,1,50,0,0
51735,-90.9090909090909,4,2,1,60,0,0
60307,-142.857142857143,4,2,1,60,0,0
63288,-111.111111111111,4,2,1,65,0,0
66270,-90.909090909091,4,2,1,70,0,0
67388,-90.909090909091,4,2,1,75,0,0
67760,-90.909090909091,4,2,1,40,0,0
67947,-166.666666666667,4,2,1,40,0,0
69251,-83.3333333333333,4,2,1,80,0,1
77543,-83.3333333333333,4,2,1,5,0,1
77636,-83.3333333333333,4,2,1,80,0,1
80524,-83.3333333333333,4,2,1,5,0,1
80617,-83.3333333333333,4,2,1,80,0,1
93102,-100,4,2,1,75,0,0
100648,-100,4,2,1,5,0,0
100742,-100,4,2,1,75,0,0
105400,-138.888888888889,4,2,1,45,0,0
115462,-100,4,2,1,45,0,0
115742,-138.888888888889,4,2,1,45,0,0
116207,-100,4,2,1,45,0,0
116580,-138.888888888889,4,2,1,45,0,0
116953,-100,4,2,1,45,0,0
117232,-100,4,2,1,5,0,0
117325,-100,4,2,1,50,0,0
119841,-100,4,2,1,5,0,0
119934,-100,4,2,1,50,0,0
125804,-100,4,2,1,5,0,0
125897,-100,4,2,1,50,0,0
128785,-100,4,2,1,5,0,0
128878,-100,4,2,1,50,0,0
130742,-83.3333333333333,4,2,1,60,0,0
131114,-90.9090909090909,4,2,1,60,0,0
132232,-111.111111111111,4,2,1,60,0,0
133723,-90.9090909090909,4,2,1,60,0,0
136704,-90.9090909090909,4,2,1,60,0,0
139313,-142.857142857143,4,2,1,60,0,0
142294,-111.111111111111,4,2,1,65,0,0
145276,-111.111111111111,4,2,1,70,0,0
146394,-111.111111111111,4,2,1,75,0,0
146766,-111.111111111111,4,2,1,40,0,0
146953,-166.666666666667,4,2,1,40,0,0
148257,-83.3333333333333,4,2,1,80,0,1
156549,-83.3333333333333,4,2,1,5,0,1
156642,-83.3333333333333,4,2,1,80,0,1
159530,-83.3333333333333,4,2,1,5,0,1
159624,-83.3333333333333,4,2,1,80,0,1
172108,-90.9090909090909,4,2,1,75,0,0
175742,-90.9090909090909,4,2,1,5,0,0
175835,-90.9090909090909,4,2,1,75,0,0
177978,-90.9090909090909,4,2,1,5,0,0
178071,-90.9090909090909,4,2,1,75,0,0
181704,-90.9090909090909,4,2,1,5,0,0
181798,-90.9090909090909,4,2,1,75,0,0
187294,-90.9090909090909,4,2,1,5,0,0
187388,-90.9090909090909,4,2,1,75,0,0
189996,-76.9230769230769,4,2,1,75,0,0
191487,-90.9090909090909,4,2,1,40,0,0
191673,-166.666666666667,4,2,1,40,0,0
192605,-125,4,2,1,40,0,0
192791,-125,4,2,1,50,0,0
192884,-125,4,2,1,70,0,0
192978,-125,4,2,1,80,0,0
193164,-142.857142857143,4,2,1,50,0,0
195027,-125,4,2,1,50,0,0
195214,-142.857142857143,4,2,1,50,0,0
195959,-166.666666666667,4,2,1,70,0,0
200431,-125,4,2,1,75,0,0
201922,-83.3333333333333,4,2,1,80,0,1
207232,-83.3333333333333,4,2,1,5,0,1
207325,-83.3333333333333,4,2,1,80,0,1
218319,-83.3333333333333,4,2,1,80,0,0
219810,-83.3333333333333,4,2,1,80,0,1
225773,-83.3333333333333,4,2,1,80,0,0
231735,-83.3333333333333,4,2,1,80,0,1
243661,-166.666666666667,4,2,1,80,0,0
243847,-166.666666666667,4,2,1,30,0,0
252698,-142.857142857143,4,2,1,30,0,0
255586,-142.857142857143,4,2,1,5,0,0

[Colours]
Combo1 : 169,132,189
Combo2 : 163,219,234

[HitObjects]
60,24,14096,6,0,L|162:32,1,88,4|2,3:2|0:0,0:0:0:0:
226,35,14655,1,0,0:0:0:0:
226,35,14841,2,0,L|218:124,1,88,0|2,0:0|0:0,0:0:0:0:
216,199,15400,1,0,0:0:0:0:
216,199,15586,6,0,P|261:187|306:203,1,88,2|2,3:2|0:0,0:0:0:0:
340,264,16145,2,0,P|317:302|345:382,1,132,0|2,0:0|0:0,0:0:0:0:
227,327,17077,6,0,L|128:340,1,88,2|2,3:2|0:0,0:0:0:0:
65,348,17636,1,0,0:0:0:0:
65,348,17822,2,0,L|53:260,1,88,0|2,0:0|0:0,0:0:0:0:
36,136,18568,6,0,B|73:133|73:133|91:144|91:144|130:143,1,88,2|2,3:2|0:0,0:0:0:0:
183,98,19127,2,0,L|283:112,2,88
199,27,20058,6,0,L|245:31,1,39.6000009667969,0|0,3:2|0:0,0:0:0:0:
311,46,20431,2,0,L|357:42,1,39.6000009667969,10|0,0:0|0:0,0:0:0:0:
421,14,20804,2,0,L|427:62,1,39.6000009667969,0|0,3:2|0:0,0:0:0:0:
474,110,21176,2,0,L|468:158,1,39.6000009667969,10|0,0:0|0:0,0:0:0:0:
428,211,21549,6,0,L|381:219,1,39.6000009667969,0|0,3:2|0:0,0:0:0:0:
415,291,21922,2,0,L|462:283,1,39.6000009667969,10|0,0:0|0:0,0:0:0:0:
511,340,22294,2,0,L|515:384,1,39.6000009667969,0|0,3:2|0:0,0:0:0:0:
440,370,22667,2,0,L|393:379,1,39.6000009667969,8|0,0:0|0:0,0:0:0:0:
317,384,23040,6,0,L|227:373,1,79.2000019335938,0|10,3:2|0:0,0:0:0:0:
178,335,23599,1,0,3:2:0:0:
178,335,23692,1,0,3:2:0:0:
178,335,23785,2,0,L|172:287,3,27.5,2|0|0|0,3:2|3:2|3:2|3:2,0:0:0:0:
158,279,24158,2,0,L|164:239,3,27.5,10|0|2|0,0:0|3:2|3:2|3:2,0:0:0:0:
138,229,24530,6,0,P|126:224|107:223,3,27.5,2|2|2|2,3:2|3:2|3:2|3:2,0:0:0:0:
83,243,24903,2,0,P|71:248|40:243,3,27.5,10|2|2|2,0:0|3:2|3:2|3:2,0:0:0:0:
40,224,25276,2,0,L|34:173,3,27.5,2|2|2|2,3:2|3:2|3:2|3:2,0:0:0:0:
29,176,25648,1,10,0:0:0:0:
32,160,25742,1,2,3:2:0:0:
35,144,25835,1,2,3:2:0:0:
38,128,25928,1,2,3:2:0:0:
41,112,26021,5,6,3:2:0:0:
147,177,26394,2,0,L|203:161,1,39.6000009667969,2|0,3:2|0:0,0:0:0:0:
248,119,26766,2,0,L|304:135,2,39.6000009667969,0|0|2,3:2|0:0|3:2,0:0:0:0:
184,75,27325,1,2,0:0:0:0:
184,75,27512,6,0,B|194:49|194:49|181:-3,1,79.2000019335938,2|0,3:2|3:2,0:0:0:0:
262,18,28071,2,0,L|345:2,1,79.2000019335938,2|0,0:0|0:0,0:0:0:0:
416,0,28630,2,0,L|413:50,1,39.6000009667969,2|0,3:2|0:0,0:0:0:0:
407,113,29002,5,2,3:2:0:0:
284,90,29375,2,0,L|289:137,1,39.6000009667969,2|0,3:2|0:0,0:0:0:0:
295,205,29748,1,0,3:2:0:0:
295,205,29934,2,0,L|248:211,2,39.6000009667969,0|2|2,0:0|3:2|0:0,0:0:0:0:
361,166,30493,6,0,L|444:179,1,79.2000019335938,2|0,3:2|3:2,0:0:0:0:
490,238,31052,2,0,P|500:271|486:320,1,79.2000019335938,2|0,0:0|0:0,0:0:0:0:
432,363,31611,2,0,L|392:357,1,39.6000009667969,2|0,3:2|0:0,0:0:0:0:
317,346,31984,5,2,3:2:0:0:
412,271,32357,2,0,L|357:260,1,39.6000009667969,2|0,3:2|0:0,0:0:0:0:
315,220,32729,2,0,L|260:231,1,39.6000009667969,0|0,3:2|0:0,0:0:0:0:
227,283,33102,2,0,L|238:338,1,39.6000009667969,2|2,3:2|0:0,0:0:0:0:
185,378,33475,6,0,L|104:363,1,79.2000019335938,2|0,3:2|3:2,0:0:0:0:
53,314,34034,2,0,B|63:282|63:282|52:234,1,79.2000019335938,2|0,0:0|0:0,0:0:0:0:
4,181,34593,2,0,L|10:138,1,39.6000009667969,2|0,3:2|0:0,0:0:0:0:
58,82,34965,6,0,B|94:87|94:87|105:97|105:97|146:104,1,79.2000019335938,2|0,3:2|3:2,0:0:0:0:
202,138,35524,2,0,P|240:125|280:130,1,79.2000019335938,2|0,0:0|0:0,0:0:0:0:
335,179,36083,1,0,3:2:0:0:
410,94,36456,6,0,L|402:55,3,27.5,8|8|8|8,0:0|0:0|0:0|0:0,0:0:0:0:
374,49,36829,2,0,L|323:59,1,39.6000009667969,8|0,0:0|0:0,0:0:0:0:
300,72,37108,1,8,0:0:0:0:
300,72,37201,2,0,L|249:61,3,27.5,8|8|8|8,0:0|0:0|0:0|0:0,0:0:0:0:
249,47,37574,2,0,L|208:59,3,27.5,12|8|8|8,0:0|0:0|0:0|0:0,0:0:0:0:
202,78,37947,6,0,L|91:61,1,110,0|10,3:2|0:0,0:0:0:0:
16,51,38506,1,2,0:0:0:0:
16,51,38692,2,0,L|26:117,1,55,0|2,3:2|0:0,0:0:0:0:
68,168,39065,2,0,L|58:234,1,55,10|2,0:0|0:0,0:0:0:0:
17,283,39437,6,0,P|57:262|126:288,1,110,0|10,3:2|0:0,0:0:0:0:
169,329,39996,2,0,P|209:350|278:324,1,110
313,271,40555,2,0,L|307:214,1,55,10|0,0:0|0:0,0:0:0:0:
303,140,40928,6,0,P|359:134|412:156,1,110,2|10,3:2|0:0,0:0:0:0:
481,187,41487,1,2,0:0:0:0:
481,187,41673,2,0,P|500:144|480:86,1,110,0|10,3:2|0:0,0:0:0:0:
424,39,42232,1,2,0:0:0:0:
424,39,42419,6,0,L|363:49,1,55,0|0,3:2|0:0,0:0:0:0:
297,56,42791,1,10,0:0:0:0:
297,56,42978,2,0,B|252:45|252:45|239:20|239:20|185:12,1,110
123,13,43537,2,0,L|58:26,1,55,10|0,0:0|0:0,0:0:0:0:
8,75,43909,6,0,B|28:102|28:102|15:184,1,110,2|10,3:2|0:0,0:0:0:0:
0,255,44468,1,2,0:0:0:0:
0,255,44655,2,0,L|59:243,1,55,0|2,3:2|0:0,0:0:0:0:
117,207,45027,2,0,L|176:219,1,55,10|2,0:0|0:0,0:0:0:0:
230,266,45400,6,0,P|209:321|230:373,1,110,0|10,3:2|0:0,0:0:0:0:
300,344,45959,2,0,L|358:355,1,55,0|0,0:0|3:2,0:0:0:0:
431,365,46332,1,0,0:0:0:0:
413,289,46518,1,10,0:0:0:0:
512,362,46891,6,0,L|487:245,1,110,2|8,3:2|0:0,0:0:0:0:
433,202,47450,2,0,P|439:146|458:85,1,110,2|0,0:0|0:0,0:0:0:0:
480,23,48009,2,0,L|405:12,1,55,8|0,0:0|0:0,0:0:0:0:
348,7,48381,6,0,L|354:67,2,55,2|2|10,3:2|0:0|0:0,0:0:0:0:
276,38,48940,2,0,B|233:30|233:30|215:12|215:12|167:4,1,110,2|0,0:0|0:0,0:0:0:0:
102,0,49499,2,0,L|95:59,1,55,8|0,0:0|0:0,0:0:0:0:
93,136,49872,5,0,3:2:0:0:
93,136,49965,1,0,3:2:0:0:
93,136,50058,2,0,L|101:199,2,55,2|10|2,3:2|0:0|3:2,0:0:0:0:
18,164,50617,2,0,L|25:235,1,55,2|2,3:2|3:2,0:0:0:0:
70,275,50990,2,0,L|63:346,1,55,10|2,0:0|3:2,0:0:0:0:
15,383,51363,5,0,3:2:0:0:
139,328,51735,6,0,B|200:313|196:354|259:345,1,121.000003692627,4|8,3:2|0:0,0:0:0:0:
309,290,52294,1,2,3:2:0:0:
366,342,52481,1,2,3:2:0:0:
366,342,52667,6,0,P|331:287|354:224,1,121.000003692627,6|0,3:2|3:2,0:0:0:0:
391,174,53226,2,0,P|337:203|267:202,2,121.000003692627,2|10|2,3:2|0:0|3:2,0:0:0:0:
458,72,54344,5,0,3:2:0:0:
332,7,54717,6,0,B|285:17|285:17|266:42|266:42|213:53,1,121.000003692627,4|8,3:2|0:0,0:0:0:0:
158,18,55276,1,2,3:2:0:0:
110,80,55462,1,2,3:2:0:0:
110,80,55648,6,0,P|132:128|113:195,2,121.000003692627,2|2|2,3:2|0:0|3:2,0:0:0:0:
30,78,56580,2,0,P|8:126|27:193,1,121.000003692627,10|2,0:0|3:2,0:0:0:0:
75,293,57325,5,2,3:2:0:0:
187,229,57698,6,0,L|321:243,1,121.000003692627,4|8,3:2|0:0,0:0:0:0:
377,271,58257,1,2,3:2:0:0:
427,218,58443,1,2,3:2:0:0:
427,218,58630,6,0,L|416:340,1,121.000003692627,4|0,3:2|3:2,0:0:0:0:
349,380,59189,2,0,L|283:370,1,60.5000018463135,2|0,3:2|3:2,0:0:0:0:
231,321,59561,2,0,B|193:330|193:330|168:364|168:364|118:375,1,121.000003692627,10|2,0:0|3:2,0:0:0:0:
34,294,60307,6,0,L|42:213,1,76.9999976501465,2|0,3:2|3:2,0:0:0:0:
23,147,60866,1,2,0:0:0:0:
23,147,61052,2,0,L|76:134,1,38.4999988250733,8|0,0:0|0:0,0:0:0:0:
134,119,61425,1,2,3:2:0:0:
134,119,61611,6,0,B|164:125|164:125|178:140|178:140|208:147,1,76.9999976501465,2|0,3:2|0:0,0:0:0:0:
263,184,62170,2,0,P|254:148|266:105,2,76.9999976501465,2|10|0,3:2|0:0|3:2,0:0:0:0:
324,232,63102,1,0,0:0:0:0:
324,232,63288,6,0,L|379:223,2,49.4999984893799,2|0|10,3:2|3:2|0:0,0:0:0:0:
264,285,63847,2,0,L|209:276,2,49.4999984893799,2|0|0,0:0|3:2|0:0,0:0:0:0:
330,335,64406,2,0,L|321:390,2,49.4999984893799,10|0|0,0:0|0:0|3:2,0:0:0:0:
380,272,64965,2,0,L|371:217,2,49.4999984893799,2|8|0,0:0|0:0|0:0,0:0:0:0:
463,297,65524,2,0,L|445:193,1,98.9999969787598,2|10,3:2|0:0,0:0:0:0:
364,113,66270,6,0,L|370:46,1,60.5000018463135,10|0,0:0|3:2,0:0:0:0:
315,0,66642,1,0,3:2:0:0:
252,57,66829,6,0,L|180:47,1,60.5000018463135,10|0,0:0|3:2,0:0:0:0:
132,4,67201,1,0,3:2:0:0:
70,65,67388,5,10,0:0:0:0:
21,7,67574,1,10,0:0:0:0:
40,198,69065,1,0,3:2:0:0:
40,198,69158,1,0,3:2:0:0:
40,198,69251,6,0,B|87:193|87:193|124:221|124:221|176:215,1,131.99999597168,4|8,3:2|0:0,0:0:0:0:
219,147,69810,1,2,0:0:0:0:
219,147,69996,2,0,L|208:282,1,131.99999597168,0|8,3:2|0:0,0:0:0:0:
127,325,70555,1,2,0:0:0:0:
127,325,70742,6,0,B|200:302|192:344|258:335,1,131.99999597168,0|10,3:2|0:0,0:0:0:0:
335,288,71301,2,0,L|470:310,1,131.99999597168,2|0,0:0|0:0,0:0:0:0:
512,239,71860,2,0,L|500:165,1,65.9999979858399,8|0,0:0|0:0,0:0:0:0:
426,128,72232,6,0,B|438:85|438:85|420:-3,1,131.99999597168,0|8,3:2|0:0,0:0:0:0:
339,37,72791,1,2,0:0:0:0:
339,37,72978,2,0,B|278:24|281:76|209:58,1,131.99999597168,0|8,3:2|0:0,0:0:0:0:
133,10,73537,1,2,0:0:0:0:
133,10,73723,6,0,P|174:54|157:130,1,131.99999597168,0|10,3:2|0:0,0:0:0:0:
117,192,74282,2,0,P|83:165|-11:201,1,131.99999597168,2|0,0:0|0:0,0:0:0:0:
0,255,74841,2,0,L|14:326,1,65.9999979858399,8|0,0:0|0:0,0:0:0:0:
68,380,75214,6,0,L|133:361,1,65.9999979858399,0|2,3:2|0:0,0:0:0:0:
173,285,75586,1,10,0:0:0:0:
232,353,75773,1,2,0:0:0:0:
304,307,75959,2,0,L|368:323,2,65.9999979858399,0|2|10,3:2|0:0|0:0,0:0:0:0:
273,222,76518,1,2,0:0:0:0:
273,222,76704,6,0,L|406:251,1,131.99999597168,0|10,3:2|0:0,0:0:0:0:
471,313,77263,2,0,P|438:261|460:195,1,131.99999597168,2|2,0:0|0:0,0:0:0:0:
512,132,77822,1,8,0:0:0:0:
512,132,78009,1,2,0:0:0:0:
434,75,78195,6,0,L|356:86,1,65.9999979858399,2|0,3:2|0:0,0:0:0:0:
306,149,78568,2,0,L|228:138,1,65.9999979858399,10|0,0:0|0:0,0:0:0:0:
173,87,78940,2,0,L|165:156,1,65.9999979858399,2|0,3:2|0:0,0:0:0:0:
136,232,79313,2,0,L|144:301,1,65.9999979858399,10|0,0:0|0:0,0:0:0:0:
217,366,79686,6,0,P|166:340|83:379,1,131.99999597168,0|8,3:2|0:0,0:0:0:0:
7,334,80245,1,2,3:2:0:0:
7,334,80431,2,0,B|30:297|30:297|10:204,1,131.99999597168,2|2,3:2|3:2,0:0:0:0:
41,124,80990,1,2,3:2:0:0:
102,216,81176,6,0,L|237:186,1,131.99999597168,4|8,3:2|0:0,0:0:0:0:
281,116,81735,1,2,0:0:0:0:
281,116,81922,2,0,L|273:257,1,131.99999597168,0|8,3:2|0:0,0:0:0:0:
250,336,82481,1,2,0:0:0:0:
250,336,82667,6,0,B|312:311|316:365|387:343,1,131.99999597168,0|10,3:2|0:0,0:0:0:0:
446,289,83226,2,0,P|419:237|439:169,1,131.99999597168,2|0,0:0|0:0,0:0:0:0:
512,113,83785,1,8,0:0:0:0:
512,113,83971,1,2,0:0:0:0:
442,57,84158,6,0,L|292:75,1,131.99999597168,0|8,3:2|0:0,0:0:0:0:
246,16,84717,1,2,0:0:0:0:
246,16,84903,2,0,B|274:60|274:60|262:143,1,131.99999597168,0|8,3:2|0:0,0:0:0:0:
265,233,85462,1,2,0:0:0:0:
173,193,85648,6,0,B|142:200|142:200|79:194|79:194|37:214,1,131.99999597168,0|10,3:2|0:0,0:0:0:0:
0,285,86207,2,0,L|11:363,1,65.9999979858399,0|0,0:0|3:2,0:0:0:0:
90,315,86580,2,0,L|166:333,1,65.9999979858399,2|8,0:0|0:0,0:0:0:0:
237,374,86953,1,2,3:2:0:0:
237,374,87139,6,0,B|286:361|286:361|308:333|308:333|352:321,1,131.99999597168,2|8,3:2|0:0,0:0:0:0:
412,382,87698,2,0,L|384:252,1,131.99999597168
317,191,88257,2,0,L|324:122,1,65.9999979858399,10|0,0:0|0:0,0:0:0:0:
336,33,88630,6,0,L|265:24,1,65.9999979858399,2|0,3:2|0:0,0:0:0:0:
181,18,89002,2,0,P|155:52|171:136,2,131.99999597168,10|2|10,0:0|3:2|0:0,0:0:0:0:
181,18,90120,6,0,L|34:39,1,131.99999597168,0|8,3:2|0:0,0:0:0:0:
8,119,90679,2,0,P|49:166|35:235,1,131.99999597168,2|0,0:0|0:0,0:0:0:0:
0,310,91239,1,10,0:0:0:0:
0,310,91425,6,0,B|63:334|63:334|126:302,1,131.99999597168,2|2,0:0|3:2,0:0:0:0:
211,275,91984,2,0,L|203:341,1,65.9999979858399,10|2,0:0|3:2,0:0:0:0:
286,377,92357,2,0,L|294:311,1,65.9999979858399,2|2,3:2|3:2,0:0:0:0:
303,228,92729,2,0,L|295:162,1,65.9999979858399,10|2,0:0|3:2,0:0:0:0:
237,103,93102,6,0,P|288:119|343:94,1,110,2|10,3:2|0:0,0:0:0:0:
400,49,93661,2,0,P|451:33|506:58,1,110,2|2,0:0|0:0,0:0:0:0:
462,124,94220,2,0,L|471:185,1,55,8|2,0:0|0:0,0:0:0:0:
509,243,94593,6,0,L|498:365,1,110,2|8,3:2|0:0,0:0:0:0:
426,319,95152,2,0,L|316:337,1,110,2|0,0:0|0:0,0:0:0:0:
250,372,95711,2,0,L|182:360,1,55,10|0,0:0|0:0,0:0:0:0:
146,302,96083,6,0,L|155:247,2,55,2|2|10,3:2|0:0|0:0,0:0:0:0:
67,310,96642,2,0,L|87:199,1,110,2|2,0:0|0:0,0:0:0:0:
136,139,97201,2,0,L|125:79,1,55,8|2,0:0|0:0,0:0:0:0:
114,8,97574,6,0,L|177:15,2,55,2|2|8,3:2|0:0|3:2,0:0:0:0:
126,84,98133,2,0,L|243:97,1,110,2|2,0:0|0:0,0:0:0:0:
301,136,98692,6,0,L|418:123,1,110,10|2,0:0|3:2,0:0:0:0:
480,89,99251,2,0,L|490:155,1,55,2|10,0:0|0:0,0:0:0:0:
492,221,99624,2,0,P|439:208|387:229,1,110,2|2,0:0|0:0,0:0:0:0:
352,291,100183,1,8,0:0:0:0:
352,291,100369,6,0,B|308:287|308:287|287:304|287:304|239:300,1,110,2|2,0:0|0:0,0:0:0:0:
193,247,100928,1,8,0:0:0:0:
193,247,101114,2,0,L|81:267,1,110,2|0,0:0|0:0,0:0:0:0:
8,284,101673,2,0,L|-1:225,1,55,10|0,0:0|0:0,0:0:0:0:
44,167,102046,6,0,L|103:158,2,55,0|2|10,3:2|0:0|0:0,0:0:0:0:
56,89,102605,2,0,L|173:74,1,110,2|2,0:0|0:0,0:0:0:0:
229,30,103164,2,0,L|299:37,1,55,8|0,0:0|0:0,0:0:0:0:
350,76,103537,6,0,P|366:132|349:182,1,110,2|10,3:2|0:0,0:0:0:0:
299,233,104096,1,8,0:0:0:0:
299,233,104189,1,8,0:0:0:0:
299,233,104282,2,0,P|346:222|409:243,2,110,6|10|4,3:2|0:0|3:2,0:0:0:0:
246,333,105400,6,0,L|198:326,1,39.6000009667969,2|0,3:2|0:0,0:0:0:0:
144,285,105773,2,0,L|96:292,2,39.6000009667969,0|0|2,3:2|0:0|3:2,0:0:0:0:
203,236,106332,1,2,0:0:0:0:
203,236,106518,6,0,P|216:195|198:158,1,79.2000019335938,2|0,3:2|3:2,0:0:0:0:
141,119,107077,2,0,L|52:135,1,79.2000019335938,2|0,0:0|0:0,0:0:0:0:
14,192,107636,2,0,L|21:237,1,39.6000009667969,2|0,3:2|0:0,0:0:0:0:
33,308,108009,5,2,3:2:0:0:
142,238,108381,2,0,L|190:246,1,39.6000009667969,2|0,3:2|0:0,0:0:0:0:
256,257,108754,1,0,3:2:0:0:
256,257,108940,2,0,L|250:303,2,39.6000009667969,0|2|2,0:0|3:2|0:0,0:0:0:0:
301,192,109499,6,0,L|285:105,1,79.2000019335938,2|0,3:2|3:2,0:0:0:0:
275,38,110058,2,0,P|310:22|351:27,1,79.2000019335938,2|0,0:0|0:0,0:0:0:0:
398,84,110617,2,0,L|393:133,1,39.6000009667969,2|0,3:2|0:0,0:0:0:0:
385,197,110990,5,2,3:2:0:0:
492,114,111363,2,0,L|487:163,1,39.6000009667969,2|0,3:2|0:0,0:0:0:0:
462,223,111735,2,0,L|467:272,1,39.6000009667969,0|0,3:2|0:0,0:0:0:0:
500,332,112108,2,0,L|452:342,1,39.6000009667969,2|2,3:2|0:0,0:0:0:0:
392,375,112481,6,0,L|310:360,1,79.2000019335938,2|0,3:2|3:2,0:0:0:0:
257,308,113040,2,0,B|225:315|225:315|215:332|215:332|182:339,1,79.2000019335938,2|0,0:0|0:0,0:0:0:0:
113,348,113599,2,0,L|107:302,1,39.6000009667969,2|0,3:2|0:0,0:0:0:0:
64,243,113971,6,0,L|78:151,1,79.2000019335938,2|0,3:2|3:2,0:0:0:0:
131,109,114530,2,0,B|175:100|169:119|213:118,1,79.2000019335938,2|0,0:0|0:0,0:0:0:0:
239,46,115089,2,0,L|233:2,1,39.6000009667969,0|0,3:2|0:0,0:0:0:0:
318,0,115462,6,0,L|323:37,3,27.5,8|8|8|8,0:0|0:0|0:0|0:0,0:0:0:0:
346,49,115835,2,0,L|397:39,1,39.6000009667969,8|8,0:0|0:0,0:0:0:0:
419,33,116114,1,8,0:0:0:0:
419,33,116207,2,0,L|452:40,3,27.5,8|8|8|8,0:0|0:0|0:0|0:0,0:0:0:0:
471,60,116580,2,0,L|497:52,3,19.8000004833985,12|8|8|8,0:0|0:0|0:0|0:0,0:0:0:0:
506,79,116953,6,0,B|486:116|486:116|497:190,1,110,0|10,3:2|0:0,0:0:0:0:
510,265,117512,1,2,0:0:0:0:
510,265,117698,2,0,L|499:326,1,55,0|2,3:2|0:0,0:0:0:0:
439,366,118071,2,0,L|378:355,1,55,10|2,0:0|0:0,0:0:0:0:
335,294,118443,6,0,L|226:313,1,110,0|10,3:2|0:0,0:0:0:0:
149,320,119002,2,0,P|135:265|164:215,1,110
221,175,119561,2,0,L|281:192,1,55,10|0,0:0|0:0,0:0:0:0:
339,237,119934,6,0,B|321:200|321:200|338:128,1,110,2|10,3:2|0:0,0:0:0:0:
406,86,120493,1,2,0:0:0:0:
406,86,120679,2,0,L|397:27,1,55,0|2,3:2|0:0,0:0:0:0:
323,48,121052,2,0,L|257:35,1,55,10|2,0:0|0:0,0:0:0:0:
209,0,121425,6,0,B|168:11|168:11|154:34|154:34|97:51,1,110,0|10,3:2|0:0,0:0:0:0:
53,3,121984,2,0,L|80:119,1,110
137,167,122543,1,10,0:0:0:0:
137,167,122729,6,0,L|130:198,2,27.5,0|0|2,0:0|0:0|3:2,0:0:0:0:
220,283,123288,2,0,L|210:349,1,55,10|2,0:0|0:0,0:0:0:0:
273,384,123661,2,0,L|346:364,1,55,0|2,3:2|0:0,0:0:0:0:
376,314,124034,2,0,L|449:334,1,55,10|2,0:0|0:0,0:0:0:0:
489,376,124406,6,0,P|468:323|484:274,1,110,0|10,3:2|0:0,0:0:0:0:
512,206,124965,2,0,P|490:233|412:232,1,110
371,177,125524,2,0,L|381:119,1,55,10|0,0:0|0:0,0:0:0:0:
423,61,125897,6,0,B|390:87|390:87|316:76,1,110,2|8,3:2|0:0,0:0:0:0:
261,23,126456,2,0,P|214:29|178:101,1,110,2|0,0:0|0:0,0:0:0:0:
225,137,127015,2,0,L|215:198,1,55,8|0,0:0|0:0,0:0:0:0:
171,249,127388,6,0,L|181:310,2,55,2|2|10,3:2|0:0|0:0,0:0:0:0:
216,191,127947,2,0,B|276:176|269:216|326:206,1,110,2|0,0:0|0:0,0:0:0:0:
378,157,128506,2,0,P|381:128|371:103,1,55,8|0,0:0|0:0,0:0:0:0:
317,52,128878,5,0,3:2:0:0:
317,52,128971,1,0,3:2:0:0:
317,52,129065,2,0,L|261:44,2,55,2|10|2,3:2|0:0|3:2,0:0:0:0:
371,104,129624,2,0,L|427:96,1,55,2|2,3:2|3:2,0:0:0:0:
491,52,129996,2,0,L|500:113,1,55,10|2,0:0|3:2,0:0:0:0:
511,181,130369,5,0,3:2:0:0:
371,104,130742,6,0,B|361:157|361:157|373:180|373:180|362:239,1,131.99999597168,4|8,3:2|0:0,0:0:0:0:
308,286,131301,1,2,3:2:0:0:
249,242,131487,1,2,3:2:0:0:
249,242,131673,6,0,B|186:218|196:270|125:252,1,121.000003692627,6|0,3:2|3:2,0:0:0:0:
79,199,132232,2,0,B|94:150|94:150|78:100,2,98.9999969787599,2|10|2,3:2|0:0|3:2,0:0:0:0:
12,292,133350,5,0,3:2:0:0:
114,373,133723,6,0,L|234:338,1,121.000003692627,4|8,3:2|0:0,0:0:0:0:
291,290,134282,1,2,3:2:0:0:
347,351,134468,1,2,3:2:0:0:
347,351,134655,6,0,B|334:311|334:311|354:227,2,121.000003692627,2|2|2,3:2|0:0|3:2,0:0:0:0:
437,350,135586,2,0,B|450:310|450:310|430:226,1,121.000003692627,10|2,0:0|3:2,0:0:0:0:
385,108,136332,5,2,3:2:0:0:
269,202,136704,6,0,P|209:221|151:196,1,121.000003692627,4|8,3:2|0:0,0:0:0:0:
111,138,137263,1,2,3:2:0:0:
54,191,137450,1,2,3:2:0:0:
54,191,137636,6,0,B|79:229|79:229|65:308,1,121.000003692627,4|0,3:2|3:2,0:0:0:0:
52,376,138195,2,0,L|112:385,1,60.5000018463135,2|0,3:2|3:2,0:0:0:0:
184,349,138568,2,0,P|209:298|183:235,1,121.000003692627,10|2,0:0|3:2,0:0:0:0:
271,172,139313,6,0,P|308:186|348:175,1,76.9999976501466,2|0,3:2|3:2,0:0:0:0:
395,122,139872,1,2,0:0:0:0:
395,122,140058,2,0,L|381:39,1,76.9999976501466,8|2,0:0|3:2,0:0:0:0:
318,5,140617,6,0,B|284:12|284:12|274:23|274:23|247:29,1,76.9999976501466,2|0,3:2|0:0,0:0:0:0:
182,71,141176,2,0,P|158:59|106:50,2,76.9999976501466,2|10|0,3:2|0:0|3:2,0:0:0:0:
217,143,142108,1,0,0:0:0:0:
217,143,142294,6,0,L|208:197,2,49.4999984893799,2|0|10,3:2|3:2|0:0,0:0:0:0:
267,87,142853,2,0,L|258:33,2,49.4999984893799,2|0|0,3:2|3:2|3:2,0:0:0:0:
326,136,143412,2,0,L|379:125,2,49.4999984893799,10|0|0,0:0|3:2|3:2,0:0:0:0:
270,189,143971,2,0,L|217:178,2,49.4999984893799,2|8|0,3:2|0:0|3:2,0:0:0:0:
321,248,144530,2,0,L|304:358,1,98.9999969787599,2|10,3:2|0:0,0:0:0:0:
177,298,145276,6,0,L|116:310,1,49.4999984893799,10|0,0:0|3:2,0:0:0:0:
53,319,145648,1,0,3:2:0:0:
92,237,145835,6,0,L|81:180,1,49.4999984893799,10|0,0:0|3:2,0:0:0:0:
69,108,146207,1,0,3:2:0:0:
155,168,146394,5,10,0:0:0:0:
184,83,146580,1,10,0:0:0:0:
184,83,147884,1,0,3:2:0:0:
184,83,147978,1,0,3:2:0:0:
184,83,148071,1,0,3:2:0:0:
184,83,148164,1,0,3:2:0:0:
184,83,148257,6,0,B|236:74|236:74|272:93|272:93|310:87,1,131.99999597168,4|8,3:2|0:0,0:0:0:0:
370,22,148816,1,2,0:0:0:0:
370,22,149002,2,0,P|347:75|371:154,1,131.99999597168,0|8,3:2|0:0,0:0:0:0:
441,195,149561,1,2,0:0:0:0:
441,195,149748,6,0,B|379:169|371:219|313:203,1,131.99999597168,0|10,3:2|0:0,0:0:0:0:
238,148,150307,2,0,L|93:171,1,131.99999597168,2|0,0:0|0:0,0:0:0:0:
18,188,150866,2,0,L|26:259,1,65.9999979858399,8|0,0:0|0:0,0:0:0:0:
39,345,151239,6,0,B|104:318|104:318|164:333,1,131.99999597168,0|8,3:2|0:0,0:0:0:0:
250,383,151798,1,2,0:0:0:0:
250,383,151984,2,0,L|392:354,1,131.99999597168,0|8,3:2|0:0,0:0:0:0:
337,281,152543,1,2,0:0:0:0:
337,281,152729,6,0,P|304:219|320:159,1,131.99999597168,0|10,3:2|0:0,0:0:0:0:
383,98,153288,2,0,P|350:124|260:110,1,131.99999597168,2|0,0:0|0:0,0:0:0:0:
236,31,153847,2,0,L|304:18,1,65.9999979858399,8|0,0:0|0:0,0:0:0:0:
394,0,154220,6,0,L|462:13,1,65.9999979858399,0|2,3:2|0:0,0:0:0:0:
512,82,154593,1,10,0:0:0:0:
469,159,154779,1,2,0:0:0:0:
469,159,154965,2,0,L|479:238,2,65.9999979858399,0|2|10,3:2|0:0|0:0,0:0:0:0:
400,99,155524,1,2,0:0:0:0:
400,99,155711,6,0,B|329:82|339:131|265:113,1,131.99999597168,0|10,3:2|0:0,0:0:0:0:
213,44,156270,2,0,B|236:83|236:83|218:182,1,131.99999597168,2|2,0:0|0:0,0:0:0:0:
180,253,156829,1,8,0:0:0:0:
103,212,157015,1,2,0:0:0:0:
44,279,157201,6,0,L|55:357,1,65.9999979858399,2|0,3:2|0:0,0:0:0:0:
132,376,157574,2,0,L|210:365,1,65.9999979858399,10|0,0:0|0:0,0:0:0:0:
262,310,157947,2,0,L|340:321,1,65.9999979858399,2|0,3:2|0:0,0:0:0:0:
397,369,158319,2,0,L|408:291,1,65.9999979858399,10|0,0:0|0:0,0:0:0:0:
438,222,158692,6,0,B|427:171|427:171|401:148|401:148|393:98,1,131.99999597168,0|8,3:2|0:0,0:0:0:0:
450,35,159251,1,2,3:2:0:0:
450,35,159437,2,0,P|419:64|322:49,1,131.99999597168,2|2,3:2|3:2,0:0:0:0:
258,11,159996,1,2,3:2:0:0:
192,82,160183,6,0,L|33:57,1,131.99999597168,4|8,3:2|0:0,0:0:0:0:
1,131,160742,1,2,0:0:0:0:
1,131,160928,2,0,B|22:168|22:168|7:262,1,131.99999597168,0|8,3:2|0:0,0:0:0:0:
1,342,161487,1,2,0:0:0:0:
1,342,161673,6,0,P|57:322|124:357,1,131.99999597168,0|10,3:2|0:0,0:0:0:0:
207,370,162232,2,0,B|188:329|188:329|208:241,1,131.99999597168,2|0,0:0|0:0,0:0:0:0:
257,169,162791,1,8,0:0:0:0:
257,169,162978,1,2,0:0:0:0:
314,250,163164,6,0,L|446:224,1,131.99999597168,0|8,3:2|0:0,0:0:0:0:
502,157,163723,1,2,0:0:0:0:
502,157,163909,2,0,P|513:101|480:32,1,131.99999597168,0|8,3:2|0:0,0:0:0:0:
415,93,164468,1,2,0:0:0:0:
376,2,164655,6,0,B|335:22|335:22|292:1|292:1|247:16,1,131.99999597168,0|10,3:2|0:0,0:0:0:0:
236,99,165214,2,0,L|256:166,1,65.9999979858399,0|0,0:0|3:2,0:0:0:0:
163,156,165586,2,0,L|145:225,1,65.9999979858399,2|8,0:0|0:0,0:0:0:0:
66,258,165959,1,2,3:2:0:0:
66,258,166145,6,0,B|130:234|135:283|200:268,1,131.99999597168,2|8,3:2|0:0,0:0:0:0:
281,231,166704,2,0,L|269:368,1,131.99999597168
353,340,167263,2,0,L|426:350,1,65.9999979858399,10|0,0:0|0:0,0:0:0:0:
497,311,167636,6,0,L|507:238,1,65.9999979858399,2|0,3:2|0:0,0:0:0:0:
488,163,168009,2,0,P|428:137|360:164,2,131.99999597168,10|2|10,0:0|3:2|0:0,0:0:0:0:
488,163,169127,6,0,B|466:127|466:127|485:40,1,131.99999597168,0|8,3:2|0:0,0:0:0:0:
417,0,169686,2,0,P|372:25|276:19,1,131.99999597168,2|0,0:0|0:0,0:0:0:0:
224,0,170245,1,10,0:0:0:0:
224,0,170431,6,0,L|212:142,1,131.99999597168,2|2,0:0|3:2,0:0:0:0:
132,155,170990,2,0,L|140:75,1,65.9999979858399,10|2,0:0|3:2,0:0:0:0:
104,19,171363,2,0,L|38:12,1,65.9999979858399,2|2,3:2|3:2,0:0:0:0:
7,82,171735,2,0,L|0:147,1,65.9999979858399,10|2,0:0|3:2,0:0:0:0:
0,225,172108,6,0,P|51:248|117:228,1,121.000003692627,2|10,3:2|0:0,0:0:0:0:
132,155,172667,2,0,P|183:132|249:152,1,121.000003692627,2|2,0:0|0:0,0:0:0:0:
299,215,173226,1,8,0:0:0:0:
299,215,173412,6,0,B|278:251|278:251|293:333,1,121.000003692627,2|0,0:0|0:0,0:0:0:0:
364,295,173971,2,0,L|443:312,1,60.5000018463135,10|0,0:0|0:0,0:0:0:0:
506,325,174344,1,0,3:2:0:0:
506,325,174530,2,0,L|486:205,1,121.000003692627,2|2,0:0|0:0,0:0:0:0:
435,143,175089,6,0,B|403:135|403:135|371:149,1,60.5000018463135,2|2,3:2|0:0,0:0:0:0:
325,200,175462,2,0,B|299:211|299:211|267:203,1,60.5000018463135,10|0,0:0|0:0,0:0:0:0:
211,155,175835,2,0,P|231:100|204:45,1,121.000003692627,2|8,3:2|0:0,0:0:0:0:
136,16,176394,1,0,0:0:0:0:
136,16,176580,6,0,B|103:51|103:51|124:139,1,121.000003692627,2|8,3:2|0:0,0:0:0:0:
148,195,177139,2,0,L|128:320,1,121.000003692627,2|0,0:0|0:0,0:0:0:0:
70,360,177698,2,0,L|152:341,1,60.5000018463135,10|0,0:0|0:0,0:0:0:0:
207,299,178071,6,0,B|255:307|255:307|275:330|275:330|321:340,1,121.000003692627,2|10,3:2|0:0,0:0:0:0:
397,354,178630,1,2,0:0:0:0:
397,354,178816,2,0,P|420:302|403:243,1,121.000003692627,2|8,3:2|0:0,0:0:0:0:
332,209,179375,6,0,P|396:205|410:153,1,121.000003692627,2|0,0:0|0:0,0:0:0:0:
353,102,179934,1,10,0:0:0:0:
353,102,180120,2,0,L|286:118,1,60.5000018463135,0|0,0:0|3:2,0:0:0:0:
223,139,180493,1,2,0:0:0:0:
223,139,180586,1,2,0:0:0:0:
223,139,180679,2,0,L|235:208,1,60.5000018463135,10|2,0:0|0:0,0:0:0:0:
243,280,181052,6,0,B|185:266|185:266|123:295,1,121.000003692627,2|10,3:2|0:0,0:0:0:0:
82,350,181611,1,0,0:0:0:0:
82,350,181798,2,0,P|97:291|76:235,1,121.000003692627,2|8,3:2|0:0,0:0:0:0:
19,186,182357,2,0,L|32:123,1,60.5000018463135,2|0,0:0|3:2,0:0:0:0:
0,59,182729,6,0,B|27:63|46:83|46:83|65:70|75:53|75:53|89:62|110:63|110:63|131:48|180:45,1,181.500005538941,2|2,0:0|3:2,0:0:0:0:
230,2,183475,1,2,0:0:0:0:
298,60,183661,1,10,0:0:0:0:
253,134,183847,1,0,3:2:0:0:
253,134,183940,1,0,3:2:0:0:
253,134,184034,6,0,L|266:203,2,60.5000018463135,4|2|10,0:0|0:0|0:0,0:0:0:0:
302,64,184593,1,0,0:0:0:0:
302,64,184779,2,0,L|368:74,2,60.5000018463135,2|2|8,3:2|0:0|0:0,0:0:0:0:
329,143,185338,6,0,L|454:164,1,121.000003692627,2|0,0:0|0:0,0:0:0:0:
498,224,185897,2,0,P|508:288|474:345,1,121.000003692627,10|2,0:0|3:2,0:0:0:0:
411,302,186456,2,0,L|346:320,1,60.5000018463135,2|10,0:0|0:0,0:0:0:0:
269,341,186829,1,0,0:0:0:0:
269,341,187015,6,0,L|255:276,1,60.5000018463135,2|0,3:2|0:0,0:0:0:0:
241,204,187388,1,10,0:0:0:0:
241,204,187481,1,2,0:0:0:0:
241,204,187574,1,2,0:0:0:0:
166,245,187760,2,0,L|135:239,3,30.2500009231568,2|2|2|2,3:2|0:0|0:0|0:0,0:0:0:0:
99,234,188133,1,10,0:0:0:0:
57,165,188319,1,2,3:2:0:0:
57,165,188412,1,0,3:2:0:0:
57,165,188506,6,0,L|63:131,3,30.2500009231568,2|2|2|2,3:2|0:0|0:0|0:0,0:0:0:0:
89,104,188878,2,0,L|83:70,3,30.2500009231568,10|2|2|2,0:0|0:0|0:0|0:0,0:0:0:0:
96,47,189251,2,0,B|111:29|139:24|139:24|154:37|174:47|174:47|193:26|226:21|226:21|238:32|263:35,1,181.500005538941,2|0,3:2|0:0,0:0:0:0:
344,5,189996,6,0,L|491:31,1,142.99999345398,10|2,0:0|3:2,0:0:0:0:
403,105,190555,2,0,L|517:201,1,142.99999345398,10|2,0:0|0:0,0:0:0:0:
395,218,191114,1,8,0:0:0:0:
428,307,191301,1,10,0:0:0:0:
120,114,192978,5,8,3:2:0:0:
33,320,195586,6,0,P|55:326|83:347,1,57.7499982376099,2|0,0:0|0:0,0:0:0:0:
95,373,195959,6,0,B|90:348|76:328|76:328|115:286|116:239|116:239|83:227|60:237|60:237|36:218|23:181,1,263.99999194336,2|8,3:2|0:0,0:0:0:0:
76,114,197636,1,8,0:0:0:0:
391,32,198940,6,0,B|386:78|368:96|368:96|429:138|445:183|445:183|422:202|402:263,1,263.99999194336,2|10,3:2|0:0,0:0:0:0:
454,317,200617,1,0,3:2:0:0:
454,317,200804,1,0,3:2:0:0:
391,365,200990,2,0,L|342:354,2,44,10|0|0,0:0|3:2|3:2,0:0:0:0:
454,317,201549,1,10,0:0:0:0:
399,240,201735,1,8,0:0:0:0:
399,240,201829,1,8,0:0:0:0:
399,240,201922,6,0,L|326:254,1,65.9999979858399,0|2,3:2|0:0,0:0:0:0:
256,315,202294,1,10,0:0:0:0:
210,230,202481,1,2,0:0:0:0:
210,230,202667,2,0,L|222:162,2,65.9999979858399,0|2|10,3:2|0:0|0:0,0:0:0:0:
134,300,203226,1,2,0:0:0:0:
134,300,203412,6,0,B|99:265|99:265|119:171,1,131.99999597168,0|10,3:2|0:0,0:0:0:0:
167,111,203971,2,0,P|135:142|39:137,1,131.99999597168,2|2,0:0|0:0,0:0:0:0:
0,61,204530,1,8,0:0:0:0:
0,61,204717,1,2,0:0:0:0:
80,1,204903,6,0,L|153:12,1,65.9999979858399,2|0,3:2|0:0,0:0:0:0:
225,58,205276,2,0,L|298:47,1,65.9999979858399,10|0,0:0|0:0,0:0:0:0:
371,0,205648,2,0,L|381:68,1,65.9999979858399,2|0,3:2|0:0,0:0:0:0:
422,155,206021,2,0,L|412:223,1,65.9999979858399,10|0,0:0|0:0,0:0:0:0:
312,253,206394,6,0,P|256:265|193:221,1,131.99999597168,0|8,3:2|0:0,0:0:0:0:
248,149,206953,1,2,3:2:0:0:
248,149,207046,1,0,3:2:0:0:
248,149,207139,2,0,P|209:183|123:176,1,131.99999597168,2|2,3:2|3:2,0:0:0:0:
71,109,207698,1,2,3:2:0:0:
71,109,207791,1,0,3:2:0:0:
71,109,207884,6,0,B|95:150|95:150|79:250,1,131.99999597168,4|8,3:2|0:0,0:0:0:0:
16,309,208443,1,2,0:0:0:0:
16,309,208630,2,0,P|83:273|148:299,1,131.99999597168,0|8,3:2|0:0,0:0:0:0:
208,359,209189,1,2,0:0:0:0:
208,359,209375,6,0,B|258:345|258:345|275:312|275:312|336:295,1,131.99999597168,0|10,3:2|0:0,0:0:0:0:
376,223,209934,2,0,B|357:261|357:261|377:355,1,131.99999597168,2|0,0:0|0:0,0:0:0:0:
462,384,210493,1,8,0:0:0:0:
512,307,210679,1,2,0:0:0:0:
455,233,210866,6,0,B|446:185|446:185|456:154|456:154|446:103,1,131.99999597168,0|8,3:2|0:0,0:0:0:0:
466,13,211425,1,2,0:0:0:0:
466,13,211611,2,0,B|391:1|408:47|334:42,1,131.99999597168,0|8,3:2|0:0,0:0:0:0:
246,7,212170,1,2,0:0:0:0:
169,92,212357,6,0,B|186:138|186:138|211:160|211:160|197:220,1,131.99999597168,0|10,3:2|0:0,0:0:0:0:
142,284,212916,2,0,L|161:356,1,65.9999979858399,0|0,0:0|3:2,0:0:0:0:
247,298,213288,2,0,L|312:328,1,65.9999979858399,2|8,0:0|0:0,0:0:0:0:
393,384,213661,1,2,3:2:0:0:
393,384,213847,6,0,P|377:337|414:269,1,131.99999597168,2|8,3:2|0:0,0:0:0:0:
471,187,214406,2,0,P|487:140|450:72,1,131.99999597168
350,65,214965,2,0,L|284:91,1,65.9999979858399,8|0,0:0|0:0,0:0:0:0:
219,162,215338,6,0,L|153:136,1,65.9999979858399,2|0,3:2|0:0,0:0:0:0:
90,61,215711,2,0,P|116:116|85:184,2,131.99999597168,8|0|10,0:0|3:2|0:0,0:0:0:0:
90,61,216829,6,0,P|132:81|224:42,1,131.99999597168,0|8,3:2|0:0,0:0:0:0:
290,0,217388,2,0,L|433:16,1,131.99999597168
477,78,217947,6,0,B|457:117|457:117|478:219,1,131.99999597168,8|0,0:0|3:2,0:0:0:0:
512,288,218506,1,2,3:2:0:0:
512,288,218692,2,0,L|433:307,1,65.9999979858399,10|2,3:2|3:2,0:0:0:0:
370,347,219065,2,0,L|291:328,1,65.9999979858399,2|2,3:2|3:2,0:0:0:0:
247,250,219437,2,0,L|266:171,1,65.9999979858399,10|2,0:0|3:2,0:0:0:0:
324,98,219810,6,0,P|271:140|205:118,1,131.99999597168,4|8,3:2|0:0,0:0:0:0:
140,70,220369,1,2,0:0:0:0:
140,70,220555,2,0,L|-7:101,1,131.99999597168,0|8,3:2|0:0,0:0:0:0:
72,185,221114,1,2,0:0:0:0:
72,185,221301,6,0,B|47:232|47:232|72:321,1,131.99999597168,0|10,3:2|0:0,0:0:0:0:
154,355,221860,2,0,L|283:308,1,131.99999597168,2|0,0:0|0:0,0:0:0:0:
346,247,222419,2,0,L|418:267,1,65.9999979858399,8|2,0:0|0:0,0:0:0:0:
488,333,222791,6,0,L|470:189,1,131.99999597168,4|8,3:2|0:0,0:0:0:0:
416,123,223350,1,2,0:0:0:0:
416,123,223537,2,0,B|368:130|368:130|342:161|342:161|293:168,1,131.99999597168,0|8,3:2|0:0,0:0:0:0:
230,231,224096,1,2,0:0:0:0:
230,231,224282,6,0,P|201:190|225:108,1,131.99999597168,0|10,3:2|0:0,0:0:0:0:
294,42,224841,2,0,B|359:28|362:72|432:63,1,131.99999597168,2|0,0:0|0:0,0:0:0:0:
512,18,225400,2,0,L|504:105,1,65.9999979858399,8|2,0:0|0:0,0:0:0:0:
438,160,225773,6,0,L|459:299,1,131.99999597168,2|8,3:2|0:0,0:0:0:0:
511,374,226332,2,0,L|434:363,1,65.9999979858399,0|0,0:0|3:2,0:0:0:0:
355,322,226704,1,0,0:0:0:0:
355,322,226891,2,0,L|284:333,1,65.9999979858399,10|2,0:0|0:0,0:0:0:0:
193,291,227263,6,0,P|179:227|214:170,1,131.99999597168,0|8,3:2|0:0,0:0:0:0:
306,174,227822,2,0,L|291:104,1,65.9999979858399,0|0,0:0|3:2,0:0:0:0:
237,37,228195,1,0,0:0:0:0:
237,37,228381,2,0,L|167:52,1,65.9999979858399,10|2,0:0|0:0,0:0:0:0:
80,101,228754,6,0,B|104:137|104:137|89:224,1,131.99999597168,0|8,3:2|0:0,0:0:0:0:
28,299,229313,1,0,3:2:0:0:
28,299,229499,2,0,L|42:381,1,65.9999979858399,0|0,3:2|0:0,0:0:0:0:
125,325,229872,2,0,L|191:344,1,65.9999979858399,8|0,0:0|0:0,0:0:0:0:
277,364,230245,6,0,P|309:314|294:230,1,131.99999597168,0|8,3:2|0:0,0:0:0:0:
228,199,230804,2,0,P|277:217|349:181,1,131.99999597168,2|2,0:0|0:0,0:0:0:0:
368,99,231363,1,10,0:0:0:0:
441,175,231549,1,10,0:0:0:0:
441,175,231642,1,8,0:0:0:0:
441,175,231735,6,0,B|415:141|415:141|429:51,1,131.99999597168,4|8,3:2|0:0,0:0:0:0:
349,0,232294,1,2,0:0:0:0:
349,0,232481,2,0,L|204:27,1,131.99999597168,0|8,3:2|0:0,0:0:0:0:
134,69,233040,1,2,0:0:0:0:
134,69,233226,6,0,B|82:60|82:60|50:74|50:74|-8:64,1,131.99999597168,0|10,3:2|0:0,0:0:0:0:
60,152,233785,2,0,L|35:284,1,131.99999597168,2|0,0:0|0:0,0:0:0:0:
5,377,234344,1,8,0:0:0:0:
92,342,234530,1,2,0:0:0:0:
192,375,234717,6,0,L|337:322,1,131.99999597168,0|8,3:2|0:0,0:0:0:0:
379,254,235276,1,2,0:0:0:0:
379,254,235462,2,0,L|520:291,1,131.99999597168,0|8,3:2|0:0,0:0:0:0:
500,195,236021,1,2,0:0:0:0:
417,128,236207,6,0,B|369:140|369:140|341:163|341:163|284:153,1,131.99999597168,0|10,3:2|0:0,0:0:0:0:
251,68,236766,2,0,L|266:-1,1,65.9999979858399,0|0,0:0|3:2,0:0:0:0:
165,104,237139,2,0,L|150:35,1,65.9999979858399,2|8,0:0|0:0,0:0:0:0:
90,151,237512,1,2,3:2:0:0:
90,151,237698,6,0,P|66:207|91:276,1,131.99999597168,2|8,3:2|0:0,0:0:0:0:
172,325,238257,2,0,B|223:312|223:312|243:285|243:285|299:272,1,131.99999597168
351,216,238816,2,0,L|425:232,1,65.9999979858399,10|0,0:0|0:0,0:0:0:0:
499,255,239189,6,0,L|515:181,1,65.9999979858399,2|0,3:2|0:0,0:0:0:0:
457,113,239561,2,0,P|408:98|341:148,2,131.99999597168,10|2|10,0:0|3:2|0:0,0:0:0:0:
457,113,240679,6,0,L|314:91,1,131.99999597168,0|8,3:2|0:0,0:0:0:0:
256,30,241239,2,0,L|113:52,1,131.99999597168,2|0,0:0|0:0,0:0:0:0:
41,73,241798,1,10,0:0:0:0:
41,73,241984,6,0,B|62:111|62:111|44:214,1,131.99999597168,2|2,0:0|3:2,0:0:0:0:
0,271,242543,2,0,L|12:345,1,65.9999979858399,10|2,0:0|3:2,0:0:0:0:
105,373,242916,2,0,L|170:356,1,65.9999979858399,2|2,3:2|3:2,0:0:0:0:
234,286,243288,2,0,L|299:303,1,65.9999979858399,10|2,0:0|3:2,0:0:0:0:
373,323,243661,5,2,3:2:0:0:
