osu file format v14

[General]
AudioFilename: audio.mp3
AudioLeadIn: 0
PreviewTime: 26207
Countdown: 0
SampleSet: Soft
StackLeniency: 0.6
Mode: 0
LetterboxInBreaks: 0
WidescreenStoryboard: 0

[Editor]
Bookmarks: 14096,26021,37947,51363,69251,93102,105027,116953,130369,146766,172108,191487,201922,231735,243661
DistanceSpacing: 0.7
BeatDivisor: 4
GridSize: 32
TimelineZoom: 2.1

[Metadata]
Title:Kimi to Ita Sora
TitleUnicode:君といた空
Artist:Ray
ArtistUnicode:Ray
Creator:cocona
Version:Beyond The Light We See Above
Source:蒼の彼方のフォーリズム
Tags:Ao no Kanata no Four Rhythm Across the Blue Aokana eroge visual novel vn japanese video game anime ed ending tycani
BeatmapID:2680253
BeatmapSetID:1291251

[Difficulty]
HPDrainRate:5
CircleSize:4
OverallDifficulty:8.5
ApproachRate:9
SliderMultiplier:1.6
SliderTickRate:1

[Events]
//Background and Video events
0,0,"PopOGPOPGopOGPOPGOPG.jpg",0,0
//Break Periods
//Storyboard Layer 0 (Background)
//Storyboard Layer 1 (Fail)
//Storyboard Layer 2 (Pass)
//Storyboard Layer 3 (Foreground)
//Storyboard Layer 4 (Overlay)
//Storyboard Sound Samples

[TimingPoints]
680,372.670807453416,4,2,1,20,1,0
680,-285.714285714286,4,2,1,20,0,0
13723,-125,4,2,1,20,0,0
13909,-125,4,2,1,30,0,0
14096,-125,4,2,1,40,0,0
20058,-138.888888888889,4,2,1,50,0,0
20431,-105.263157894737,4,2,1,50,0,0
20711,-105.263157894737,4,2,1,5,0,0
20804,-138.888888888889,4,2,1,50,0,0
21176,-105.263157894737,4,2,1,50,0,0
21456,-105.263157894737,4,2,1,5,0,0
21549,-138.888888888889,4,2,1,50,0,0
21922,-105.263157894737,4,2,1,50,0,0
22201,-105.263157894737,4,2,1,5,0,0
22294,-105.263157894737,4,2,1,50,0,0
26394,-138.888888888889,4,2,1,45,0,0
36642,-138.888888888889,4,2,1,5,0,0
36735,-138.888888888889,4,2,1,45,0,0
37015,-138.888888888889,4,2,1,5,0,0
37108,-138.888888888889,4,2,1,45,0,0
37947,-100,4,2,1,50,0,0
38226,-100,4,2,1,5,0,0
38319,-100,4,2,1,50,0,0
40835,-100,4,2,1,5,0,0
40928,-100,4,2,1,50,0,0
46798,-100,4,2,1,5,0,0
46891,-100,4,2,1,50,0,0
49779,-100,4,2,1,5,0,0
49872,-100,4,2,1,50,0,0
51735,-83.3333333333333,4,2,1,60,0,0
52108,-90.9090909090909,4,2,1,60,0,0
53226,-111.111111111111,4,2,1,40,0,0
54717,-90.9090909090909,4,2,1,60,0,0
55928,-90.9090909090909,4,2,1,5,0,0
56021,-111.111111111111,4,2,1,40,0,0
57698,-90.9090909090909,4,2,1,60,0,0
60307,-142.857142857143,4,2,1,60,0,0
63288,-111.111111111111,4,2,1,65,0,0
66270,-90.909090909091,4,2,1,70,0,0
67388,-90.909090909091,4,2,1,75,0,0
67760,-90.909090909091,4,2,1,40,0,0
67947,-166.666666666667,4,2,1,40,0,0
69251,-83.3333333333333,4,2,1,80,0,1
77543,-83.3333333333333,4,2,1,5,0,1
77636,-83.3333333333333,4,2,1,80,0,1
80524,-83.3333333333333,4,2,1,5,0,1
80617,-83.3333333333333,4,2,1,80,0,1
93102,-100,4,2,1,75,0,0
100648,-100,4,2,1,5,0,0
100742,-100,4,2,1,75,0,0
105400,-138.888888888889,4,2,1,45,0,0
115648,-138.888888888889,4,2,1,5,0,0
115742,-138.888888888889,4,2,1,45,0,0
116114,-138.888888888889,4,2,1,5,0,0
116207,-138.888888888889,4,2,1,45,0,0
116487,-138.888888888889,4,2,1,5,0,0
116580,-138.888888888889,4,2,1,45,0,0
116953,-100,4,2,1,45,0,0
117232,-100,4,2,1,5,0,0
117325,-100,4,2,1,50,0,0
119841,-100,4,2,1,5,0,0
119934,-100,4,2,1,50,0,0
125804,-100,4,2,1,5,0,0
125897,-100,4,2,1,50,0,0
128785,-100,4,2,1,5,0,0
128878,-100,4,2,1,50,0,0
130742,-83.3333333333333,4,2,1,60,0,0
131114,-90.9090909090909,4,2,1,60,0,0
132232,-111.111111111111,4,2,1,60,0,0
133723,-90.9090909090909,4,2,1,60,0,0
134934,-90.9090909090909,4,2,1,5,0,0
135027,-111.111111111111,4,2,1,60,0,0
136704,-90.9090909090909,4,2,1,60,0,0
139313,-142.857142857143,4,2,1,60,0,0
142294,-111.111111111111,4,2,1,65,0,0
145276,-111.111111111111,4,2,1,70,0,0
146394,-111.111111111111,4,2,1,75,0,0
146766,-111.111111111111,4,2,1,40,0,0
146953,-166.666666666667,4,2,1,40,0,0
148257,-83.3333333333333,4,2,1,80,0,1
156549,-83.3333333333333,4,2,1,5,0,1
156642,-83.3333333333333,4,2,1,80,0,1
159530,-83.3333333333333,4,2,1,5,0,1
159624,-83.3333333333333,4,2,1,80,0,1
172108,-90.9090909090909,4,2,1,75,0,0
175742,-90.9090909090909,4,2,1,5,0,0
175835,-90.9090909090909,4,2,1,75,0,0
177978,-90.9090909090909,4,2,1,5,0,0
178071,-90.9090909090909,4,2,1,75,0,0
181704,-90.9090909090909,4,2,1,5,0,0
181798,-90.9090909090909,4,2,1,75,0,0
187294,-90.9090909090909,4,2,1,5,0,0
187388,-90.9090909090909,4,2,1,75,0,0
191487,-90.9090909090909,4,2,1,40,0,0
191673,-166.666666666667,4,2,1,40,0,0
192605,-125,4,2,1,40,0,0
192791,-125,4,2,1,50,0,0
192884,-125,4,2,1,70,0,0
192978,-125,4,2,1,80,0,0
193164,-142.857142857143,4,2,1,50,0,0
195027,-125,4,2,1,50,0,0
195214,-142.857142857143,4,2,1,50,0,0
195959,-166.666666666667,4,2,1,70,0,0
200431,-125,4,2,1,75,0,0
201922,-83.3333333333333,4,2,1,80,0,1
207232,-83.3333333333333,4,2,1,5,0,1
207325,-83.3333333333333,4,2,1,80,0,1
218319,-83.3333333333333,4,2,1,80,0,0
219810,-83.3333333333333,4,2,1,80,0,1
225773,-83.3333333333333,4,2,1,80,0,0
231735,-83.3333333333333,4,2,1,80,0,1
243661,-166.666666666667,4,2,1,80,0,0
243847,-166.666666666667,4,2,1,30,0,0
252698,-133.333333333333,4,2,1,30,0,0
255586,-133.333333333333,4,2,1,5,0,0

[Colours]
Combo1 : 169,132,189
Combo2 : 163,219,234

[HitObjects]
454,62,680,6,0,P|439:121|421:236,1,168,2|0,0:0|0:0,0:0:0:0:
168,308,2170,6,0,P|207:328|249:332,2,84,2|2|2,0:0|0:0|0:0,0:0:0:0:
0,350,3661,6,0,P|17:296|30:242,1,112,2|0,0:0|0:0,0:0:0:0:
51,71,4779,5,2,0:0:0:0:
65,46,5152,6,0,P|104:26|146:22,2,84,2|2|2,0:0|0:0|0:0,0:0:0:0:
251,136,6642,6,0,P|310:122|421:86,1,168,2|0,0:0|0:0,0:0:0:0:
512,348,8133,6,0,P|478:300|372:274,1,168,2|0,0:0|0:0,0:0:0:0:
118,317,9624,6,0,B|148:329|162:352|162:352|191:309|171:237,1,168,2|0,0:0|0:0,0:0:0:0:
333,16,11114,6,0,B|294:61|296:107|296:107|283:63|242:48|242:48|211:124|156:146|92:132,1,363.999988891602,2|0,0:0|0:0,0:0:0:0:
26,97,13723,2,0,L|1:85,8,16,0|0|0|0|0|0|0|0|4,3:2|3:2|3:2|3:2|3:2|3:2|3:2|3:2|3:2,0:0:0:0:
35,265,14468,5,2,0:0:0:0:
100,327,15214,5,2,0:0:0:0:
297,209,15586,1,2,3:2:0:0:
370,299,15959,5,2,0:0:0:0:
441,246,16704,5,2,0:0:0:0:
369,27,17077,1,2,3:2:0:0:
267,86,17450,5,2,0:0:0:0:
189,32,18195,5,2,0:0:0:0:
138,242,18568,1,2,3:2:0:0:
168,347,18940,5,2,0:0:0:0:
73,304,19686,5,2,0:0:0:0:
288,338,20058,6,0,L|359:335,1,57.60000140625,0|0,3:2|0:0,0:0:0:0:
473,304,20431,2,0,B|431:307|431:307|418:315|418:315|360:319,1,113.999996955872,10|0,0:0|0:0,0:0:0:0:
250,259,20804,6,0,L|321:256,1,57.60000140625,0|0,3:2|0:0,0:0:0:0:
435,225,21177,2,0,B|393:228|393:228|380:236|380:236|322:240,1,113.999996955872,10|0,0:0|0:0,0:0:0:0:
211,174,21549,6,0,L|282:171,1,57.60000140625,0|0,3:2|0:0,0:0:0:0:
396,140,21922,2,0,B|354:143|354:143|341:151|341:151|283:155,1,113.999996955872,10|0,0:0|0:0,0:0:0:0:
193,93,22294,6,0,P|169:46|170:14,1,75.9999979705811,0|0,3:2|0:0,0:0:0:0:
267,0,22667,1,8,0:0:0:0:
267,0,22853,1,0,0:0:0:0:
98,0,23040,5,0,3:2:0:0:
70,26,23133,1,0,3:2:0:0:
60,63,23226,1,0,3:2:0:0:
71,99,23319,1,0,3:2:0:0:
102,120,23412,1,10,0:0:0:0:
113,157,23506,1,0,3:2:0:0:
108,195,23599,1,0,3:2:0:0:
85,226,23692,1,0,3:2:0:0:
49,241,23785,5,2,3:2:0:0:
14,223,23878,1,0,3:2:0:0:
8,184,23971,1,0,3:2:0:0:
34,155,24065,1,0,3:2:0:0:
55,186,24158,1,10,0:0:0:0:
84,211,24251,1,0,3:2:0:0:
121,218,24344,1,2,3:2:0:0:
157,206,24437,1,0,3:2:0:0:
184,196,24530,5,2,3:2:0:0:
215,195,24624,1,2,3:2:0:0:
243,205,24717,1,2,3:2:0:0:
257,230,24810,1,2,3:2:0:0:
258,260,24903,1,10,0:0:0:0:
250,293,24996,1,2,3:2:0:0:
264,327,25089,1,2,3:2:0:0:
294,355,25183,1,2,3:2:0:0:
343,352,25276,5,2,3:2:0:0:
378,323,25369,1,2,3:2:0:0:
394,280,25462,1,2,3:2:0:0:
376,237,25555,1,2,3:2:0:0:
336,214,25648,1,10,0:0:0:0:
287,223,25742,1,2,3:2:0:0:
237,203,25835,1,2,3:2:0:0:
206,154,25928,1,2,3:2:0:0:
224,100,26021,1,6,3:2:0:0:
501,375,26394,6,0,P|490:337|473:305,1,57.60000140625,2|0,3:2|0:0,0:0:0:0:
410,233,26766,2,0,P|375:213|347:203,1,57.60000140625,0|0,3:2|0:0,0:0:0:0:
265,227,27139,1,2,3:2:0:0:
265,227,27325,1,2,0:0:0:0:
134,364,27512,6,0,P|74:359|56:295,1,115.2000028125,2|0,3:2|3:2,0:0:0:0:
94,235,28071,2,0,P|96:178|74:117,1,115.2000028125,2|0,0:0|0:0,0:0:0:0:
15,23,28630,2,0,P|57:47|128:24,1,115.2000028125,2|2,3:2|3:2,0:0:0:0:
379,15,29375,6,0,P|357:48|351:89,1,57.60000140625,2|0,3:2|0:0,0:0:0:0:
352,177,29748,2,0,P|359:215|384:245,1,57.60000140625,0|0,3:2|0:0,0:0:0:0:
436,310,30120,1,2,3:2:0:0:
436,310,30307,1,2,0:0:0:0:
512,149,30493,6,0,P|475:119|401:107,1,115.2000028125,2|0,3:2|3:2,0:0:0:0:
311,176,31052,1,2,0:0:0:0:
311,176,31239,2,0,P|282:182|242:181,1,57.60000140625,0|0,3:2|0:0,0:0:0:0:
161,103,31611,2,0,B|95:121|138:149|44:172,1,115.2000028125,2|2,3:2|3:2,0:0:0:0:
46,361,32357,6,0,P|63:331|95:305,1,57.60000140625,2|0,3:2|0:0,0:0:0:0:
172,259,32729,2,0,P|205:249|241:251,1,57.60000140625,0|0,3:2|0:0,0:0:0:0:
321,315,33102,1,2,3:2:0:0:
321,315,33288,1,2,0:0:0:0:
488,137,33475,6,0,P|491:177|421:212,1,115.2000028125,2|0,3:2|3:2,0:0:0:0:
348,167,34034,2,0,P|369:127|375:56,1,115.2000028125,2|0,0:0|0:0,0:0:0:0:
284,5,34593,1,2,3:2:0:0:
39,7,34965,6,0,B|27:53|27:53|32:64|32:64|18:126,1,115.2000028125,2|0,3:2|3:2,0:0:0:0:
131,258,35524,2,0,P|96:211|35:221,1,115.2000028125,2|0,0:0|0:0,0:0:0:0:
23,336,36083,2,0,L|89:347,1,57.60000140625,0|0,3:2|0:0,0:0:0:0:
227,303,36456,5,8,0:0:0:0:
222,328,36549,1,8,0:0:0:0:
304,245,36735,5,8,0:0:0:0:
299,221,36829,1,8,0:0:0:0:
293,196,36922,1,8,0:0:0:0:
302,44,37108,5,8,0:0:0:0:
326,28,37201,1,8,0:0:0:0:
354,26,37294,1,8,0:0:0:0:
380,38,37388,1,8,0:0:0:0:
395,62,37481,1,8,0:0:0:0:
398,90,37574,1,12,0:0:0:0:
410,116,37667,1,8,0:0:0:0:
433,132,37760,1,8,0:0:0:0:
461,137,37853,1,8,0:0:0:0:
491,126,37947,2,0,B|480:80|462:66|462:66|451:100|429:130,1,120,0|0,3:2|0:0,0:0:0:0:
370,152,38319,5,10,0:0:0:0:
474,254,38506,1,2,0:0:0:0:
347,336,38692,1,0,3:2:0:0:
268,227,38878,1,2,0:0:0:0:
441,259,39065,1,10,0:0:0:0:
331,119,39251,1,2,0:0:0:0:
190,284,39437,6,0,P|133:274|101:254,1,80,0|0,3:2|0:0,0:0:0:0:
26,137,39810,1,10,0:0:0:0:
202,172,39996,2,0,P|218:135|213:95,1,80,0|0,0:0|3:2,0:0:0:0:
131,19,40369,1,0,0:0:0:0:
341,11,40555,2,0,L|329:160,1,120,10|0,0:0|0:0,0:0:0:0:
332,162,40928,2,0,P|364:192|399:186,1,80,2|0,3:2|0:0,0:0:0:0:
252,331,41301,5,10,0:0:0:0:
131,269,41487,1,2,0:0:0:0:
14,360,41673,2,0,B|-11:327|-11:327|-2:192,1,160,0|10,3:2|0:0,0:0:0:0:
44,114,42232,1,2,0:0:0:0:
240,21,42419,6,0,P|201:39|161:45,1,80,0|0,3:2|0:0,0:0:0:0:
73,2,42791,1,10,0:0:0:0:
155,172,42978,2,0,P|186:129|218:120,1,80,0|0,0:0|3:2,0:0:0:0:
309,163,43350,1,0,0:0:0:0:
145,298,43537,2,0,P|214:291|238:286,1,80,10|0,0:0|0:0,0:0:0:0:
247,282,43816,1,0,0:0:0:0:
268,272,43909,5,2,3:2:0:0:
366,333,44096,1,0,0:0:0:0:
475,198,44282,5,10,0:0:0:0:
291,127,44468,1,2,0:0:0:0:
408,265,44655,1,0,3:2:0:0:
268,129,44841,1,2,0:0:0:0:
476,111,45027,1,10,0:0:0:0:
304,216,45214,1,2,0:0:0:0:
356,12,45400,6,0,P|412:12|444:20,1,80,0|0,3:2|0:0,0:0:0:0:
489,118,45773,1,10,0:0:0:0:
326,114,45959,2,0,P|295:161|303:193,1,80,0|0,0:0|3:2,0:0:0:0:
386,292,46332,1,0,0:0:0:0:
246,273,46518,2,0,P|182:302|132:286,1,120,10|0,0:0|0:0,0:0:0:0:
106,259,46891,6,0,P|56:243|6:243,1,80,2|0,3:2|0:0,0:0:0:0:
184,203,47263,1,8,0:0:0:0:
33,33,47450,2,0,P|86:45|87:143,1,160,2|0,0:0|0:0,0:0:0:0:
191,14,48009,2,0,P|243:39|277:41,1,80,8|0,0:0|0:0,0:0:0:0:
493,19,48381,5,2,3:2:0:0:
339,0,48568,1,2,0:0:0:0:
488,121,48754,1,10,0:0:0:0:
313,183,48940,1,2,0:0:0:0:
402,61,49127,5,0,3:2:0:0:
402,61,49313,1,0,0:0:0:0:
482,211,49499,2,0,P|492:285|464:331,1,120,8|0,0:0|0:0,0:0:0:0:
439,340,49872,5,0,3:2:0:0:
403,341,49965,1,0,3:2:0:0:
371,324,50058,1,2,3:2:0:0:
349,295,50152,1,0,3:2:0:0:
342,259,50245,1,10,0:0:0:0:
334,223,50338,1,0,3:2:0:0:
312,194,50431,1,2,3:2:0:0:
280,177,50524,1,0,3:2:0:0:
244,180,50617,5,2,3:2:0:0:
216,203,50711,1,0,3:2:0:0:
208,238,50804,1,2,3:2:0:0:
185,265,50897,1,0,3:2:0:0:
149,270,50990,1,10,0:0:0:0:
121,247,51083,1,0,3:2:0:0:
117,211,51176,1,2,3:2:0:0:
133,178,51270,1,0,3:2:0:0:
138,142,51363,1,0,3:2:0:0:
0,349,51735,6,0,B|122:330|38:268|181:257,1,191.999994140625,4|8,3:2|0:0,0:0:0:0:
0,174,52294,1,2,3:2:0:0:
103,41,52481,1,2,3:2:0:0:
315,105,52667,2,0,P|223:112|200:184,1,176.000005371094,6|0,3:2|3:2,0:0:0:0:
359,350,53226,6,0,B|430:354|430:354|440:342|440:342|530:344,2,143.999995605469,2|10|2,3:2|0:0|3:2,0:0:0:0:
188,320,54344,1,0,3:2:0:0:
475,19,54717,6,0,B|444:-1|412:5|412:5|364:42|378:110,1,176.000005371094,4|8,3:2|0:0,0:0:0:0:
436,202,55276,1,2,3:2:0:0:
294,124,55462,1,2,3:2:0:0:
388,296,55648,2,0,B|305:325|336:267|235:309,1,132.00000402832,2|0,3:2|0:0,0:0:0:0:
230,321,56021,6,0,P|190:335|141:334,1,71.9999978027344,2|0,0:0|3:2,0:0:0:0:
42,275,56394,1,2,3:2:0:0:
139,71,56580,6,0,B|168:113|162:166|162:166|135:175|98:146,2,143.999995605469,10|2|2,0:0|3:2|3:2,0:0:0:0:
68,30,57512,1,0,0:0:0:0:
241,115,57698,6,0,L|424:116,1,176.000005371094,4|8,3:2|0:0,0:0:0:0:
508,28,58257,1,2,3:2:0:0:
411,205,58443,1,2,3:2:0:0:
276,41,58630,2,0,P|214:37|159:126,1,176.000005371094,4|0,3:2|3:2,0:0:0:0:
155,287,59189,5,2,3:2:0:0:
31,186,59375,1,0,3:2:0:0:
189,359,59561,1,10,0:0:0:0:
209,347,59934,1,2,3:2:0:0:
361,259,60307,6,0,B|422:260|422:260|475:294,2,111.999996582031,2|0|8,3:2|3:2|0:0,0:0:0:0:
460,91,61425,5,2,3:2:0:0:
405,6,61611,2,0,P|370:52|366:130,1,111.999996582031,2|0,3:2|0:0,0:0:0:0:
259,5,62170,6,0,P|214:5|179:9,1,55.9999982910157,2|0,3:2|0:0,0:0:0:0:
41,43,62543,2,0,P|109:67|142:113,1,111.999996582031,10|0,0:0|3:2,0:0:0:0:
132,203,63102,1,0,0:0:0:0:
13,308,63288,5,2,3:2:0:0:
142,235,63475,1,0,3:2:0:0:
134,380,63661,1,10,0:0:0:0:
267,229,63847,2,0,B|346:208|326:273|425:247,1,143.999995605469,2|0,0:0|0:0,0:0:0:0:
512,29,64406,2,0,P|485:80|467:99,1,71.9999978027344,10|0,0:0|0:0,0:0:0:0:
360,122,64779,5,0,3:2:0:0:
208,27,64965,1,2,0:0:0:0:
343,33,65152,1,8,0:0:0:0:
203,128,65338,1,0,0:0:0:0:
72,19,65524,6,0,P|22:31|-11:62,1,71.9999978027344,2|0,3:2|0:0,0:0:0:0:
91,151,65897,1,10,0:0:0:0:
91,151,66083,1,2,0:0:0:0:
173,323,66270,5,10,0:0:0:0:
349,227,66456,1,0,3:2:0:0:
204,193,66642,1,0,3:2:0:0:
366,341,66829,5,10,0:0:0:0:
183,219,67015,1,0,3:2:0:0:
339,172,67201,1,0,3:2:0:0:
271,0,67388,5,10,0:0:0:0:
383,257,67574,1,10,0:0:0:0:
483,15,67947,6,0,L|486:76,1,47.9999985351563,2|2,0:0|0:0,0:0:0:0:
409,131,68319,2,0,L|412:192,1,47.9999985351563,2|2,0:0|0:0,0:0:0:0:
480,280,68692,1,2,0:0:0:0:
377,365,68878,1,2,3:2:0:0:
349,357,68971,1,0,3:2:0:0:
325,337,69065,2,0,L|313:347,1,11.9999996337891,0|0,3:2|3:2,0:0:0:0:
308,313,69158,2,0,L|291:325,1,11.9999996337891,0|0,3:2|3:2,0:0:0:0:
298,277,69251,6,0,B|190:224|216:323|83:259,1,191.999994140625,4|8,3:2|0:0,0:0:0:0:
4,168,69810,1,2,0:0:0:0:
170,21,69996,2,0,P|213:77|153:179,1,191.999994140625,0|8,3:2|0:0,0:0:0:0:
76,30,70555,1,2,0:0:0:0:
249,106,70742,6,0,P|309:115|348:103,1,95.9999970703126,0|0,3:2|0:0,0:0:0:0:
423,11,71114,1,10,0:0:0:0:
508,244,71301,2,0,P|471:177|360:182,1,191.999994140625,2|0,0:0|0:0,0:0:0:0:
333,367,71860,1,8,0:0:0:0:
490,275,72046,1,0,0:0:0:0:
215,143,72232,6,0,B|278:164|278:164|296:228|231:289,1,191.999994140625,0|8,3:2|0:0,0:0:0:0:
124,343,72791,1,2,0:0:0:0:
0,123,72978,2,0,P|35:174|138:98,1,191.999994140625,0|8,3:2|0:0,0:0:0:0:
162,0,73537,1,2,0:0:0:0:
344,148,73723,6,0,P|301:180|252:161,1,95.9999970703126,0|0,3:2|0:0,0:0:0:0:
176,38,74096,1,10,0:0:0:0:
146,289,74282,2,0,P|228:263|338:249,1,191.999994140625,2|0,0:0|0:0,0:0:0:0:
494,371,74841,2,0,P|451:323|449:282,1,95.9999970703126,8|0,0:0|0:0,0:0:0:0:
489,120,75214,5,0,3:2:0:0:
310,49,75400,1,2,0:0:0:0:
415,203,75586,1,10,0:0:0:0:
381,22,75773,1,2,0:0:0:0:
188,89,75959,1,0,3:2:0:0:
390,62,76145,1,2,0:0:0:0:
263,172,76332,1,10,0:0:0:0:
134,29,76518,1,2,0:0:0:0:
134,29,76704,6,0,P|85:56|69:127,1,95.9999970703126,0|0,3:2|0:0,0:0:0:0:
137,201,77077,1,10,0:0:0:0:
9,336,77263,2,0,B|109:362|50:299|186:333,1,143.999995605469,2|0,0:0|0:0,0:0:0:0:
225,374,77636,1,2,0:0:0:0:
139,241,77822,1,8,0:0:0:0:
278,172,78009,1,2,0:0:0:0:
406,302,78195,6,0,P|425:234|467:113,2,191.999994140625,2|10|2,3:2|0:0|3:2,0:0:0:0:
509,232,79127,1,0,0:0:0:0:
392,88,79313,2,0,P|347:72|295:76,1,95.9999970703126,10|0,0:0|0:0,0:0:0:0:
168,199,79686,5,0,3:2:0:0:
234,23,79872,1,0,3:2:0:0:
69,107,80058,1,8,0:0:0:0:
201,216,80245,1,2,3:2:0:0:
208,248,80338,1,0,3:2:0:0:
214,280,80431,2,0,P|185:266|159:262,1,47.9999985351563,2|0,3:2|0:0,0:0:0:0:
41,272,80617,1,2,3:2:0:0:
18,303,80711,1,0,3:2:0:0:
24,340,80804,1,2,3:2:0:0:
54,363,80897,1,0,3:2:0:0:
92,359,80990,1,2,3:2:0:0:
114,328,81083,1,0,3:2:0:0:
120,291,81176,6,0,B|164:318|163:361|163:361|205:314|296:318,1,191.999994140625,4|8,3:2|0:0,0:0:0:0:
374,363,81735,1,2,0:0:0:0:
244,158,81922,2,0,B|366:181|293:111|435:133,1,191.999994140625,0|8,3:2|0:0,0:0:0:0:
491,230,82481,1,2,0:0:0:0:
326,26,82667,6,0,P|359:86|350:115,1,95.9999970703126,0|0,3:2|0:0,0:0:0:0:
250,203,83040,1,10,0:0:0:0:
148,14,83226,2,0,P|58:36|61:130,1,191.999994140625,2|0,0:0|0:0,0:0:0:0:
172,246,83785,1,8,0:0:0:0:
11,325,83971,1,2,0:0:0:0:
220,170,84158,6,0,B|163:140|115:179|115:179|80:212|17:199,1,191.999994140625,0|8,3:2|0:0,0:0:0:0:
271,298,84717,1,2,0:0:0:0:
310,113,84903,2,0,P|368:54|488:56,1,191.999994140625,0|8,3:2|0:0,0:0:0:0:
241,8,85462,1,2,0:0:0:0:
406,208,85648,6,0,P|470:229|522:209,1,95.9999970703126,0|0,3:2|0:0,0:0:0:0:
331,83,86021,1,10,0:0:0:0:
274,246,86207,2,0,P|293:297|282:343,1,95.9999970703126,0|0,0:0|3:2,0:0:0:0:
157,216,86580,1,2,0:0:0:0:
198,380,86766,1,8,0:0:0:0:
52,215,86953,1,2,3:2:0:0:
44,237,87046,1,0,3:2:0:0:
35,264,87139,6,0,P|-2:215|13:81,2,191.999994140625,2|8|0,3:2|0:0|3:2,0:0:0:0:
134,171,88071,1,0,0:0:0:0:
293,255,88257,2,0,P|249:204|252:169,1,95.9999970703126,10|0,0:0|0:0,0:0:0:0:
391,5,88630,2,0,P|323:9|301:36,1,95.9999970703126,2|0,3:2|0:0,0:0:0:0:
512,176,89002,5,10,0:0:0:0:
365,97,89189,1,0,0:0:0:0:
410,257,89375,1,2,3:2:0:0:
495,92,89561,1,0,0:0:0:0:
429,358,89748,2,0,P|351:363|327:352,1,95.9999970703126,10|0,0:0|0:0,0:0:0:0:
12,349,90120,6,0,P|78:294|43:172,1,191.999994140625,0|8,3:2|0:0,0:0:0:0:
0,44,90679,2,0,B|126:51|43:106|196:106,1,191.999994140625,2|0,0:0|0:0,0:0:0:0:
294,22,91239,1,10,0:0:0:0:
428,93,91425,1,2,0:0:0:0:
267,135,91611,5,0,3:2:0:0:
253,165,91704,1,0,3:2:0:0:
255,198,91798,1,2,3:2:0:0:
272,226,91891,1,0,3:2:0:0:
300,243,91984,1,10,0:0:0:0:
327,262,92077,1,0,3:2:0:0:
337,293,92170,1,2,3:2:0:0:
322,323,92263,1,0,3:2:0:0:
286,338,92357,5,2,3:2:0:0:
252,318,92450,1,0,3:2:0:0:
214,310,92543,1,2,3:2:0:0:
180,327,92636,1,0,3:2:0:0:
157,360,92729,2,0,L|91:372,1,47.9999985351563,10|0,0:0|3:2,0:0:0:0:
0,276,92916,2,0,L|66:288,1,47.9999985351563,2|0,3:2|3:2,0:0:0:0:
198,189,93102,5,2,3:2:0:0:
2,139,93288,1,2,0:0:0:0:
125,263,93475,1,10,0:0:0:0:
202,75,93661,2,0,P|261:63|304:67,1,80,2|0,0:0|3:2,0:0:0:0:
455,188,94034,2,0,P|403:168|364:168,1,80,2|8,0:0|0:0,0:0:0:0:
260,279,94406,5,2,0:0:0:0:
391,72,94593,2,0,L|484:61,1,80,2|0,3:2|0:0,0:0:0:0:
321,218,94965,1,8,0:0:0:0:
179,132,95152,2,0,P|162:168|157:207,1,80,2|0,0:0|3:2,0:0:0:0:
216,297,95524,1,0,0:0:0:0:
123,81,95711,2,0,P|156:59|196:59,1,80,10|0,0:0|0:0,0:0:0:0:
353,167,96083,5,2,3:2:0:0:
225,61,96270,1,2,0:0:0:0:
390,10,96456,1,10,0:0:0:0:
248,216,96642,2,0,P|294:256|347:260,1,80,2|0,0:0|3:2,0:0:0:0:
512,91,97015,2,0,P|464:128|420:117,1,80,2|8,0:0|0:0,0:0:0:0:
334,2,97388,5,2,0:0:0:0:
309,191,97574,1,2,3:2:0:0:
107,43,97760,2,0,P|146:23|184:13,1,80,2|8,0:0|3:2,0:0:0:0:
309,191,98133,2,0,P|270:171|232:161,1,80,0|0,0:0|3:2,0:0:0:0:
8,331,98506,1,2,0:0:0:0:
36,188,98692,1,10,0:0:0:0:
169,281,98878,1,8,0:0:0:0:
333,223,99065,5,2,3:2:0:0:
179,258,99251,1,2,0:0:0:0:
273,384,99437,1,10,0:0:0:0:
357,213,99624,2,0,P|417:209|455:223,1,80,2|0,0:0|3:2,0:0:0:0:
199,167,99996,2,0,P|139:171|101:157,1,80,2|8,0:0|0:0,0:0:0:0:
255,25,100369,6,0,P|313:42|389:45,1,120
396,52,100742,1,2,0:0:0:0:
306,192,100928,1,8,0:0:0:0:
255,25,101114,2,0,P|216:9|170:2,1,80,2|0,0:0|3:2,0:0:0:0:
133,215,101487,1,0,0:0:0:0:
0,91,101673,2,0,P|42:48|83:51,1,80,10|0,0:0|0:0,0:0:0:0:
21,333,102046,5,0,3:2:0:0:
184,286,102232,1,2,0:0:0:0:
15,224,102419,1,10,0:0:0:0:
198,305,102605,2,0,P|267:304|296:286,1,80,2|0,0:0|3:2,0:0:0:0:
390,199,102978,1,2,0:0:0:0:
478,349,103164,1,8,0:0:0:0:
484,333,103537,5,2,3:2:0:0:
505,216,103723,1,0,3:2:0:0:
392,88,103909,1,10,0:0:0:0:
386,123,104002,1,8,0:0:0:0:
380,158,104096,1,8,0:0:0:0:
372,193,104189,1,8,0:0:0:0:
366,228,104282,6,0,L|357:280,1,40,6|0,3:2|0:0,0:0:0:0:
241,338,104468,2,0,L|232:286,1,40,0|0,3:2|0:0,0:0:0:0:
166,152,104655,1,10,0:0:0:0:
134,127,104748,1,8,0:0:0:0:
94,120,104841,1,8,0:0:0:0:
56,133,104934,1,8,0:0:0:0:
31,164,105027,1,4,3:2:0:0:
237,28,105400,6,0,P|261:70|279:86,1,57.60000140625,2|0,3:2|0:0,0:0:0:0:
347,144,105773,2,0,P|393:156|417:155,1,57.60000140625,0|0,3:2|0:0,0:0:0:0:
501,80,106145,1,2,3:2:0:0:
501,80,106332,1,2,0:0:0:0:
390,254,106518,6,0,P|458:222|506:236,1,115.2000028125,2|0,3:2|3:2,0:0:0:0:
407,340,107077,2,0,B|336:359|368:320|281:333,1,115.2000028125,2|0,0:0|0:0,0:0:0:0:
145,370,107636,2,0,P|191:320|171:273,1,115.2000028125,2|2,3:2|3:2,0:0:0:0:
179,47,108381,6,0,P|150:48|114:56,1,57.60000140625,2|0,3:2|0:0,0:0:0:0:
35,115,108754,2,0,P|15:136|-4:167,1,57.60000140625,0|0,3:2|0:0,0:0:0:0:
3,273,109127,1,2,3:2:0:0:
3,273,109313,1,2,0:0:0:0:
122,153,109499,6,0,P|191:190|238:167,1,115.2000028125,2|0,3:2|3:2,0:0:0:0:
301,87,110058,1,2,0:0:0:0:
301,87,110245,2,0,P|332:80|372:84,1,57.60000140625,0|0,3:2|0:0,0:0:0:0:
479,149,110617,2,0,B|467:195|467:195|453:207|453:207|447:263,1,115.2000028125,2|2,3:2|3:2,0:0:0:0:
243,373,111363,6,0,P|275:347|284:317,1,57.60000140625,2|0,3:2|0:0,0:0:0:0:
283,211,111735,2,0,P|262:175|234:161,1,57.60000140625,0|0,3:2|0:0,0:0:0:0:
122,129,112108,1,2,3:2:0:0:
122,129,112294,1,2,0:0:0:0:
11,295,112481,6,0,P|46:285|126:273,1,115.2000028125,2|0,3:2|3:2,0:0:0:0:
237,354,113040,2,0,P|211:281|241:230,1,115.2000028125,2|0,0:0|0:0,0:0:0:0:
324,152,113599,1,2,3:2:0:0:
512,361,113971,6,0,P|464:383|390:377,1,115.2000028125,2|0,3:2|3:2,0:0:0:0:
316,284,114530,2,0,L|296:156,1,115.2000028125,2|0,0:0|0:0,0:0:0:0:
396,77,115089,2,0,L|388:139,1,57.60000140625,0|0,3:2|0:0,0:0:0:0:
241,20,115462,5,8,0:0:0:0:
212,15,115555,1,8,0:0:0:0:
27,108,115742,5,8,0:0:0:0:
55,103,115835,1,8,0:0:0:0:
83,97,115928,1,8,0:0:0:0:
110,93,116021,1,8,0:0:0:0:
33,244,116207,5,8,0:0:0:0:
18,218,116301,1,8,0:0:0:0:
0,195,116394,1,8,0:0:0:0:
120,368,116580,5,12,0:0:0:0:
145,382,116673,1,8,0:0:0:0:
176,383,116766,1,8,0:0:0:0:
205,364,116860,1,8,0:0:0:0:
222,331,116953,2,0,B|245:355|245:372|245:372|282:385|320:362,1,120,0|0,3:2|0:0,0:0:0:0:
368,251,117325,5,10,0:0:0:0:
463,355,117512,1,2,0:0:0:0:
493,194,117698,1,0,3:2:0:0:
335,235,117884,1,2,0:0:0:0:
434,82,118071,1,10,0:0:0:0:
282,29,118257,1,2,0:0:0:0:
182,208,118443,6,0,P|142:227|93:226,1,80,0|0,3:2|0:0,0:0:0:0:
1,113,118816,1,10,0:0:0:0:
163,4,119002,2,0,P|131:37|125:80,1,80,0|0,0:0|3:2,0:0:0:0:
197,192,119375,1,0,0:0:0:0:
0,323,119561,2,0,L|147:306,1,120,10|0,0:0|0:0,0:0:0:0:
149,298,119934,2,0,P|165:253|149:213,1,80,2|0,3:2|0:0,0:0:0:0:
285,366,120307,5,10,0:0:0:0:
400,278,120493,1,2,0:0:0:0:
256,225,120679,1,0,3:2:0:0:
391,302,120866,1,2,0:0:0:0:
461,190,121052,1,10,0:0:0:0:
330,119,121239,1,2,0:0:0:0:
505,1,121425,6,0,P|517:44|509:89,1,80,0|0,3:2|0:0,0:0:0:0:
405,150,121798,1,10,0:0:0:0:
301,32,121984,2,0,P|264:18|210:20,1,80,0|0,0:0|3:2,0:0:0:0:
111,97,122357,1,0,0:0:0:0:
325,18,122543,2,0,P|341:69|336:99,1,80,10|0,0:0|0:0,0:0:0:0:
328,111,122822,1,0,0:0:0:0:
314,125,122916,5,2,3:2:0:0:
423,219,123102,1,0,0:0:0:0:
306,354,123288,5,10,0:0:0:0:
177,253,123475,1,2,0:0:0:0:
337,253,123661,1,0,3:2:0:0:
161,341,123847,1,2,0:0:0:0:
203,168,124034,1,10,0:0:0:0:
31,194,124220,1,2,0:0:0:0:
258,339,124406,6,0,P|313:318|336:294,1,80,0|0,3:2|0:0,0:0:0:0:
132,267,124779,1,10,0:0:0:0:
257,103,124965,2,0,P|280:137|288:184,1,80,0|0,0:0|3:2,0:0:0:0:
217,281,125338,1,0,0:0:0:0:
407,194,125524,2,0,P|379:139|397:68,1,120,10|0,0:0|0:0,0:0:0:0:
421,48,125897,6,0,P|380:32|319:36,1,80,2|0,3:2|0:0,0:0:0:0:
250,100,126270,1,8,0:0:0:0:
347,237,126456,2,0,B|241:263|294:203|171:240,1,160,2|0,0:0|0:0,0:0:0:0:
27,373,127015,2,0,P|71:339|66:293,1,80,8|0,0:0|0:0,0:0:0:0:
6,153,127388,5,2,3:2:0:0:
159,220,127575,1,2,0:0:0:0:
31,52,127761,1,10,0:0:0:0:
216,16,127947,1,2,0:0:0:0:
90,160,128134,5,0,3:2:0:0:
90,160,128320,1,0,0:0:0:0:
211,347,128506,2,0,P|277:379|329:366,1,120,8|0,0:0|0:0,0:0:0:0:
348,358,128879,5,0,3:2:0:0:
365,326,128972,1,0,3:2:0:0:
362,289,129065,1,2,3:2:0:0:
344,258,129159,1,0,3:2:0:0:
314,236,129252,1,10,0:0:0:0:
284,214,129345,1,0,3:2:0:0:
267,183,129438,1,2,3:2:0:0:
264,147,129531,1,0,3:2:0:0:
282,115,129624,5,2,3:2:0:0:
318,97,129718,1,0,3:2:0:0:
355,110,129811,1,2,3:2:0:0:
366,148,129904,1,0,3:2:0:0:
388,180,129997,1,10,0:0:0:0:
424,196,130090,1,0,3:2:0:0:
461,182,130183,1,2,3:2:0:0:
484,149,130277,1,0,3:2:0:0:
477,109,130370,1,0,3:2:0:0:
179,8,130742,6,0,B|256:37|256:37|271:63|271:63|375:98,1,191.999994140625,4|8,3:2|0:0,0:0:0:0:
216,166,131301,1,2,3:2:0:0:
97,66,131487,1,2,3:2:0:0:
0,282,131673,2,0,P|60:245|159:289,1,176.000005371094,6|0,3:2|3:2,0:0:0:0:
338,377,132232,6,0,P|357:345|375:230,2,143.999995605469,2|10|2,3:2|0:0|3:2,0:0:0:0:
216,175,133350,1,0,3:2:0:0:
512,23,133723,6,0,P|442:64|344:86,1,176.000005371094,4|8,3:2|0:0,0:0:0:0:
196,16,134282,1,2,3:2:0:0:
340,171,134468,1,2,3:2:0:0:
78,167,134655,2,0,B|168:169|113:130|226:132,1,132.00000402832,2|0,3:2|0:0,0:0:0:0:
237,149,135027,6,0,P|258:190|252:231,1,71.9999978027344,2|0,0:0|3:2,0:0:0:0:
163,321,135400,1,2,3:2:0:0:
372,321,135586,6,0,B|343:316|343:316|378:276|449:282,2,143.999995605469,10|2|2,0:0|3:2|3:2,0:0:0:0:
403,252,136518,1,0,0:0:0:0:
434,113,136704,6,0,L|258:127,1,176.000005371094,4|8,3:2|0:0,0:0:0:0:
151,32,137263,1,2,3:2:0:0:
245,210,137450,1,2,3:2:0:0:
59,74,137636,2,0,P|43:146|26:259,1,176.000005371094,4|0,3:2|3:2,0:0:0:0:
223,204,138195,5,2,3:2:0:0:
98,320,138381,1,0,3:2:0:0:
306,199,138567,1,10,0:0:0:0:
323,207,138940,1,2,3:2:0:0:
233,45,139313,6,0,B|183:41|183:41|174:47|174:47|118:40,2,111.999996582031,2|0|8,3:2|3:2|0:0,0:0:0:0:
371,222,140431,1,2,3:2:0:0:
465,188,140617,2,0,P|472:242|445:291,1,111.999996582031,2|0,3:2|0:0,0:0:0:0:
400,106,141176,6,0,P|366:97|326:97,1,55.9999982910157,2|0,3:2|0:0,0:0:0:0:
207,186,141549,2,0,B|247:179|247:179|327:200,1,111.999996582031,10|0,0:0|3:2,0:0:0:0:
160,286,142108,1,0,0:0:0:0:
3,119,142294,5,2,3:2:0:0:
132,192,142481,1,0,3:2:0:0:
129,39,142667,1,10,0:0:0:0:
262,225,142853,2,0,B|341:246|321:181|420:207,1,143.999995605469,2|0,0:0|0:0,0:0:0:0:
308,330,143412,6,0,P|259:333|214:331,1,71.9999978027344,10|0,0:0|0:0,0:0:0:0:
120,243,143785,1,0,3:2:0:0:
4,332,143971,1,2,0:0:0:0:
138,268,144158,1,8,0:0:0:0:
32,152,144344,1,0,0:0:0:0:
183,19,144530,6,0,L|172:100,1,71.9999978027344,2|0,3:2|0:0,0:0:0:0:
294,25,144903,1,10,0:0:0:0:
294,25,145089,1,2,0:0:0:0:
451,223,145276,5,10,0:0:0:0:
375,51,145462,1,0,3:2:0:0:
288,182,145648,1,0,3:2:0:0:
503,152,145835,5,10,0:0:0:0:
265,214,146021,1,0,3:2:0:0:
427,268,146207,1,0,3:2:0:0:
252,384,146394,5,10,0:0:0:0:
156,175,146580,1,10,0:0:0:0:
332,53,146953,6,0,L|263:43,1,47.9999985351563,2|2,0:0|0:0,0:0:0:0:
171,17,147325,2,0,L|102:27,1,47.9999985351563,2|2,0:0|0:0,0:0:0:0:
16,116,147698,1,2,0:0:0:0:
111,294,147884,1,2,3:2:0:0:
139,286,147977,1,0,3:2:0:0:
161,267,148071,2,0,L|175:277,1,11.9999996337891,0|0,3:2|3:2,0:0:0:0:
179,244,148164,2,0,L|193:259,1,11.9999996337891,0|0,3:2|3:2,0:0:0:0:
197,214,148257,6,0,B|314:166|268:267|419:190,1,191.999994140625,4|8,3:2|0:0,0:0:0:0:
495,60,148816,1,2,0:0:0:0:
230,0,149002,2,0,P|218:62|198:197,1,191.999994140625,0|8,3:2|0:0,0:0:0:0:
398,31,149561,1,2,0:0:0:0:
170,124,149748,6,0,P|118:123|72:95,1,95.9999970703126,0|0,3:2|0:0,0:0:0:0:
250,30,150120,1,10,0:0:0:0:
31,247,150307,2,0,B|146:209|106:282|233:242,1,191.999994140625,2|0,0:0|0:0,0:0:0:0:
74,352,150866,1,8,0:0:0:0:
195,160,151052,1,0,0:0:0:0:
335,369,151239,6,0,P|398:324|386:201,1,191.999994140625,0|8,3:2|0:0,0:0:0:0:
503,372,151798,1,2,0:0:0:0:
497,98,151984,2,0,B|414:89|414:89|393:104|393:104|289:100,1,191.999994140625,0|8,3:2|0:0,0:0:0:0:
155,201,152543,1,2,0:0:0:0:
346,384,152729,6,0,L|359:288,1,95.9999970703126,0|0,3:2|0:0,0:0:0:0:
261,119,153102,1,10,0:0:0:0:
148,333,153288,2,0,P|55:337|12:251,1,191.999994140625,2|0,0:0|0:0,0:0:0:0:
45,33,153847,2,0,P|12:88|7:136,1,95.9999970703126,8|0,0:0|0:0,0:0:0:0:
170,291,154220,5,0,3:2:0:0:
201,92,154406,1,2,0:0:0:0:
81,247,154593,1,10,0:0:0:0:
286,147,154779,1,2,0:0:0:0:
345,335,154965,1,0,3:2:0:0:
232,213,155152,1,2,0:0:0:0:
331,358,155338,1,10,0:0:0:0:
482,281,155524,1,2,0:0:0:0:
482,281,155711,6,0,P|432:303|389:297,1,95.9999970703126,0|0,3:2|0:0,0:0:0:0:
309,189,156083,1,10,0:0:0:0:
483,58,156270,2,0,B|380:48|460:18|325:8,1,143.999995605469,2|0,0:0|0:0,0:0:0:0:
234,45,156642,1,2,0:0:0:0:
298,199,156828,1,8,0:0:0:0:
159,261,157015,1,2,0:0:0:0:
44,156,157201,6,0,B|21:239|21:239|25:259|25:259|-4:350,2,191.999994140625,2|10|2,3:2|0:0|3:2,0:0:0:0:
13,16,158133,1,0,0:0:0:0:
135,175,158319,2,0,P|184:190|247:175,1,95.9999970703126,10|0,0:0|0:0,0:0:0:0:
344,15,158692,5,0,3:2:0:0:
193,74,158878,1,0,3:2:0:0:
322,175,159065,1,8,0:0:0:0:
436,37,159251,1,2,3:2:0:0:
440,60,159344,1,0,3:2:0:0:
446,88,159437,2,0,L|457:151,1,47.9999985351563,2|0,3:2|0:0,0:0:0:0:
472,294,159624,1,2,3:2:0:0:
449,325,159717,1,0,3:2:0:0:
413,340,159810,1,2,3:2:0:0:
375,332,159903,1,0,3:2:0:0:
347,305,159996,1,2,3:2:0:0:
340,267,160089,1,0,3:2:0:0:
355,231,160183,6,0,B|299:278|299:278|158:268,1,191.999994140625,4|8,3:2|0:0,0:0:0:0:
31,365,160742,1,2,0:0:0:0:
0,106,160928,2,0,P|19:167|139:162,1,191.999994140625,0|8,3:2|0:0,0:0:0:0:
208,18,161487,1,2,0:0:0:0:
323,195,161673,6,0,P|383:206|433:186,1,95.9999970703126,0|0,3:2|0:0,0:0:0:0:
332,42,162046,1,10,0:0:0:0:
265,281,162232,2,0,P|176:287|76:307,1,191.999994140625,2|0,0:0|0:0,0:0:0:0:
231,374,162791,1,8,0:0:0:0:
141,169,162978,1,2,0:0:0:0:
351,362,163164,6,0,P|431:365|484:268,1,191.999994140625,0|8,3:2|0:0,0:0:0:0:
431,95,163723,1,2,0:0:0:0:
204,198,163909,2,0,B|334:160|258:233|393:194,1,191.999994140625,0|8,3:2|0:0,0:0:0:0:
257,42,164468,1,2,0:0:0:0:
171,298,164655,6,0,P|112:267|97:230,1,95.9999970703126,0|0,3:2|0:0,0:0:0:0:
56,66,165027,1,10,0:0:0:0:
264,140,165214,2,0,P|174:151|153:139,1,95.9999970703126,0|0,0:0|3:2,0:0:0:0:
311,39,165586,1,2,0:0:0:0:
398,188,165773,1,8,0:0:0:0:
247,298,165959,1,2,3:2:0:0:
269,290,166052,1,0,3:2:0:0:
291,282,166145,6,0,P|240:256|111:291,2,191.999994140625,2|8|0,3:2|0:0|3:2,0:0:0:0:
166,354,167077,1,0,0:0:0:0:
21,152,167263,2,0,P|62:175|119:181,1,95.9999970703126,10|0,0:0|0:0,0:0:0:0:
337,84,167636,2,0,P|305:118|252:141,1,95.9999970703126,2|0,3:2|0:0,0:0:0:0:
53,31,168009,5,10,0:0:0:0:
172,106,168195,1,0,0:0:0:0:
24,202,168381,1,2,3:2:0:0:
131,42,168568,1,0,0:0:0:0:
183,235,168754,2,0,P|238:252|301:239,1,95.9999970703126,10|0,0:0|0:0,0:0:0:0:
435,15,169127,6,0,P|446:107|472:219,1,191.999994140625,0|8,3:2|0:0,0:0:0:0:
424,356,169686,2,0,B|346:341|346:341|321:353|321:353|229:339,1,191.999994140625,2|0,0:0|0:0,0:0:0:0:
108,223,170245,1,10,0:0:0:0:
8,371,170431,1,2,0:0:0:0:
179,266,170617,5,0,3:2:0:0:
191,235,170710,1,0,3:2:0:0:
187,202,170804,1,2,3:2:0:0:
169,175,170897,1,0,3:2:0:0:
140,159,170990,1,10,0:0:0:0:
112,142,171083,1,0,3:2:0:0:
100,111,171176,1,2,3:2:0:0:
114,81,171269,1,0,3:2:0:0:
149,64,171363,5,2,3:2:0:0:
184,82,171456,1,0,3:2:0:0:
222,88,171549,1,2,3:2:0:0:
255,69,171642,1,0,3:2:0:0:
282,33,171735,2,0,L|347:17,1,47.9999985351563,10|0,0:0|3:2,0:0:0:0:
438,111,171922,2,0,L|371:102,1,47.9999985351563,2|0,3:2|3:2,0:0:0:0:
218,220,172108,6,0,P|180:239|125:242,1,88.000002685547,2|0,3:2|0:0,0:0:0:0:
35,165,172481,1,10,0:0:0:0:
35,165,172667,1,2,0:0:0:0:
176,18,172853,2,0,L|185:105,2,88.000002685547,2|2|8,3:2|0:0|0:0,0:0:0:0:
439,10,173412,6,0,P|364:33|368:130,1,176.000005371094,2|0,0:0|0:0,0:0:0:0:
512,214,173971,2,0,P|470:200|426:201,1,88.000002685547,10|0,0:0|0:0,0:0:0:0:
326,315,174344,1,0,3:2:0:0:
490,343,174530,1,2,0:0:0:0:
324,220,174717,1,10,0:0:0:0:
324,220,174903,1,2,0:0:0:0:
119,348,175089,5,2,3:2:0:0:
230,243,175276,1,2,0:0:0:0:
64,127,175462,2,0,P|49:179|28:287,1,132.00000402832,10|0,0:0|0:0,0:0:0:0:
44,292,175835,2,0,P|34:336|11:377,2,88.000002685547,2|2|8,3:2|0:0|0:0,0:0:0:0:
173,194,176394,1,0,0:0:0:0:
11,14,176580,6,0,P|84:33|200:41,1,176.000005371094,2|8,3:2|0:0,0:0:0:0:
373,157,177139,2,0,P|315:118|262:192,1,176.000005371094,2|0,0:0|0:0,0:0:0:0:
449,45,177698,2,0,P|475:103|484:196,1,132.00000402832,10|0,0:0|0:0,0:0:0:0:
479,205,178071,6,0,P|478:255|494:315,1,88.000002685547,2|0,3:2|0:0,0:0:0:0:
355,203,178443,1,10,0:0:0:0:
355,203,178630,1,2,0:0:0:0:
261,324,178816,2,0,L|164:339,2,88.000002685547,2|2|8,3:2|0:0|0:0,0:0:0:0:
50,154,179375,6,0,B|32:220|32:220|40:234|40:234|9:329,1,176.000005371094,2|0,0:0|0:0,0:0:0:0:
21,75,179934,2,0,P|85:78|126:108,1,88.000002685547,10|0,0:0|0:0,0:0:0:0:
191,209,180307,1,0,3:2:0:0:
280,78,180493,1,2,0:0:0:0:
310,73,180586,1,2,0:0:0:0:
340,68,180679,1,10,0:0:0:0:
466,152,180866,1,2,0:0:0:0:
295,0,181052,5,2,3:2:0:0:
450,69,181239,1,2,0:0:0:0:
248,167,181425,2,0,P|195:154|86:139,1,132.00000402832,10|0,0:0|0:0,0:0:0:0:
82,155,181798,2,0,P|37:147|-4:126,2,88.000002685547,2|2|8,3:2|0:0|0:0,0:0:0:0:
0,323,182357,6,0,B|116:276|60:355|191:300,1,176.000005371094,2|2,0:0|0:0,0:0:0:0:
276,182,182916,1,10,0:0:0:0:
370,317,183102,1,0,3:2:0:0:
396,332,183195,1,0,3:2:0:0:
421,348,183288,1,2,3:2:0:0:
315,203,183475,1,2,0:0:0:0:
474,185,183661,1,10,0:0:0:0:
390,28,183847,1,0,3:2:0:0:
375,55,183940,1,0,3:2:0:0:
360,82,184034,6,0,P|318:52|258:46,1,88.000002685547,4|2,0:0|0:0,0:0:0:0:
161,136,184406,1,10,0:0:0:0:
161,136,184593,1,0,0:0:0:0:
14,9,184779,2,0,L|-6:107,2,88.000002685547,2|2|8,3:2|0:0|0:0,0:0:0:0:
153,185,185338,6,0,P|217:185|329:235,1,176.000005371094,2|0,0:0|0:0,0:0:0:0:
475,367,185897,2,0,P|501:302|495:265,1,88.000002685547,10|0,0:0|0:0,0:0:0:0:
346,83,186270,1,2,3:2:0:0:
500,188,186456,1,2,0:0:0:0:
311,208,186642,1,10,0:0:0:0:
311,208,186829,1,0,0:0:0:0:
228,376,187015,6,0,B|171:359|171:359|151:367|151:367|74:343,1,132.00000402832,2|0,3:2|0:0,0:0:0:0:
20,276,187388,5,10,0:0:0:0:
12,246,187481,1,2,0:0:0:0:
21,216,187574,1,2,0:0:0:0:
47,200,187667,1,2,0:0:0:0:
82,200,187760,1,2,3:2:0:0:
110,179,187853,1,2,0:0:0:0:
123,146,187947,1,2,0:0:0:0:
123,110,188040,1,2,0:0:0:0:
101,88,188133,1,10,0:0:0:0:
70,86,188226,1,2,0:0:0:0:
44,103,188319,2,0,P|28:155|36:175,1,44.0000013427735,2|0,0:0|0:0,0:0:0:0:
164,24,188506,5,2,3:2:0:0:
202,16,188599,1,2,0:0:0:0:
240,26,188692,1,2,0:0:0:0:
265,56,188785,1,2,0:0:0:0:
288,81,188878,1,10,0:0:0:0:
320,93,188971,1,2,0:0:0:0:
355,89,189065,1,2,0:0:0:0:
387,74,189158,1,2,0:0:0:0:
405,44,189251,2,0,B|436:51|448:79|448:79|398:131|324:111,1,176.000005371094,2|8,3:2|0:0,0:0:0:0:
247,40,189810,1,0,0:0:0:0:
388,240,189996,5,10,0:0:0:0:
423,242,190089,1,0,3:2:0:0:
458,245,190183,1,0,3:2:0:0:
321,366,190369,1,2,3:2:0:0:
192,198,190555,1,10,0:0:0:0:
156,197,190648,1,0,3:2:0:0:
120,194,190742,1,0,3:2:0:0:
265,95,190928,1,2,0:0:0:0:
32,254,191114,5,8,0:0:0:0:
304,350,191301,1,10,0:0:0:0:
502,17,191673,6,0,L|494:78,1,47.9999985351563,2|2,0:0|0:0,0:0:0:0:
430,140,192046,2,0,L|368:158,1,47.9999985351563,2|2,0:0|0:0,0:0:0:0:
274,96,192419,1,2,0:0:0:0:
274,96,192605,2,0,L|245:103,6,16,2|0|0|0|0|0|0,3:2|3:2|3:2|3:2|3:2|3:2|3:2,0:0:0:0:
364,142,192978,1,8,3:2:0:0:
233,26,193164,6,0,L|174:20,1,55.9999982910157,2|2,0:0|0:0,0:0:0:0:
63,83,193537,2,0,L|27:135,1,55.9999982910157,2|2,0:0|0:0,0:0:0:0:
66,262,193909,1,2,0:0:0:0:
66,262,194096,2,0,B|113:255|113:255|131:268|131:268|177:262,1,111.999996582031,2|0,0:0|0:0,0:0:0:0:
263,179,194655,5,0,0:0:0:0:
317,275,194841,1,0,0:0:0:0:
326,295,194934,1,0,0:0:0:0:
334,315,195027,2,0,L|344:343,4,16
406,229,195400,1,0,0:0:0:0:
203,257,195586,2,0,B|152:263|101:263,1,83.9999974365235,2|0,0:0|0:0,0:0:0:0:
76,243,195959,6,0,P|35:173|172:56,1,287.999991210938,2|0,3:2|0:0,0:0:0:0:
320,274,197450,5,8,0:0:0:0:
427,34,197636,1,8,0:0:0:0:
498,320,198940,6,0,B|315:366|405:248|206:292,1,287.999991210938,2|0,3:2|0:0,0:0:0:0:
106,360,200245,1,0,3:2:0:0:
84,356,200338,1,0,3:2:0:0:
64,341,200431,5,10,0:0:0:0:
208,190,200617,1,0,3:2:0:0:
34,217,200804,1,0,3:2:0:0:
0,7,200990,5,10,0:0:0:0:
139,165,201176,1,0,3:2:0:0:
242,46,201363,1,0,3:2:0:0:
15,82,201549,5,10,0:0:0:0:
203,13,201735,1,8,0:0:0:0:
234,20,201829,1,8,0:0:0:0:
268,29,201922,5,0,3:2:0:0:
379,212,202108,1,2,0:0:0:0:
381,24,202294,1,10,0:0:0:0:
266,180,202481,1,2,0:0:0:0:
452,264,202667,1,0,3:2:0:0:
278,325,202853,1,2,0:0:0:0:
447,282,203040,1,10,0:0:0:0:
219,234,203226,1,2,0:0:0:0:
219,234,203412,6,0,B|337:227|265:169|408:159,1,191.999994140625,0|10,3:2|0:0,0:0:0:0:
147,171,203971,2,0,P|132:228|133:282,1,95.9999970703126,2|0,0:0|3:2,0:0:0:0:
34,47,204344,1,2,0:0:0:0:
114,204,204530,1,8,0:0:0:0:
259,124,204717,1,2,0:0:0:0:
159,4,204903,6,0,P|137:59|100:192,2,191.999994140625,2|10|2,3:2|0:0|3:2,0:0:0:0:
231,132,205835,1,0,0:0:0:0:
330,29,206021,2,0,P|378:21|431:37,1,95.9999970703126,10|0,0:0|0:0,0:0:0:0:
485,219,206394,5,0,3:2:0:0:
312,147,206580,1,0,3:2:0:0:
471,107,206766,1,8,0:0:0:0:
360,222,206953,1,2,3:2:0:0:
355,250,207046,1,0,3:2:0:0:
348,278,207139,2,0,L|336:331,1,47.9999985351563,2|0,3:2|0:0,0:0:0:0:
255,196,207325,1,2,3:2:0:0:
223,174,207419,1,0,3:2:0:0:
186,162,207512,1,2,3:2:0:0:
148,169,207605,1,0,3:2:0:0:
118,193,207698,1,2,3:2:0:0:
104,229,207791,1,0,3:2:0:0:
106,267,207884,6,0,P|164:221|184:108,1,191.999994140625,4|8,3:2|0:0,0:0:0:0:
24,17,208443,1,2,0:0:0:0:
218,174,208630,2,0,B|324:169|277:115|397:94,1,191.999994140625,0|8,3:2|0:0,0:0:0:0:
496,226,209189,1,2,0:0:0:0:
310,36,209375,6,0,P|250:78|230:111,1,95.9999970703126,0|0,3:2|0:0,0:0:0:0:
316,268,209748,1,10,0:0:0:0:
448,19,209934,2,0,P|495:114|518:213,1,191.999994140625,2|0,0:0|0:0,0:0:0:0:
291,216,210493,1,8,0:0:0:0:
464,103,210679,1,2,0:0:0:0:
305,339,210866,6,0,P|219:316|178:213,1,191.999994140625,0|8,3:2|0:0,0:0:0:0:
296,49,211425,1,2,0:0:0:0:
34,6,211611,2,0,B|46:84|46:84|70:103|70:103|84:205,1,191.999994140625,0|8,3:2|0:0,0:0:0:0:
98,346,212170,1,2,0:0:0:0:
282,270,212357,6,0,P|333:266|391:281,1,95.9999970703126,0|0,3:2|0:0,0:0:0:0:
110,324,212729,1,10,0:0:0:0:
240,182,212916,2,0,P|231:129|198:90,1,95.9999970703126,0|0,0:0|3:2,0:0:0:0:
54,5,213288,1,2,0:0:0:0:
205,96,213475,1,8,0:0:0:0:
363,8,213661,1,2,3:2:0:0:
386,5,213754,1,0,3:2:0:0:
409,5,213847,6,0,P|444:88|451:202,2,191.999994140625,2|8|0,3:2|0:0|3:2,0:0:0:0:
327,177,214779,1,0,0:0:0:0:
471,316,214965,1,8,0:0:0:0:
283,318,215152,1,0,0:0:0:0:
211,104,215338,6,0,B|128:97|128:97|111:110|111:110|5:97,1,191.999994140625,2|8,3:2|0:0,0:0:0:0:
283,41,215897,2,0,P|306:101|300:143,1,95.9999970703126,2|0,0:0|3:2,0:0:0:0:
168,276,216270,1,2,0:0:0:0:
357,203,216456,1,10,0:0:0:0:
141,185,216642,1,2,3:2:0:0:
133,207,216735,1,0,3:2:0:0:
125,229,216829,6,0,P|66:303|-33:317,2,191.999994140625,0|8|0,3:2|0:0|3:2,0:0:0:0:
54,74,217760,1,0,0:0:0:0:
269,22,217947,2,0,P|221:67|162:78,1,95.9999970703126,8|0,0:0|0:0,0:0:0:0:
430,0,218319,5,0,3:2:0:0:
460,18,218412,1,0,3:2:0:0:
481,47,218506,1,2,3:2:0:0:
481,82,218599,1,0,3:2:0:0:
466,114,218692,1,10,3:2:0:0:
454,147,218785,1,0,3:2:0:0:
457,182,218878,1,2,3:2:0:0:
475,212,218971,1,0,3:2:0:0:
505,230,219065,5,2,3:2:0:0:
474,249,219158,1,0,3:2:0:0:
445,270,219251,1,2,3:2:0:0:
427,301,219344,1,0,3:2:0:0:
418,335,219437,1,10,0:0:0:0:
402,367,219530,1,0,3:2:0:0:
368,382,219624,1,2,3:2:0:0:
333,373,219717,1,0,3:2:0:0:
302,339,219810,6,0,B|176:326|268:288|118:266,1,191.999994140625,4|8,3:2|0:0,0:0:0:0:
16,364,220369,1,2,0:0:0:0:
6,119,220555,2,0,P|83:162|198:142,1,191.999994140625,0|8,3:2|0:0,0:0:0:0:
4,267,221114,1,2,0:0:0:0:
226,70,221301,6,0,P|266:113|272:169,1,95.9999970703126,0|0,3:2|0:0,0:0:0:0:
92,32,221673,1,10,0:0:0:0:
328,59,221860,2,0,P|439:54|536:6,1,191.999994140625,2|0,0:0|0:0,0:0:0:0:
348,189,222419,1,8,0:0:0:0:
460,11,222605,1,2,0:0:0:0:
509,284,222791,6,0,B|423:273|423:273|409:284|409:284|304:269,1,191.999994140625,4|8,3:2|0:0,0:0:0:0:
130,337,223350,1,2,0:0:0:0:
245,41,223537,2,0,P|326:88|284:193,1,191.999994140625,0|8,3:2|0:0,0:0:0:0:
139,83,224096,1,2,0:0:0:0:
303,264,224282,6,0,P|349:250|405:190,1,95.9999970703126,0|0,3:2|0:0,0:0:0:0:
231,167,224655,1,10,0:0:0:0:
62,315,224841,2,0,P|32:265|19:108,1,191.999994140625,2|0,0:0|0:0,0:0:0:0:
121,3,225400,2,0,P|121:65|125:108,1,95.9999970703126,8|2,0:0|0:0,0:0:0:0:
272,284,225773,6,0,P|190:242|140:323,2,191.999994140625,2|8|0,3:2|0:0|3:2,0:0:0:0:
129,165,226704,1,0,0:0:0:0:
249,66,226891,1,10,0:0:0:0:
346,186,227077,1,2,0:0:0:0:
512,11,227263,6,0,P|407:-1|322:85,1,191.999994140625,0|8,3:2|0:0,0:0:0:0:
414,272,227822,2,0,P|451:208|450:178,1,95.9999970703126,0|0,0:0|3:2,0:0:0:0:
210,161,228195,1,0,0:0:0:0:
400,114,228381,1,10,0:0:0:0:
252,242,228568,1,2,0:0:0:0:
308,12,228754,6,0,P|261:60|124:78,1,191.999994140625,0|8,3:2|0:0,0:0:0:0:
37,4,229313,1,0,3:2:0:0:
21,28,229406,1,0,3:2:0:0:
10,54,229499,1,0,3:2:0:0:
119,173,229686,1,0,0:0:0:0:
17,335,229872,2,0,P|78:315|125:323,1,95.9999970703126,8|0,0:0|0:0,0:0:0:0:
382,167,230245,6,0,P|358:234|328:259,1,95.9999970703126,0|0,3:2|0:0,0:0:0:0:
200,119,230617,1,8,0:0:0:0:
392,32,230804,1,2,0:0:0:0:
402,58,230897,1,2,0:0:0:0:
411,85,230990,1,2,3:2:0:0:
217,21,231176,1,2,0:0:0:0:
144,187,231363,1,10,0:0:0:0:
319,127,231549,1,10,0:0:0:0:
345,137,231642,1,8,0:0:0:0:
370,149,231735,6,0,P|413:200|336:290,1,191.999994140625,4|8,3:2|0:0,0:0:0:0:
234,166,232294,1,2,0:0:0:0:
379,379,232481,2,0,B|257:389|326:327|178:337,1,191.999994140625,0|8,3:2|0:0,0:0:0:0:
10,374,233040,1,2,0:0:0:0:
169,184,233226,6,0,P|120:160|60:159,1,95.9999970703126,0|0,3:2|0:0,0:0:0:0:
166,334,233599,1,10,0:0:0:0:
215,66,233785,2,0,P|257:125|378:122,1,191.999994140625,2|0,0:0|0:0,0:0:0:0:
133,93,234344,1,8,0:0:0:0:
326,17,234530,1,2,0:0:0:0:
55,3,234717,6,0,B|21:51|21:51|3:192,1,191.999994140625,0|8,3:2|0:0,0:0:0:0:
121,330,235276,1,2,0:0:0:0:
281,167,235462,2,0,P|385:175|483:220,1,191.999994140625,0|8,3:2|0:0,0:0:0:0:
323,38,236021,1,2,0:0:0:0:
422,297,236207,6,0,P|496:304|529:278,1,95.9999970703126,0|0,3:2|0:0,0:0:0:0:
390,100,236580,1,10,0:0:0:0:
337,361,236766,2,0,P|300:356|235:330,1,95.9999970703126,0|0,0:0|3:2,0:0:0:0:
459,161,237139,1,2,0:0:0:0:
320,273,237325,1,8,0:0:0:0:
270,84,237512,1,2,3:2:0:0:
251,105,237605,1,0,3:2:0:0:
232,126,237698,6,0,B|160:98|160:98|144:106|144:106|47:68,2,191.999994140625,2|8|0,3:2|0:0|3:2,0:0:0:0:
38,196,238630,1,0,0:0:0:0:
301,336,238816,2,0,P|256:300|215:275,1,95.9999970703126,10|0,0:0|0:0,0:0:0:0:
0,270,239189,2,0,P|55:255|103:249,1,95.9999970703126,2|0,3:2|0:0,0:0:0:0:
305,176,239561,5,10,0:0:0:0:
154,139,239748,1,0,0:0:0:0:
296,256,239934,1,2,3:2:0:0:
216,85,240120,1,0,0:0:0:0:
401,23,240307,2,0,P|452:46|487:87,1,95.9999970703126,10|0,0:0|0:0,0:0:0:0:
495,288,240679,6,0,B|366:277|458:228|296:218,1,191.999994140625,0|8,3:2|0:0,0:0:0:0:
90,348,241239,2,0,P|165:323|131:234,1,191.999994140625,2|0,0:0|0:0,0:0:0:0:
9,125,241798,1,10,0:0:0:0:
150,7,241984,1,2,0:0:0:0:
247,145,242170,5,0,3:2:0:0:
275,161,242263,1,0,3:2:0:0:
308,162,242357,1,2,3:2:0:0:
338,149,242450,1,0,3:2:0:0:
358,123,242543,1,10,0:0:0:0:
379,98,242636,1,0,3:2:0:0:
412,91,242729,1,2,3:2:0:0:
439,109,242822,1,0,3:2:0:0:
451,146,242916,5,2,3:2:0:0:
427,178,243009,1,0,3:2:0:0:
416,215,243102,1,2,3:2:0:0:
429,250,243195,1,0,3:2:0:0:
460,277,243288,2,0,L|465:343,1,47.9999985351563,10|0,0:0|3:2,0:0:0:0:
322,384,243475,2,0,L|341:319,1,47.9999985351563,2|0,3:2|3:2,0:0:0:0:
277,150,243661,6,0,P|266:201|193:302,1,143.999995605469,2|2,3:2|0:0,0:0:0:0:
13,42,245152,6,0,P|66:89|102:76,1,95.9999970703126,2|0,0:0|0:0,0:0:0:0:
162,39,245711,1,2,0:0:0:0:
473,12,246642,6,0,B|461:73|461:73|470:85|470:85|453:157,1,143.999995605469,2|2,0:0|0:0,0:0:0:0:
155,349,248133,6,0,P|205:335|263:303,1,95.9999970703126,2|0,0:0|0:0,0:0:0:0:
276,227,248692,1,2,0:0:0:0:
275,198,249251,1,2,0:0:0:0:
0,138,249624,6,0,B|179:94|111:207|280:149,1,287.999991210938,2|0,0:0|0:0,0:0:0:0:
434,101,251114,5,2,0:0:0:0:
452,104,251189,1,2,0:0:0:0:
470,110,251263,2,0,P|515:146|388:254,1,287.999991210938,2|0,0:0|0:0,0:0:0:0:
8,254,252605,5,2,0:0:0:0:
14,274,252679,1,2,0:0:0:0:
28,291,252754,2,0,B|141:349|124:250|251:309|251:309|324:230|139:195|283:58|354:140|354:140|468:91|521:292|351:236|364:328|364:328|409:334|444:380,1,912.00003479004,2|0,0:0|0:0,0:0:0:0:
