osu file format v14

[General]
AudioFilename: Ray.mp3
AudioLeadIn: 0
PreviewTime: 67848
Countdown: 0
SampleSet: Normal
StackLeniency: 0.7
Mode: 1
LetterboxInBreaks: 0
WidescreenStoryboard: 0

[Editor]
Bookmarks: 26016,36451,37942,49867,60302,69242,99056,105022,115457,116948,128873,139308,148248,178062,184025,201913,207879,243652,249615,252782
DistanceSpacing: 3
BeatDivisor: 4
GridSize: 32
TimelineZoom: 1.2

[Metadata]
Title:Kimi to Ita Sora
TitleUnicode:君といた空
Artist:Ray
ArtistUnicode:Ray
Creator:Smallwu
Version:Kantan
Source:蒼の彼方のフォーリズム
Tags:katacheh yassu- Sprite Ao no Kanata no Four Rhythm Beyond the sky into the firmament Aokana a-gain Ending Full Anime visual novel eroge
BeatmapID:1036160
BeatmapSetID:485787

[Difficulty]
HPDrainRate:6.5
CircleSize:5.5
OverallDifficulty:3
ApproachRate:8
SliderMultiplier:1.4
SliderTickRate:1

[Events]
//Background and Video events
0,0,"background.jpg",0,75
//Break Periods
//Storyboard Layer 0 (Background)
//Storyboard Layer 1 (Fail)
//Storyboard Layer 2 (Pass)
//Storyboard Layer 3 (Foreground)
//Storyboard Sound Samples

[TimingPoints]
675,372.670807453416,4,1,0,30,1,0
13904,-100,4,1,0,70,0,0
69246,-100,4,1,0,85,0,1
93097,-100,4,1,0,85,0,0
104836,-100,4,1,0,70,0,0
148252,-100,4,1,0,85,0,1
172103,-100,4,1,0,85,0,0
201917,-100,4,1,0,85,0,1
243656,-100,4,1,0,85,0,0
243749,-100,4,1,0,30,0,0

[HitObjects]
256,192,675,5,2,0:0:0:0:
256,192,2165,1,0,0:0:0:0:
256,192,3656,1,0,0:0:0:0:
256,192,5147,1,2,0:0:0:0:
256,192,6637,1,0,0:0:0:0:
256,192,8128,1,0,0:0:0:0:
256,192,9619,1,2,0:0:0:0:
256,192,11109,1,2,0:0:0:0:
256,192,12600,8,0,13718,0:0:0:0:
256,192,14091,5,4,0:0:0:0:
256,192,15581,1,0,0:0:0:0:
256,192,17072,1,4,0:0:0:0:
256,192,18563,1,0,0:0:0:0:
256,192,20053,5,4,0:0:0:0:
256,192,20799,1,0,0:0:0:0:
256,192,21544,1,0,0:0:0:0:
256,192,23035,8,0,25643,0:0:0:0:
256,192,26016,5,4,0:0:0:0:
256,192,27507,1,0,0:0:0:0:
256,192,28252,1,0,0:0:0:0:
256,192,28997,1,2,0:0:0:0:
256,192,30488,1,2,0:0:0:0:
256,192,30861,1,2,0:0:0:0:
256,192,31234,1,2,0:0:0:0:
256,192,31979,1,0,0:0:0:0:
256,192,33470,1,0,0:0:0:0:
256,192,34215,1,2,0:0:0:0:
256,192,34960,1,0,0:0:0:0:
256,192,35706,1,2,0:0:0:0:
256,192,36451,5,0,0:0:0:0:
256,192,37942,5,4,0:0:0:0:
256,192,39432,1,0,0:0:0:0:
256,192,40178,1,2,0:0:0:0:
256,192,40923,1,0,0:0:0:0:
256,192,42414,1,2,0:0:0:0:
256,192,43159,1,0,0:0:0:0:
256,192,43532,1,0,0:0:0:0:
256,192,43904,1,0,0:0:0:0:
256,192,45395,1,0,0:0:0:0:
256,192,46140,1,2,0:0:0:0:
256,192,46886,1,0,0:0:0:0:
256,192,47631,1,0,0:0:0:0:
256,192,48004,1,2,0:0:0:0:
256,192,48376,1,0,0:0:0:0:
256,192,49122,1,2,0:0:0:0:
256,192,49867,5,0,0:0:0:0:
256,192,50240,1,2,0:0:0:0:
256,192,50612,1,2,0:0:0:0:
256,192,50985,1,0,0:0:0:0:
256,192,51730,5,6,0:0:0:0:
256,192,52662,1,4,0:0:0:0:
256,192,53594,1,2,0:0:0:0:
256,192,54712,1,4,0:0:0:0:
256,192,55643,1,6,0:0:0:0:
256,192,56575,1,2,0:0:0:0:
256,192,57693,1,6,0:0:0:0:
256,192,58625,1,4,0:0:0:0:
256,192,59556,1,2,0:0:0:0:
256,192,60302,5,0,0:0:0:0:
256,192,61047,1,2,0:0:0:0:
256,192,61606,1,0,0:0:0:0:
256,192,62538,1,2,0:0:0:0:
256,192,63283,5,0,0:0:0:0:
256,192,64029,1,0,0:0:0:0:
256,192,64774,1,0,0:0:0:0:
256,192,65147,1,2,0:0:0:0:
256,192,65519,1,0,0:0:0:0:
256,192,66265,1,0,0:0:0:0:
256,192,66824,1,2,0:0:0:0:
256,192,67569,1,6,0:0:0:0:
256,192,69246,5,4,0:0:0:0:
256,192,69991,1,2,0:0:0:0:
256,192,70737,1,0,0:0:0:0:
256,192,71109,1,0,0:0:0:0:
256,192,71482,1,2,0:0:0:0:
256,192,72227,1,0,0:0:0:0:
256,192,72973,1,2,0:0:0:0:
256,192,73718,1,0,0:0:0:0:
256,192,74091,1,0,0:0:0:0:
256,192,74463,1,2,0:0:0:0:
256,192,75209,1,2,0:0:0:0:
256,192,75954,1,0,0:0:0:0:
256,192,76699,1,2,0:0:0:0:
256,192,78190,1,2,0:0:0:0:
256,192,78935,1,0,0:0:0:0:
256,192,79681,1,0,0:0:0:0:
256,192,80053,1,2,0:0:0:0:
256,192,80426,1,2,0:0:0:0:
256,192,80799,1,0,0:0:0:0:
256,192,81171,5,4,0:0:0:0:
256,192,81917,1,2,0:0:0:0:
256,192,82662,1,0,0:0:0:0:
256,192,83035,1,0,0:0:0:0:
256,192,83407,1,2,0:0:0:0:
256,192,84153,1,0,0:0:0:0:
256,192,84898,1,2,0:0:0:0:
256,192,85643,1,2,0:0:0:0:
256,192,86016,1,2,0:0:0:0:
256,192,86389,1,0,0:0:0:0:
256,192,86761,1,0,0:0:0:0:
256,192,87134,1,0,0:0:0:0:
256,192,88625,1,0,0:0:0:0:
256,192,88997,1,2,0:0:0:0:
256,192,89370,1,2,0:0:0:0:
256,192,90115,1,0,0:0:0:0:
256,192,90861,1,2,0:0:0:0:
256,192,91606,1,0,0:0:0:0:
256,192,92352,1,2,0:0:0:0:
256,192,92724,1,2,0:0:0:0:
256,192,93097,5,4,0:0:0:0:
256,192,93283,8,0,97569,0:0:0:0:
256,192,99060,5,0,0:0:0:0:
256,192,99805,1,0,0:0:0:0:
256,192,100550,1,0,0:0:0:0:
256,192,100923,1,2,0:0:0:0:
256,192,101296,1,0,0:0:0:0:
256,192,102041,1,0,0:0:0:0:
256,192,102786,1,0,0:0:0:0:
256,192,103532,1,2,0:0:0:0:
256,192,103904,1,0,0:0:0:0:
256,192,104277,1,2,0:0:0:0:
256,192,105022,5,4,0:0:0:0:
256,192,106513,1,0,0:0:0:0:
256,192,107258,1,0,0:0:0:0:
256,192,108004,1,2,0:0:0:0:
256,192,109494,1,2,0:0:0:0:
256,192,109867,1,2,0:0:0:0:
256,192,110240,1,2,0:0:0:0:
256,192,110985,1,0,0:0:0:0:
256,192,112476,1,0,0:0:0:0:
256,192,113221,1,2,0:0:0:0:
256,192,113966,1,0,0:0:0:0:
256,192,114712,1,2,0:0:0:0:
256,192,115457,5,0,0:0:0:0:
256,192,116948,5,4,0:0:0:0:
256,192,118438,1,0,0:0:0:0:
256,192,119184,1,2,0:0:0:0:
256,192,119929,1,0,0:0:0:0:
256,192,121420,1,2,0:0:0:0:
256,192,122165,1,2,0:0:0:0:
256,192,122538,1,0,0:0:0:0:
256,192,122911,1,2,0:0:0:0:
256,192,124401,1,0,0:0:0:0:
256,192,125147,1,2,0:0:0:0:
256,192,125892,1,0,0:0:0:0:
256,192,126637,1,0,0:0:0:0:
256,192,127010,1,0,0:0:0:0:
256,192,127383,1,2,0:0:0:0:
256,192,128128,1,2,0:0:0:0:
256,192,128873,1,0,0:0:0:0:
256,192,129246,1,2,0:0:0:0:
256,192,129619,1,2,0:0:0:0:
256,192,129991,1,0,0:0:0:0:
256,192,130737,5,4,0:0:0:0:
256,192,131668,1,6,0:0:0:0:
256,192,132600,1,2,0:0:0:0:
256,192,133718,1,6,0:0:0:0:
256,192,134650,1,4,0:0:0:0:
256,192,135581,1,2,0:0:0:0:
256,192,136699,1,4,0:0:0:0:
256,192,137631,1,6,0:0:0:0:
256,192,138563,1,2,0:0:0:0:
256,192,139308,1,0,0:0:0:0:
256,192,140053,1,2,0:0:0:0:
256,192,140612,1,0,0:0:0:0:
256,192,141544,1,2,0:0:0:0:
256,192,142289,1,0,0:0:0:0:
256,192,143035,1,0,0:0:0:0:
256,192,143780,1,0,0:0:0:0:
256,192,144153,1,2,0:0:0:0:
256,192,144525,1,0,0:0:0:0:
256,192,145271,1,2,0:0:0:0:
256,192,145830,1,2,0:0:0:0:
256,192,146575,1,6,0:0:0:0:
256,192,148252,5,4,0:0:0:0:
256,192,148997,1,2,0:0:0:0:
256,192,149743,1,0,0:0:0:0:
256,192,150115,1,0,0:0:0:0:
256,192,150488,1,2,0:0:0:0:
256,192,151234,1,0,0:0:0:0:
256,192,151979,1,2,0:0:0:0:
256,192,152724,1,0,0:0:0:0:
256,192,153097,1,0,0:0:0:0:
256,192,153470,1,2,0:0:0:0:
256,192,154215,1,2,0:0:0:0:
256,192,154960,1,0,0:0:0:0:
256,192,155706,1,2,0:0:0:0:
256,192,157196,1,2,0:0:0:0:
256,192,157942,1,2,0:0:0:0:
256,192,158687,1,0,0:0:0:0:
256,192,159060,1,2,0:0:0:0:
256,192,159432,1,2,0:0:0:0:
256,192,159805,1,0,0:0:0:0:
256,192,160178,5,4,0:0:0:0:
256,192,160923,1,2,0:0:0:0:
256,192,161668,1,0,0:0:0:0:
256,192,162041,1,0,0:0:0:0:
256,192,162414,1,2,0:0:0:0:
256,192,163159,1,0,0:0:0:0:
256,192,163904,1,2,0:0:0:0:
256,192,164650,1,2,0:0:0:0:
256,192,165022,1,0,0:0:0:0:
256,192,165395,1,2,0:0:0:0:
256,192,165768,1,2,0:0:0:0:
256,192,166140,1,0,0:0:0:0:
256,192,167631,1,0,0:0:0:0:
256,192,168004,1,2,0:0:0:0:
256,192,168376,1,0,0:0:0:0:
256,192,169122,1,0,0:0:0:0:
256,192,169867,1,2,0:0:0:0:
256,192,170612,1,0,0:0:0:0:
256,192,171358,1,2,0:0:0:0:
256,192,171730,1,2,0:0:0:0:
256,192,172103,5,4,0:0:0:0:
256,192,172289,8,0,175084,0:0:0:0:
256,192,176575,5,2,0:0:0:0:
256,192,177134,1,2,0:0:0:0:
256,192,177693,1,0,0:0:0:0:
256,192,178066,1,2,0:0:0:0:
256,192,178252,8,0,181047,0:0:0:0:
256,192,184029,5,4,0:0:0:0:
256,192,184774,1,2,0:0:0:0:
256,192,185147,1,0,0:0:0:0:
256,192,185892,1,0,0:0:0:0:
256,192,186265,1,2,0:0:0:0:
256,192,187010,5,6,0:0:0:0:
256,192,187569,1,6,0:0:0:0:
256,192,188128,1,6,0:0:0:0:
256,192,188687,1,6,0:0:0:0:
256,192,189246,1,6,0:0:0:0:
256,192,189991,1,0,0:0:0:0:
256,192,190550,1,0,0:0:0:0:
256,192,191296,5,6,0:0:0:0:
256,192,192973,5,4,0:0:0:0:
256,192,194463,5,2,0:0:0:0:
256,192,195209,1,2,0:0:0:0:
256,192,195581,1,0,0:0:0:0:
256,192,195954,5,6,0:0:0:0:
256,192,197445,5,4,0:0:0:0:
256,192,198935,5,6,0:0:0:0:
256,192,200426,5,4,0:0:0:0:
256,192,201917,5,4,0:0:0:0:
256,192,202662,1,2,0:0:0:0:
256,192,203407,1,0,0:0:0:0:
256,192,203780,1,0,0:0:0:0:
256,192,204153,1,2,0:0:0:0:
256,192,204898,1,2,0:0:0:0:
256,192,205271,1,2,0:0:0:0:
256,192,205643,1,0,0:0:0:0:
256,192,206016,1,0,0:0:0:0:
256,192,206389,1,2,0:0:0:0:
256,192,207134,1,2,0:0:0:0:
256,192,207879,5,4,0:0:0:0:
256,192,208625,1,2,0:0:0:0:
256,192,209370,1,0,0:0:0:0:
256,192,209743,1,0,0:0:0:0:
256,192,210115,1,2,0:0:0:0:
256,192,210861,1,0,0:0:0:0:
256,192,211606,1,2,0:0:0:0:
256,192,212352,1,2,0:0:0:0:
256,192,212724,1,0,0:0:0:0:
256,192,213097,1,2,0:0:0:0:
256,192,213470,1,0,0:0:0:0:
256,192,213842,1,4,0:0:0:0:
256,192,215333,1,0,0:0:0:0:
256,192,216078,1,2,0:0:0:0:
256,192,216824,1,0,0:0:0:0:
256,192,218314,1,0,0:0:0:0:
256,192,218687,1,2,0:0:0:0:
256,192,219060,1,2,0:0:0:0:
256,192,219432,1,0,0:0:0:0:
256,192,219805,5,4,0:0:0:0:
256,192,220550,1,2,0:0:0:0:
256,192,221296,1,0,0:0:0:0:
256,192,221668,1,0,0:0:0:0:
256,192,222041,1,2,0:0:0:0:
256,192,222786,1,0,0:0:0:0:
256,192,223532,1,2,0:0:0:0:
256,192,224277,1,2,0:0:0:0:
256,192,224650,1,0,0:0:0:0:
256,192,225022,1,2,0:0:0:0:
256,192,225768,5,0,0:0:0:0:
256,192,227258,5,2,0:0:0:0:
256,192,228749,5,0,0:0:0:0:
256,192,230240,1,2,0:0:0:0:
256,192,231730,5,4,0:0:0:0:
256,192,232476,1,2,0:0:0:0:
256,192,233221,1,0,0:0:0:0:
256,192,233594,1,0,0:0:0:0:
256,192,233966,1,2,0:0:0:0:
256,192,234712,1,2,0:0:0:0:
256,192,235457,1,0,0:0:0:0:
256,192,236202,1,2,0:0:0:0:
256,192,236575,1,2,0:0:0:0:
256,192,236948,1,0,0:0:0:0:
256,192,237320,1,2,0:0:0:0:
256,192,237693,1,0,0:0:0:0:
256,192,239184,1,0,0:0:0:0:
256,192,239556,1,0,0:0:0:0:
256,192,239929,1,2,0:0:0:0:
256,192,240674,1,0,0:0:0:0:
256,192,241420,1,2,0:0:0:0:
256,192,242165,1,0,0:0:0:0:
256,192,242538,1,2,0:0:0:0:
256,192,242911,1,2,0:0:0:0:
256,192,243283,1,2,0:0:0:0:
256,192,243656,5,0,0:0:0:0:
256,192,243842,8,0,249619,0:0:0:0:
