osu file format v14

[General]
AudioFilename: Ray.mp3
AudioLeadIn: 0
PreviewTime: 67848
Countdown: 0
SampleSet: Normal
StackLeniency: 0.7
Mode: 1
LetterboxInBreaks: 0
WidescreenStoryboard: 0

[Editor]
Bookmarks: 26016,36451,37942,49867,60302,69242,99056,105022,115457,116948,130364,139308,148248,178062,184025,184029,187010,201913,201917,207879,231730,242631,243652,249615,252782
DistanceSpacing: 1.2
BeatDivisor: 4
GridSize: 32
TimelineZoom: 2.700001

[Metadata]
Title:Kimi to Ita Sora
TitleUnicode:君といた空
Artist:Ray
ArtistUnicode:Ray
Creator:Smallwu
Version:Firmament
Source:蒼の彼方のフォーリズム
Tags:katacheh yassu- Sprite Ao no Kanata no Four Rhythm Beyond the sky into the firmament Aokana a-gain Ending Full Anime visual novel eroge
BeatmapID:1035896
BeatmapSetID:485787

[Difficulty]
HPDrainRate:6
CircleSize:6.5
OverallDifficulty:6
ApproachRate:8
SliderMultiplier:1.4
SliderTickRate:1

[Events]
//Background and Video events
0,0,"background.jpg",0,75
//Break Periods
//Storyboard Layer 0 (Background)
//Storyboard Layer 1 (Fail)
//Storyboard Layer 2 (Pass)
//Storyboard Layer 3 (Foreground)
//Storyboard Sound Samples

[TimingPoints]
675,372.670807453416,4,1,0,30,1,0
675,-133.333333333333,4,1,0,30,0,0
8128,-125,4,1,0,30,0,0
9619,-117.647058823529,4,1,0,30,0,0
11109,-111.111111111111,4,1,0,30,0,0
13904,-100,4,1,0,70,0,0
66451,-99.009900990099,4,1,0,70,0,0
66544,-98.0392156862745,4,1,0,70,0,0
66637,-97.0873786407767,4,1,0,70,0,0
66824,-95.2380952380952,4,1,0,70,0,0
67010,-94.3396226415094,4,1,0,70,0,0
67103,-93.4579439252336,4,1,0,70,0,0
67196,-92.5925925925926,4,1,0,70,0,0
67383,-90.9090909090909,4,1,0,70,0,0
67569,-86.9565217391304,4,1,0,70,0,0
69246,-90.9090909090909,4,1,0,85,0,1
93097,-90.9090909090909,4,1,0,85,0,0
96078,-95.2380952380952,4,1,0,85,0,0
99060,-100,4,1,0,85,0,0
104836,-100,4,1,0,70,0,0
144991,-99.009900990099,4,1,0,70,0,0
145084,-98.0392156862745,4,1,0,70,0,0
145178,-97.0873786407767,4,1,0,70,0,0
145271,-96.1538461538461,4,1,0,70,0,0
145457,-94.3396226415094,4,1,0,70,0,0
145550,-93.4579439252336,4,1,0,70,0,0
145643,-92.5925925925926,4,1,0,70,0,0
145830,-90.9090909090909,4,1,0,70,0,0
146016,-90.0900900900901,4,1,0,70,0,0
146109,-89.2857142857143,4,1,0,70,0,0
146202,-88.4955752212389,4,1,0,70,0,0
146389,-86.9565217391304,4,1,0,70,0,0
146575,-85.4700854700855,4,1,0,70,0,0
148252,-90.9090909090909,4,1,0,85,0,1
172103,-90.9090909090909,4,1,0,85,0,0
177786,-91.743119266055,4,1,0,85,0,0
177879,-92.5925925925926,4,1,0,85,0,0
177973,-93.4579439252336,4,1,0,85,0,0
178066,-94.3396226415094,4,1,0,85,0,0
190084,-93.4579439252336,4,1,0,85,0,0
190178,-92.5925925925926,4,1,0,85,0,0
190364,-90.9090909090909,4,1,0,85,0,0
190550,-90.0900900900901,4,1,0,85,0,0
190643,-89.2857142857143,4,1,0,85,0,0
190737,-88.4955752212389,4,1,0,85,0,0
190923,-86.9565217391304,4,1,0,85,0,0
191023,-85.4700854700855,4,1,0,85,0,0
191296,-83.3333333333333,4,1,0,85,0,0
194463,-86.9565217391304,4,1,0,50,0,0
195954,-86.9565217391304,4,1,0,85,0,0
197445,-88.4955752212389,4,1,0,85,0,0
198935,-90.0900900900901,4,1,0,85,0,0
200426,-90.9090909090909,4,1,0,85,0,0
201917,-90.9090909090909,4,1,0,85,0,1
243656,-90.9090909090909,4,1,0,85,0,0
243749,-90.9090909090909,4,1,0,30,0,0

[HitObjects]
256,192,675,5,2,0:0:0:0:
256,192,2165,1,0,0:0:0:0:
256,192,2724,1,2,0:0:0:0:
256,192,3283,1,2,0:0:0:0:
256,192,3656,1,0,0:0:0:0:
256,192,4774,1,0,0:0:0:0:
256,192,5147,1,2,0:0:0:0:
256,192,5706,1,2,0:0:0:0:
256,192,6265,1,0,0:0:0:0:
256,192,6637,1,2,0:0:0:0:
256,192,8128,1,0,0:0:0:0:
256,192,9619,1,2,0:0:0:0:
256,192,11109,1,2,0:0:0:0:
256,192,12600,8,0,13718,0:0:0:0:
256,192,14091,5,4,0:0:0:0:
256,192,14463,1,2,0:0:0:0:
256,192,15209,1,2,0:0:0:0:
256,192,15581,1,0,0:0:0:0:
256,192,15954,1,2,0:0:0:0:
256,192,16699,1,2,0:0:0:0:
256,192,17072,1,4,0:0:0:0:
256,192,17445,1,2,0:0:0:0:
256,192,18190,1,2,0:0:0:0:
256,192,18563,1,0,0:0:0:0:
256,192,18935,1,2,0:0:0:0:
256,192,19681,1,2,0:0:0:0:
256,192,20053,5,4,0:0:0:0:
256,192,20426,1,2,0:0:0:0:
256,192,20799,1,0,0:0:0:0:
256,192,20985,1,0,0:0:0:0:
256,192,21171,1,2,0:0:0:0:
256,192,21544,1,0,0:0:0:0:
256,192,21730,1,0,0:0:0:0:
256,192,21917,1,2,0:0:0:0:
256,192,22103,1,0,0:0:0:0:
256,192,22196,1,0,0:0:0:0:
256,192,22289,1,0,0:0:0:0:
256,192,22476,1,0,0:0:0:0:
256,192,22662,1,2,0:0:0:0:
256,192,23035,1,0,0:0:0:0:
256,192,23128,1,0,0:0:0:0:
256,192,23221,1,0,0:0:0:0:
256,192,23407,1,2,0:0:0:0:
256,192,23594,1,0,0:0:0:0:
256,192,23687,1,0,0:0:0:0:
256,192,23780,1,2,0:0:0:0:
256,192,23873,1,0,0:0:0:0:
256,192,23966,1,0,0:0:0:0:
256,192,24060,1,0,0:0:0:0:
256,192,24153,1,2,0:0:0:0:
256,192,24339,1,0,0:0:0:0:
256,192,24525,1,0,0:0:0:0:
256,192,24619,1,0,0:0:0:0:
256,192,24712,1,2,0:0:0:0:
256,192,24805,1,2,0:0:0:0:
256,192,24898,1,0,0:0:0:0:
256,192,25084,1,2,0:0:0:0:
256,192,25178,1,2,0:0:0:0:
256,192,25271,1,0,0:0:0:0:
256,192,25457,1,2,0:0:0:0:
256,192,25550,1,2,0:0:0:0:
256,192,25643,1,0,0:0:0:0:
256,192,25737,1,2,0:0:0:0:
256,192,25830,1,2,0:0:0:0:
256,192,25923,1,2,0:0:0:0:
256,192,26016,5,0,0:0:0:0:
256,192,26389,1,2,0:0:0:0:
256,192,26575,1,2,0:0:0:0:
256,192,26761,1,0,0:0:0:0:
256,192,26948,1,0,0:0:0:0:
256,192,27134,1,2,0:0:0:0:
256,192,27320,1,2,0:0:0:0:
256,192,27507,1,0,0:0:0:0:
256,192,27879,1,2,0:0:0:0:
256,192,28066,1,0,0:0:0:0:
256,192,28438,1,0,0:0:0:0:
256,192,28625,1,2,0:0:0:0:
256,192,28997,1,0,0:0:0:0:
256,192,29370,1,2,0:0:0:0:
256,192,29556,1,0,0:0:0:0:
256,192,29743,1,2,0:0:0:0:
256,192,29929,1,2,0:0:0:0:
256,192,30115,1,0,0:0:0:0:
256,192,30302,1,2,0:0:0:0:
256,192,30488,1,0,0:0:0:0:
256,192,30861,1,2,0:0:0:0:
256,192,31047,1,0,0:0:0:0:
256,192,31420,1,0,0:0:0:0:
256,192,31606,1,2,0:0:0:0:
256,192,31979,1,0,0:0:0:0:
256,192,32352,1,2,0:0:0:0:
256,192,32538,1,2,0:0:0:0:
256,192,32724,1,0,0:0:0:0:
256,192,32911,1,2,0:0:0:0:
256,192,33097,1,0,0:0:0:0:
256,192,33283,1,2,0:0:0:0:
256,192,33470,1,2,0:0:0:0:
256,192,33842,1,0,0:0:0:0:
256,192,34029,1,0,0:0:0:0:
256,192,34401,1,0,0:0:0:0:
256,192,34588,1,2,0:0:0:0:
256,192,34960,1,0,0:0:0:0:
256,192,35333,1,2,0:0:0:0:
256,192,35519,1,0,0:0:0:0:
256,192,35892,1,0,0:0:0:0:
256,192,36078,1,2,0:0:0:0:
256,192,36451,5,0,0:0:0:0:
256,192,36544,1,2,0:0:0:0:
256,192,36730,1,2,0:0:0:0:
256,192,36824,1,0,0:0:0:0:
256,192,36917,1,2,0:0:0:0:
256,192,37103,1,2,0:0:0:0:
256,192,37196,1,0,0:0:0:0:
256,192,37289,1,2,0:0:0:0:
256,192,37383,1,2,0:0:0:0:
256,192,37476,1,2,0:0:0:0:
256,192,37569,1,0,0:0:0:0:
256,192,37662,1,2,0:0:0:0:
256,192,37755,1,2,0:0:0:0:
256,192,37848,1,2,0:0:0:0:
256,192,37942,5,0,0:0:0:0:
256,192,38314,1,2,0:0:0:0:
256,192,38501,1,0,0:0:0:0:
256,192,38687,1,0,0:0:0:0:
256,192,38873,1,0,0:0:0:0:
256,192,38966,1,0,0:0:0:0:
256,192,39060,1,2,0:0:0:0:
256,192,39246,1,2,0:0:0:0:
256,192,39432,1,0,0:0:0:0:
256,192,39805,1,2,0:0:0:0:
256,192,39991,1,0,0:0:0:0:
256,192,40364,1,0,0:0:0:0:
256,192,40550,1,2,0:0:0:0:
256,192,40923,1,0,0:0:0:0:
256,192,41296,1,2,0:0:0:0:
256,192,41482,1,0,0:0:0:0:
256,192,41668,1,2,0:0:0:0:
256,192,41855,1,0,0:0:0:0:
256,192,41948,1,0,0:0:0:0:
256,192,42041,1,2,0:0:0:0:
256,192,42227,1,2,0:0:0:0:
256,192,42414,1,0,0:0:0:0:
256,192,42786,1,2,0:0:0:0:
256,192,42973,1,2,0:0:0:0:
256,192,43345,1,0,0:0:0:0:
256,192,43532,1,2,0:0:0:0:
256,192,43718,1,2,0:0:0:0:
256,192,43811,1,2,0:0:0:0:
256,192,43904,1,0,0:0:0:0:
256,192,44277,1,2,0:0:0:0:
256,192,44463,1,0,0:0:0:0:
256,192,44556,1,0,0:0:0:0:
256,192,44650,1,0,0:0:0:0:
256,192,44836,1,0,0:0:0:0:
256,192,45022,1,2,0:0:0:0:
256,192,45209,1,0,0:0:0:0:
256,192,45395,1,2,0:0:0:0:
256,192,45768,1,2,0:0:0:0:
256,192,45954,1,0,0:0:0:0:
256,192,46327,1,0,0:0:0:0:
256,192,46513,1,2,0:0:0:0:
256,192,46699,1,0,0:0:0:0:
256,192,46793,1,0,0:0:0:0:
256,192,46886,1,2,0:0:0:0:
256,192,47258,1,2,0:0:0:0:
256,192,47445,1,0,0:0:0:0:
256,192,47817,1,0,0:0:0:0:
256,192,48004,1,2,0:0:0:0:
256,192,48190,1,2,0:0:0:0:
256,192,48283,1,0,0:0:0:0:
256,192,48376,1,2,0:0:0:0:
256,192,48563,1,0,0:0:0:0:
256,192,48749,1,2,0:0:0:0:
256,192,48935,1,2,0:0:0:0:
256,192,49308,1,0,0:0:0:0:
256,192,49494,1,2,0:0:0:0:
256,192,49867,5,0,0:0:0:0:
256,192,50053,1,2,0:0:0:0:
256,192,50147,1,0,0:0:0:0:
256,192,50240,1,2,0:0:0:0:
256,192,50426,1,0,0:0:0:0:
256,192,50612,1,2,0:0:0:0:
256,192,50706,1,2,0:0:0:0:
256,192,50799,1,2,0:0:0:0:
256,192,50892,1,2,0:0:0:0:
256,192,50985,1,0,0:0:0:0:
256,192,51078,1,0,0:0:0:0:
256,192,51171,1,0,0:0:0:0:
256,192,51265,1,0,0:0:0:0:
256,192,51358,5,0,0:0:0:0:
256,192,51730,5,6,0:0:0:0:
256,192,52103,1,0,0:0:0:0:
256,192,52289,1,0,0:0:0:0:
256,192,52476,1,2,0:0:0:0:
256,192,52662,1,4,0:0:0:0:
256,192,53035,1,0,0:0:0:0:
256,192,53221,1,0,0:0:0:0:
256,192,53594,1,2,0:0:0:0:
256,192,53780,1,0,0:0:0:0:
256,192,53966,1,2,0:0:0:0:
256,192,54339,1,0,0:0:0:0:
256,192,54712,1,6,0:0:0:0:
256,192,55084,1,0,0:0:0:0:
256,192,55271,1,2,0:0:0:0:
256,192,55457,1,2,0:0:0:0:
256,192,55643,1,4,0:0:0:0:
256,192,56016,1,0,0:0:0:0:
256,192,56202,1,2,0:0:0:0:
256,192,56389,1,0,0:0:0:0:
256,192,56482,1,2,0:0:0:0:
256,192,56575,1,0,0:0:0:0:
256,192,56761,1,0,0:0:0:0:
256,192,56948,1,2,0:0:0:0:
256,192,57134,1,2,0:0:0:0:
256,192,57320,1,0,0:0:0:0:
256,192,57693,1,4,0:0:0:0:
256,192,58066,1,2,0:0:0:0:
256,192,58252,1,0,0:0:0:0:
256,192,58438,1,2,0:0:0:0:
256,192,58625,1,6,0:0:0:0:
256,192,58997,1,0,0:0:0:0:
256,192,59184,1,2,0:0:0:0:
256,192,59370,1,2,0:0:0:0:
256,192,59556,1,0,0:0:0:0:
256,192,59929,1,2,0:0:0:0:
256,192,60302,5,0,0:0:0:0:
256,192,60674,1,0,0:0:0:0:
256,192,61047,1,2,0:0:0:0:
256,192,61420,1,0,0:0:0:0:
256,192,61606,1,2,0:0:0:0:
256,192,61979,1,2,0:0:0:0:
256,192,62165,1,0,0:0:0:0:
256,192,62352,1,0,0:0:0:0:
256,192,62445,1,0,0:0:0:0:
256,192,62538,1,2,0:0:0:0:
256,192,62724,1,0,0:0:0:0:
256,192,62911,1,2,0:0:0:0:
256,192,63283,5,0,0:0:0:0:
256,192,63656,1,0,0:0:0:0:
256,192,63842,1,2,0:0:0:0:
256,192,64215,1,0,0:0:0:0:
256,192,64401,1,0,0:0:0:0:
256,192,64588,1,2,0:0:0:0:
256,192,64774,1,0,0:0:0:0:
256,192,65147,1,0,0:0:0:0:
256,192,65333,1,0,0:0:0:0:
256,192,65519,1,2,0:0:0:0:
256,192,65706,1,0,0:0:0:0:
256,192,65799,1,0,0:0:0:0:
256,192,65892,1,2,0:0:0:0:
256,192,66078,1,0,0:0:0:0:
256,192,66265,1,2,0:0:0:0:
256,192,66451,1,0,0:0:0:0:
256,192,66544,1,0,0:0:0:0:
256,192,66637,1,0,0:0:0:0:
256,192,66824,1,2,0:0:0:0:
256,192,67010,1,0,0:0:0:0:
256,192,67103,1,0,0:0:0:0:
256,192,67196,1,0,0:0:0:0:
256,192,67383,1,0,0:0:0:0:
256,192,67569,1,6,0:0:0:0:
256,192,69246,5,4,0:0:0:0:
256,192,69432,1,2,0:0:0:0:
256,192,69619,1,0,0:0:0:0:
256,192,69805,1,2,0:0:0:0:
256,192,69898,1,2,0:0:0:0:
256,192,69991,1,0,0:0:0:0:
256,192,70178,1,2,0:0:0:0:
256,192,70364,1,0,0:0:0:0:
256,192,70737,1,0,0:0:0:0:
256,192,70923,1,2,0:0:0:0:
256,192,71109,1,0,0:0:0:0:
256,192,71296,1,2,0:0:0:0:
256,192,71389,1,2,0:0:0:0:
256,192,71482,1,0,0:0:0:0:
256,192,71668,1,2,0:0:0:0:
256,192,71855,1,0,0:0:0:0:
256,192,71948,1,0,0:0:0:0:
256,192,72041,1,2,0:0:0:0:
256,192,72134,1,2,0:0:0:0:
256,192,72227,1,0,0:0:0:0:
256,192,72600,1,0,0:0:0:0:
256,192,72786,1,2,0:0:0:0:
256,192,72973,1,0,0:0:0:0:
256,192,73159,1,2,0:0:0:0:
256,192,73252,1,2,0:0:0:0:
256,192,73345,1,0,0:0:0:0:
256,192,73532,1,2,0:0:0:0:
256,192,73718,1,0,0:0:0:0:
256,192,74091,1,0,0:0:0:0:
256,192,74277,1,2,0:0:0:0:
256,192,74463,1,0,0:0:0:0:
256,192,74650,1,2,0:0:0:0:
256,192,74743,1,0,0:0:0:0:
256,192,74836,1,2,0:0:0:0:
256,192,74929,1,2,0:0:0:0:
256,192,75022,1,2,0:0:0:0:
256,192,75115,1,2,0:0:0:0:
256,192,75209,1,0,0:0:0:0:
256,192,75581,1,2,0:0:0:0:
256,192,75768,1,0,0:0:0:0:
256,192,75861,1,0,0:0:0:0:
256,192,75954,1,0,0:0:0:0:
256,192,76140,1,0,0:0:0:0:
256,192,76327,1,2,0:0:0:0:
256,192,76513,1,2,0:0:0:0:
256,192,76699,1,0,0:0:0:0:
256,192,77072,1,2,0:0:0:0:
256,192,77258,1,0,0:0:0:0:
256,192,77352,1,2,0:0:0:0:
256,192,77445,1,0,0:0:0:0:
256,192,77631,1,2,0:0:0:0:
256,192,77817,1,2,0:0:0:0:
256,192,78004,1,2,0:0:0:0:
256,192,78097,1,2,0:0:0:0:
256,192,78190,1,0,0:0:0:0:
256,192,78563,1,2,0:0:0:0:
256,192,78749,1,0,0:0:0:0:
256,192,78935,1,2,0:0:0:0:
256,192,79122,1,0,0:0:0:0:
256,192,79215,1,0,0:0:0:0:
256,192,79308,1,2,0:0:0:0:
256,192,79494,1,0,0:0:0:0:
256,192,79681,1,0,0:0:0:0:
256,192,79867,1,2,0:0:0:0:
256,192,80053,1,2,0:0:0:0:
256,192,80240,1,0,0:0:0:0:
256,192,80333,1,0,0:0:0:0:
256,192,80426,1,2,0:0:0:0:
256,192,80612,1,0,0:0:0:0:
256,192,80706,1,0,0:0:0:0:
256,192,80799,1,2,0:0:0:0:
256,192,80892,1,2,0:0:0:0:
256,192,80985,1,0,0:0:0:0:
256,192,81171,5,4,0:0:0:0:
256,192,81358,1,2,0:0:0:0:
256,192,81544,1,0,0:0:0:0:
256,192,81730,1,2,0:0:0:0:
256,192,81824,1,2,0:0:0:0:
256,192,81917,1,0,0:0:0:0:
256,192,82103,1,2,0:0:0:0:
256,192,82289,1,0,0:0:0:0:
256,192,82662,1,0,0:0:0:0:
256,192,82848,1,2,0:0:0:0:
256,192,83035,1,0,0:0:0:0:
256,192,83221,1,2,0:0:0:0:
256,192,83314,1,2,0:0:0:0:
256,192,83407,1,0,0:0:0:0:
256,192,83594,1,2,0:0:0:0:
256,192,83780,1,0,0:0:0:0:
256,192,83873,1,0,0:0:0:0:
256,192,83966,1,2,0:0:0:0:
256,192,84060,1,0,0:0:0:0:
256,192,84153,1,2,0:0:0:0:
256,192,84525,1,0,0:0:0:0:
256,192,84712,1,2,0:0:0:0:
256,192,84898,1,0,0:0:0:0:
256,192,85084,1,2,0:0:0:0:
256,192,85178,1,2,0:0:0:0:
256,192,85271,1,0,0:0:0:0:
256,192,85457,1,0,0:0:0:0:
256,192,85643,1,2,0:0:0:0:
256,192,85830,1,0,0:0:0:0:
256,192,85923,1,0,0:0:0:0:
256,192,86016,1,2,0:0:0:0:
256,192,86202,1,2,0:0:0:0:
256,192,86389,1,0,0:0:0:0:
256,192,86482,1,0,0:0:0:0:
256,192,86575,1,2,0:0:0:0:
256,192,86761,1,0,0:0:0:0:
256,192,86948,1,2,0:0:0:0:
256,192,87041,1,2,0:0:0:0:
256,192,87134,1,0,0:0:0:0:
256,192,87320,1,0,0:0:0:0:
256,192,87507,1,2,0:0:0:0:
256,192,87693,1,0,0:0:0:0:
256,192,88066,1,0,0:0:0:0:
256,192,88252,1,2,0:0:0:0:
256,192,88438,1,0,0:0:0:0:
256,192,88811,1,0,0:0:0:0:
256,192,88997,1,2,0:0:0:0:
256,192,89184,1,2,0:0:0:0:
256,192,89277,1,2,0:0:0:0:
256,192,89370,1,0,0:0:0:0:
256,192,89556,1,0,0:0:0:0:
256,192,89743,1,2,0:0:0:0:
256,192,90115,1,0,0:0:0:0:
256,192,90302,1,0,0:0:0:0:
256,192,90488,1,2,0:0:0:0:
256,192,90674,1,0,0:0:0:0:
256,192,90768,1,0,0:0:0:0:
256,192,90861,1,0,0:0:0:0:
256,192,91047,1,0,0:0:0:0:
256,192,91234,1,2,0:0:0:0:
256,192,91420,1,0,0:0:0:0:
256,192,91606,1,0,0:0:0:0:
256,192,91699,1,0,0:0:0:0:
256,192,91793,1,2,0:0:0:0:
256,192,91886,1,0,0:0:0:0:
256,192,91979,1,2,0:0:0:0:
256,192,92165,1,0,0:0:0:0:
256,192,92352,1,2,0:0:0:0:
256,192,92445,1,2,0:0:0:0:
256,192,92538,1,0,0:0:0:0:
256,192,92724,1,2,0:0:0:0:
256,192,92817,1,2,0:0:0:0:
256,192,92911,1,2,0:0:0:0:
256,192,93004,1,2,0:0:0:0:
256,192,93097,5,0,0:0:0:0:
256,192,93283,1,2,0:0:0:0:
256,192,93470,1,0,0:0:0:0:
256,192,93656,1,2,0:0:0:0:
256,192,94029,1,2,0:0:0:0:
256,192,94215,1,0,0:0:0:0:
256,192,94401,1,2,0:0:0:0:
256,192,94494,1,2,0:0:0:0:
256,192,94588,1,0,0:0:0:0:
256,192,94774,1,2,0:0:0:0:
256,192,94960,1,0,0:0:0:0:
256,192,95147,1,2,0:0:0:0:
256,192,95240,1,0,0:0:0:0:
256,192,95333,1,2,0:0:0:0:
256,192,95519,1,0,0:0:0:0:
256,192,95706,1,2,0:0:0:0:
256,192,96078,1,2,0:0:0:0:
256,192,96265,1,0,0:0:0:0:
256,192,96451,1,2,0:0:0:0:
256,192,96637,1,2,0:0:0:0:
256,192,97010,1,2,0:0:0:0:
256,192,97196,1,0,0:0:0:0:
256,192,97383,1,2,0:0:0:0:
256,192,97476,1,2,0:0:0:0:
256,192,97569,1,0,0:0:0:0:
256,192,97755,1,2,0:0:0:0:
256,192,97942,1,0,0:0:0:0:
256,192,98128,1,0,0:0:0:0:
256,192,98221,1,2,0:0:0:0:
256,192,98314,1,0,0:0:0:0:
256,192,98501,1,0,0:0:0:0:
256,192,98687,1,2,0:0:0:0:
256,192,99060,5,0,0:0:0:0:
256,192,99246,1,0,0:0:0:0:
256,192,99432,1,2,0:0:0:0:
256,192,99619,1,0,0:0:0:0:
256,192,99991,1,2,0:0:0:0:
256,192,100178,1,0,0:0:0:0:
256,192,100364,1,2,0:0:0:0:
256,192,100737,1,2,0:0:0:0:
256,192,100923,1,0,0:0:0:0:
256,192,101109,1,2,0:0:0:0:
256,192,101202,1,2,0:0:0:0:
256,192,101296,1,0,0:0:0:0:
256,192,101482,1,0,0:0:0:0:
256,192,101668,1,2,0:0:0:0:
256,192,102041,1,0,0:0:0:0:
256,192,102227,1,2,0:0:0:0:
256,192,102414,1,2,0:0:0:0:
256,192,102600,1,0,0:0:0:0:
256,192,102786,1,2,0:0:0:0:
256,192,102973,1,2,0:0:0:0:
256,192,103066,1,0,0:0:0:0:
256,192,103159,1,2,0:0:0:0:
256,192,103345,1,0,0:0:0:0:
256,192,103532,1,2,0:0:0:0:
256,192,103718,1,0,0:0:0:0:
256,192,103904,1,2,0:0:0:0:
256,192,103997,1,2,0:0:0:0:
256,192,104091,1,2,0:0:0:0:
256,192,104184,1,2,0:0:0:0:
256,192,104277,1,0,0:0:0:0:
256,192,104463,1,0,0:0:0:0:
256,192,104650,1,2,0:0:0:0:
256,192,105022,5,4,0:0:0:0:
256,192,105395,1,0,0:0:0:0:
256,192,105581,1,2,0:0:0:0:
256,192,105768,1,2,0:0:0:0:
256,192,105954,1,2,0:0:0:0:
256,192,106140,1,0,0:0:0:0:
256,192,106327,1,0,0:0:0:0:
256,192,106513,1,2,0:0:0:0:
256,192,106886,1,0,0:0:0:0:
256,192,107072,1,0,0:0:0:0:
256,192,107445,1,0,0:0:0:0:
256,192,107631,1,2,0:0:0:0:
256,192,108004,1,0,0:0:0:0:
256,192,108376,1,2,0:0:0:0:
256,192,108563,1,0,0:0:0:0:
256,192,108749,1,2,0:0:0:0:
256,192,108935,1,0,0:0:0:0:
256,192,109122,1,0,0:0:0:0:
256,192,109308,1,2,0:0:0:0:
256,192,109494,1,0,0:0:0:0:
256,192,109867,1,2,0:0:0:0:
256,192,110053,1,2,0:0:0:0:
256,192,110426,1,0,0:0:0:0:
256,192,110612,1,2,0:0:0:0:
256,192,110985,1,0,0:0:0:0:
256,192,111358,1,2,0:0:0:0:
256,192,111544,1,2,0:0:0:0:
256,192,111730,1,0,0:0:0:0:
256,192,111917,1,2,0:0:0:0:
256,192,112103,1,2,0:0:0:0:
256,192,112289,1,0,0:0:0:0:
256,192,112476,1,2,0:0:0:0:
256,192,112848,1,2,0:0:0:0:
256,192,113035,1,0,0:0:0:0:
256,192,113407,1,0,0:0:0:0:
256,192,113594,1,2,0:0:0:0:
256,192,113966,1,0,0:0:0:0:
256,192,114339,1,2,0:0:0:0:
256,192,114525,1,0,0:0:0:0:
256,192,114898,1,0,0:0:0:0:
256,192,115084,1,2,0:0:0:0:
256,192,115457,5,0,0:0:0:0:
256,192,115550,1,2,0:0:0:0:
256,192,115737,1,2,0:0:0:0:
256,192,115830,1,2,0:0:0:0:
256,192,115923,1,0,0:0:0:0:
256,192,116016,1,2,0:0:0:0:
256,192,116202,1,0,0:0:0:0:
256,192,116296,1,0,0:0:0:0:
256,192,116389,1,2,0:0:0:0:
256,192,116575,1,2,0:0:0:0:
256,192,116668,1,2,0:0:0:0:
256,192,116761,1,2,0:0:0:0:
256,192,116855,1,2,0:0:0:0:
256,192,116948,5,0,0:0:0:0:
256,192,117134,1,0,0:0:0:0:
256,192,117320,1,2,0:0:0:0:
256,192,117507,1,2,0:0:0:0:
256,192,117693,1,0,0:0:0:0:
256,192,117879,1,0,0:0:0:0:
256,192,117973,1,0,0:0:0:0:
256,192,118066,1,2,0:0:0:0:
256,192,118252,1,2,0:0:0:0:
256,192,118438,1,0,0:0:0:0:
256,192,118811,1,2,0:0:0:0:
256,192,118997,1,0,0:0:0:0:
256,192,119370,1,0,0:0:0:0:
256,192,119556,1,2,0:0:0:0:
256,192,119929,1,0,0:0:0:0:
256,192,120115,1,0,0:0:0:0:
256,192,120302,1,2,0:0:0:0:
256,192,120488,1,0,0:0:0:0:
256,192,120674,1,2,0:0:0:0:
256,192,120861,1,2,0:0:0:0:
256,192,120954,1,0,0:0:0:0:
256,192,121047,1,2,0:0:0:0:
256,192,121234,1,2,0:0:0:0:
256,192,121420,1,0,0:0:0:0:
256,192,121793,1,2,0:0:0:0:
256,192,121979,1,2,0:0:0:0:
256,192,122352,1,0,0:0:0:0:
256,192,122538,1,2,0:0:0:0:
256,192,122724,1,0,0:0:0:0:
256,192,122817,1,0,0:0:0:0:
256,192,122911,1,2,0:0:0:0:
256,192,123283,1,2,0:0:0:0:
256,192,123470,1,2,0:0:0:0:
256,192,123656,1,0,0:0:0:0:
256,192,123842,1,0,0:0:0:0:
256,192,123935,1,0,0:0:0:0:
256,192,124029,1,2,0:0:0:0:
256,192,124215,1,2,0:0:0:0:
256,192,124401,1,0,0:0:0:0:
256,192,124774,1,2,0:0:0:0:
256,192,124960,1,0,0:0:0:0:
256,192,125333,1,0,0:0:0:0:
256,192,125519,1,2,0:0:0:0:
256,192,125892,1,0,0:0:0:0:
256,192,126078,1,0,0:0:0:0:
256,192,126265,1,2,0:0:0:0:
256,192,126451,1,0,0:0:0:0:
256,192,126544,1,0,0:0:0:0:
256,192,126637,1,0,0:0:0:0:
256,192,126824,1,0,0:0:0:0:
256,192,127010,1,2,0:0:0:0:
256,192,127383,1,2,0:0:0:0:
256,192,127569,1,0,0:0:0:0:
256,192,127755,1,0,0:0:0:0:
256,192,127942,1,2,0:0:0:0:
256,192,128035,1,2,0:0:0:0:
256,192,128128,1,2,0:0:0:0:
256,192,128314,1,0,0:0:0:0:
256,192,128501,1,2,0:0:0:0:
256,192,128873,1,0,0:0:0:0:
256,192,128966,1,0,0:0:0:0:
256,192,129060,1,2,0:0:0:0:
256,192,129153,1,2,0:0:0:0:
256,192,129246,1,0,0:0:0:0:
256,192,129432,1,0,0:0:0:0:
256,192,129619,1,2,0:0:0:0:
256,192,129712,1,2,0:0:0:0:
256,192,129805,1,0,0:0:0:0:
256,192,129898,1,0,0:0:0:0:
256,192,129991,1,2,0:0:0:0:
256,192,130084,1,2,0:0:0:0:
256,192,130178,1,0,0:0:0:0:
256,192,130271,1,0,0:0:0:0:
256,192,130364,5,0,0:0:0:0:
256,192,130737,5,6,0:0:0:0:
256,192,131109,1,0,0:0:0:0:
256,192,131296,1,2,0:0:0:0:
256,192,131482,1,0,0:0:0:0:
256,192,131668,1,4,0:0:0:0:
256,192,132041,1,0,0:0:0:0:
256,192,132227,1,2,0:0:0:0:
256,192,132414,1,0,0:0:0:0:
256,192,132507,1,0,0:0:0:0:
256,192,132600,1,2,0:0:0:0:
256,192,132786,1,0,0:0:0:0:
256,192,132973,1,2,0:0:0:0:
256,192,133345,1,0,0:0:0:0:
256,192,133718,1,6,0:0:0:0:
256,192,134091,1,0,0:0:0:0:
256,192,134277,1,2,0:0:0:0:
256,192,134463,1,2,0:0:0:0:
256,192,134650,1,4,0:0:0:0:
256,192,135022,1,0,0:0:0:0:
256,192,135209,1,2,0:0:0:0:
256,192,135395,1,0,0:0:0:0:
256,192,135488,1,0,0:0:0:0:
256,192,135581,1,2,0:0:0:0:
256,192,135768,1,0,0:0:0:0:
256,192,135954,1,2,0:0:0:0:
256,192,136140,1,2,0:0:0:0:
256,192,136234,1,2,0:0:0:0:
256,192,136327,1,0,0:0:0:0:
256,192,136699,1,4,0:0:0:0:
256,192,137072,1,0,0:0:0:0:
256,192,137258,1,2,0:0:0:0:
256,192,137445,1,0,0:0:0:0:
256,192,137631,1,6,0:0:0:0:
256,192,138004,1,0,0:0:0:0:
256,192,138190,1,2,0:0:0:0:
256,192,138376,1,2,0:0:0:0:
256,192,138470,1,2,0:0:0:0:
256,192,138563,1,2,0:0:0:0:
256,192,138749,1,0,0:0:0:0:
256,192,138935,1,2,0:0:0:0:
256,192,139308,5,0,0:0:0:0:
256,192,139681,1,0,0:0:0:0:
256,192,140053,1,2,0:0:0:0:
256,192,140426,1,0,0:0:0:0:
256,192,140612,1,2,0:0:0:0:
256,192,140985,1,2,0:0:0:0:
256,192,141171,1,0,0:0:0:0:
256,192,141358,1,0,0:0:0:0:
256,192,141544,1,2,0:0:0:0:
256,192,141917,1,2,0:0:0:0:
256,192,142103,1,2,0:0:0:0:
256,192,142289,1,0,0:0:0:0:
256,192,142476,1,0,0:0:0:0:
256,192,142662,1,0,0:0:0:0:
256,192,142848,1,2,0:0:0:0:
256,192,143221,1,0,0:0:0:0:
256,192,143407,1,0,0:0:0:0:
256,192,143501,1,0,0:0:0:0:
256,192,143594,1,2,0:0:0:0:
256,192,143780,1,0,0:0:0:0:
256,192,143966,1,0,0:0:0:0:
256,192,144153,1,2,0:0:0:0:
256,192,144339,1,0,0:0:0:0:
256,192,144432,1,0,0:0:0:0:
256,192,144525,1,2,0:0:0:0:
256,192,144712,1,0,0:0:0:0:
256,192,144898,1,2,0:0:0:0:
256,192,144991,1,2,0:0:0:0:
256,192,145084,1,2,0:0:0:0:
256,192,145178,1,2,0:0:0:0:
256,192,145271,1,0,0:0:0:0:
256,192,145457,1,2,0:0:0:0:
256,192,145550,1,0,0:0:0:0:
256,192,145643,1,0,0:0:0:0:
256,192,145830,1,2,0:0:0:0:
256,192,146016,1,2,0:0:0:0:
256,192,146109,1,2,0:0:0:0:
256,192,146202,1,0,0:0:0:0:
256,192,146389,1,0,0:0:0:0:
256,192,146575,1,6,0:0:0:0:
256,192,148252,5,4,0:0:0:0:
256,192,148438,1,2,0:0:0:0:
256,192,148625,1,0,0:0:0:0:
256,192,148811,1,2,0:0:0:0:
256,192,148904,1,2,0:0:0:0:
256,192,148997,1,0,0:0:0:0:
256,192,149184,1,2,0:0:0:0:
256,192,149370,1,0,0:0:0:0:
256,192,149463,1,0,0:0:0:0:
256,192,149556,1,2,0:0:0:0:
256,192,149650,1,2,0:0:0:0:
256,192,149743,1,0,0:0:0:0:
256,192,149929,1,2,0:0:0:0:
256,192,150115,1,0,0:0:0:0:
256,192,150302,1,2,0:0:0:0:
256,192,150395,1,2,0:0:0:0:
256,192,150488,1,0,0:0:0:0:
256,192,150674,1,2,0:0:0:0:
256,192,150861,1,0,0:0:0:0:
256,192,151234,1,0,0:0:0:0:
256,192,151420,1,2,0:0:0:0:
256,192,151606,1,0,0:0:0:0:
256,192,151793,1,2,0:0:0:0:
256,192,151886,1,2,0:0:0:0:
256,192,151979,1,0,0:0:0:0:
256,192,152165,1,2,0:0:0:0:
256,192,152352,1,0,0:0:0:0:
256,192,152445,1,2,0:0:0:0:
256,192,152538,1,2,0:0:0:0:
256,192,152631,1,2,0:0:0:0:
256,192,152724,1,0,0:0:0:0:
256,192,152911,1,2,0:0:0:0:
256,192,153097,1,0,0:0:0:0:
256,192,153283,1,2,0:0:0:0:
256,192,153376,1,2,0:0:0:0:
256,192,153470,1,0,0:0:0:0:
256,192,153656,1,2,0:0:0:0:
256,192,153842,1,0,0:0:0:0:
256,192,153935,1,0,0:0:0:0:
256,192,154029,1,2,0:0:0:0:
256,192,154122,1,0,0:0:0:0:
256,192,154215,1,2,0:0:0:0:
256,192,154588,1,2,0:0:0:0:
256,192,154774,1,0,0:0:0:0:
256,192,154867,1,0,0:0:0:0:
256,192,154960,1,0,0:0:0:0:
256,192,155147,1,0,0:0:0:0:
256,192,155333,1,2,0:0:0:0:
256,192,155519,1,0,0:0:0:0:
256,192,155706,1,2,0:0:0:0:
256,192,156078,1,2,0:0:0:0:
256,192,156265,1,0,0:0:0:0:
256,192,156358,1,2,0:0:0:0:
256,192,156451,1,0,0:0:0:0:
256,192,156637,1,2,0:0:0:0:
256,192,156824,1,2,0:0:0:0:
256,192,157010,1,2,0:0:0:0:
256,192,157196,1,0,0:0:0:0:
256,192,157569,1,2,0:0:0:0:
256,192,157755,1,0,0:0:0:0:
256,192,157942,1,2,0:0:0:0:
256,192,158314,1,0,0:0:0:0:
256,192,158501,1,0,0:0:0:0:
256,192,158594,1,0,0:0:0:0:
256,192,158687,1,0,0:0:0:0:
256,192,158873,1,2,0:0:0:0:
256,192,158966,1,2,0:0:0:0:
256,192,159060,1,0,0:0:0:0:
256,192,159246,1,0,0:0:0:0:
256,192,159432,1,2,0:0:0:0:
256,192,159525,1,2,0:0:0:0:
256,192,159619,1,0,0:0:0:0:
256,192,159712,1,0,0:0:0:0:
256,192,159805,1,2,0:0:0:0:
256,192,159991,1,0,0:0:0:0:
256,192,160178,5,4,0:0:0:0:
256,192,160364,1,2,0:0:0:0:
256,192,160550,1,0,0:0:0:0:
256,192,160737,1,2,0:0:0:0:
256,192,160830,1,2,0:0:0:0:
256,192,160923,1,0,0:0:0:0:
256,192,161109,1,2,0:0:0:0:
256,192,161296,1,0,0:0:0:0:
256,192,161389,1,0,0:0:0:0:
256,192,161482,1,2,0:0:0:0:
256,192,161575,1,2,0:0:0:0:
256,192,161668,1,0,0:0:0:0:
256,192,161855,1,2,0:0:0:0:
256,192,162041,1,0,0:0:0:0:
256,192,162227,1,2,0:0:0:0:
256,192,162320,1,2,0:0:0:0:
256,192,162414,1,0,0:0:0:0:
256,192,162600,1,2,0:0:0:0:
256,192,162786,1,0,0:0:0:0:
256,192,163159,1,0,0:0:0:0:
256,192,163345,1,2,0:0:0:0:
256,192,163532,1,0,0:0:0:0:
256,192,163718,1,2,0:0:0:0:
256,192,163811,1,2,0:0:0:0:
256,192,163904,1,0,0:0:0:0:
256,192,164091,1,2,0:0:0:0:
256,192,164277,1,0,0:0:0:0:
256,192,164370,1,0,0:0:0:0:
256,192,164463,1,2,0:0:0:0:
256,192,164556,1,0,0:0:0:0:
256,192,164650,1,2,0:0:0:0:
256,192,164836,1,2,0:0:0:0:
256,192,164929,1,0,0:0:0:0:
256,192,165022,1,2,0:0:0:0:
256,192,165209,1,0,0:0:0:0:
256,192,165395,1,0,0:0:0:0:
256,192,165488,1,0,0:0:0:0:
256,192,165581,1,2,0:0:0:0:
256,192,165768,1,0,0:0:0:0:
256,192,165954,1,2,0:0:0:0:
256,192,166047,1,2,0:0:0:0:
256,192,166140,1,0,0:0:0:0:
256,192,166327,1,0,0:0:0:0:
256,192,166513,1,2,0:0:0:0:
256,192,166699,1,0,0:0:0:0:
256,192,167072,1,0,0:0:0:0:
256,192,167258,1,2,0:0:0:0:
256,192,167445,1,0,0:0:0:0:
256,192,167817,1,0,0:0:0:0:
256,192,168004,1,2,0:0:0:0:
256,192,168190,1,0,0:0:0:0:
256,192,168283,1,0,0:0:0:0:
256,192,168376,1,2,0:0:0:0:
256,192,168563,1,0,0:0:0:0:
256,192,168749,1,2,0:0:0:0:
256,192,169122,1,0,0:0:0:0:
256,192,169308,1,0,0:0:0:0:
256,192,169494,1,2,0:0:0:0:
256,192,169681,1,0,0:0:0:0:
256,192,169774,1,0,0:0:0:0:
256,192,169867,1,0,0:0:0:0:
256,192,170053,1,0,0:0:0:0:
256,192,170240,1,2,0:0:0:0:
256,192,170426,1,0,0:0:0:0:
256,192,170612,1,0,0:0:0:0:
256,192,170706,1,0,0:0:0:0:
256,192,170799,1,2,0:0:0:0:
256,192,170892,1,0,0:0:0:0:
256,192,170985,1,2,0:0:0:0:
256,192,171171,1,0,0:0:0:0:
256,192,171358,1,2,0:0:0:0:
256,192,171451,1,2,0:0:0:0:
256,192,171544,1,0,0:0:0:0:
256,192,171637,1,0,0:0:0:0:
256,192,171730,1,2,0:0:0:0:
256,192,171824,1,2,0:0:0:0:
256,192,171917,1,2,0:0:0:0:
256,192,172010,1,2,0:0:0:0:
256,192,172103,5,0,0:0:0:0:
256,192,172289,1,0,0:0:0:0:
256,192,172476,1,2,0:0:0:0:
256,192,172662,1,0,0:0:0:0:
256,192,172755,1,0,0:0:0:0:
256,192,172848,1,2,0:0:0:0:
256,192,173035,1,0,0:0:0:0:
256,192,173221,1,0,0:0:0:0:
256,192,173407,1,2,0:0:0:0:
256,192,173780,1,0,0:0:0:0:
256,192,173966,1,2,0:0:0:0:
256,192,174153,1,0,0:0:0:0:
256,192,174246,1,2,0:0:0:0:
256,192,174339,1,0,0:0:0:0:
256,192,174525,1,2,0:0:0:0:
256,192,174712,1,0,0:0:0:0:
256,192,174805,1,0,0:0:0:0:
256,192,174898,1,2,0:0:0:0:
256,192,174991,1,2,0:0:0:0:
256,192,175084,1,0,0:0:0:0:
256,192,175271,1,2,0:0:0:0:
256,192,175457,1,0,0:0:0:0:
256,192,175643,1,0,0:0:0:0:
256,192,175737,1,0,0:0:0:0:
256,192,175830,1,2,0:0:0:0:
256,192,176016,1,0,0:0:0:0:
256,192,176202,1,0,0:0:0:0:
256,192,176389,1,2,0:0:0:0:
256,192,176575,1,2,0:0:0:0:
256,192,176668,1,2,0:0:0:0:
256,192,176761,1,0,0:0:0:0:
256,192,176948,1,0,0:0:0:0:
256,192,177134,1,2,0:0:0:0:
256,192,177227,1,0,0:0:0:0:
256,192,177320,1,2,0:0:0:0:
256,192,177507,1,0,0:0:0:0:
256,192,177693,1,2,0:0:0:0:
256,192,177786,1,2,0:0:0:0:
256,192,177879,1,0,0:0:0:0:
256,192,177973,1,2,0:0:0:0:
256,192,178066,1,0,0:0:0:0:
256,192,178252,1,2,0:0:0:0:
256,192,178438,1,0,0:0:0:0:
256,192,178625,1,0,0:0:0:0:
256,192,178718,1,0,0:0:0:0:
256,192,178811,1,2,0:0:0:0:
256,192,178997,1,0,0:0:0:0:
256,192,179184,1,0,0:0:0:0:
256,192,179370,1,2,0:0:0:0:
256,192,179743,1,0,0:0:0:0:
256,192,179929,1,2,0:0:0:0:
256,192,180115,1,2,0:0:0:0:
256,192,180209,1,2,0:0:0:0:
256,192,180302,1,0,0:0:0:0:
256,192,180488,1,0,0:0:0:0:
256,192,180581,1,0,0:0:0:0:
256,192,180674,1,2,0:0:0:0:
256,192,180768,1,0,0:0:0:0:
256,192,180861,1,2,0:0:0:0:
256,192,180954,1,2,0:0:0:0:
256,192,181047,1,0,0:0:0:0:
256,192,181234,1,2,0:0:0:0:
256,192,181420,1,0,0:0:0:0:
256,192,181606,1,0,0:0:0:0:
256,192,181699,1,0,0:0:0:0:
256,192,181793,1,2,0:0:0:0:
256,192,181979,1,0,0:0:0:0:
256,192,182165,1,0,0:0:0:0:
256,192,182352,1,2,0:0:0:0:
256,192,182724,1,0,0:0:0:0:
256,192,182911,1,2,0:0:0:0:
256,192,183097,1,2,0:0:0:0:
256,192,183190,1,2,0:0:0:0:
256,192,183283,1,0,0:0:0:0:
256,192,183470,1,0,0:0:0:0:
256,192,183563,1,0,0:0:0:0:
256,192,183656,1,2,0:0:0:0:
256,192,183749,1,2,0:0:0:0:
256,192,183842,1,2,0:0:0:0:
256,192,183935,1,2,0:0:0:0:
256,192,184029,5,0,0:0:0:0:
256,192,184215,1,2,0:0:0:0:
256,192,184401,1,0,0:0:0:0:
256,192,184588,1,0,0:0:0:0:
256,192,184681,1,0,0:0:0:0:
256,192,184774,1,2,0:0:0:0:
256,192,184960,1,0,0:0:0:0:
256,192,185147,1,0,0:0:0:0:
256,192,185333,1,2,0:0:0:0:
256,192,185706,1,0,0:0:0:0:
256,192,185892,1,2,0:0:0:0:
256,192,186078,1,0,0:0:0:0:
256,192,186265,1,0,0:0:0:0:
256,192,186358,1,0,0:0:0:0:
256,192,186451,1,2,0:0:0:0:
256,192,186544,1,2,0:0:0:0:
256,192,186637,1,0,0:0:0:0:
256,192,186824,1,0,0:0:0:0:
256,192,187010,5,6,0:0:0:0:
256,192,187196,1,0,0:0:0:0:
256,192,187383,1,2,0:0:0:0:
256,192,187476,1,0,0:0:0:0:
256,192,187569,1,2,0:0:0:0:
256,192,187662,1,2,0:0:0:0:
256,192,187755,1,0,0:0:0:0:
256,192,187848,1,2,0:0:0:0:
256,192,187942,1,0,0:0:0:0:
256,192,188035,1,0,0:0:0:0:
256,192,188128,1,2,0:0:0:0:
256,192,188221,1,2,0:0:0:0:
256,192,188314,1,0,0:0:0:0:
256,192,188407,1,0,0:0:0:0:
256,192,188501,1,2,0:0:0:0:
256,192,188594,1,0,0:0:0:0:
256,192,188687,1,0,0:0:0:0:
256,192,188780,1,2,0:0:0:0:
256,192,188873,1,0,0:0:0:0:
256,192,188966,1,2,0:0:0:0:
256,192,189060,1,2,0:0:0:0:
256,192,189153,1,0,0:0:0:0:
256,192,189246,1,2,0:0:0:0:
256,192,189339,1,0,0:0:0:0:
256,192,189432,1,0,0:0:0:0:
256,192,189525,1,0,0:0:0:0:
256,192,189619,1,2,0:0:0:0:
256,192,189712,1,2,0:0:0:0:
256,192,189805,1,0,0:0:0:0:
256,192,189898,1,0,0:0:0:0:
256,192,189991,1,2,0:0:0:0:
256,192,190084,1,2,0:0:0:0:
256,192,190178,1,0,0:0:0:0:
256,192,190364,1,0,0:0:0:0:
256,192,190550,1,2,0:0:0:0:
256,192,190643,1,2,0:0:0:0:
256,192,190737,1,0,0:0:0:0:
256,192,190923,1,0,0:0:0:0:
256,192,191109,1,0,0:0:0:0:
256,192,191296,5,6,0:0:0:0:
256,192,192973,5,4,0:0:0:0:
256,192,194463,5,2,0:0:0:0:
256,192,194650,1,2,0:0:0:0:
256,192,194836,1,2,0:0:0:0:
256,192,194929,1,2,0:0:0:0:
256,192,195022,1,2,0:0:0:0:
256,192,195084,1,2,0:0:0:0:
256,192,195147,1,2,0:0:0:0:
256,192,195209,1,2,0:0:0:0:
256,192,195395,1,2,0:0:0:0:
256,192,195581,1,0,0:0:0:0:
256,192,195954,5,6,0:0:0:0:
256,192,197445,5,4,0:0:0:0:
256,192,197631,1,4,0:0:0:0:
256,192,198935,5,6,0:0:0:0:
256,192,200426,5,2,0:0:0:0:
256,192,200799,1,0,0:0:0:0:
256,192,200985,1,2,0:0:0:0:
256,192,201171,1,0,0:0:0:0:
256,192,201358,1,0,0:0:0:0:
256,192,201544,1,2,0:0:0:0:
256,192,201730,1,2,0:0:0:0:
256,192,201824,1,0,0:0:0:0:
256,192,201917,5,2,0:0:0:0:
256,192,202103,1,0,0:0:0:0:
256,192,202289,1,2,0:0:0:0:
256,192,202476,1,0,0:0:0:0:
256,192,202569,1,0,0:0:0:0:
256,192,202662,1,0,0:0:0:0:
256,192,202848,1,0,0:0:0:0:
256,192,203035,1,2,0:0:0:0:
256,192,203221,1,0,0:0:0:0:
256,192,203314,1,0,0:0:0:0:
256,192,203407,1,2,0:0:0:0:
256,192,203594,1,0,0:0:0:0:
256,192,203780,1,2,0:0:0:0:
256,192,203966,1,0,0:0:0:0:
256,192,204153,1,0,0:0:0:0:
256,192,204246,1,0,0:0:0:0:
256,192,204339,1,2,0:0:0:0:
256,192,204432,1,0,0:0:0:0:
256,192,204525,1,2,0:0:0:0:
256,192,204712,1,2,0:0:0:0:
256,192,204805,1,2,0:0:0:0:
256,192,204898,1,0,0:0:0:0:
256,192,205084,1,0,0:0:0:0:
256,192,205178,1,0,0:0:0:0:
256,192,205271,1,2,0:0:0:0:
256,192,205457,1,0,0:0:0:0:
256,192,205643,1,2,0:0:0:0:
256,192,205830,1,2,0:0:0:0:
256,192,205923,1,0,0:0:0:0:
256,192,206016,1,2,0:0:0:0:
256,192,206202,1,2,0:0:0:0:
256,192,206389,1,0,0:0:0:0:
256,192,206575,1,2,0:0:0:0:
256,192,206668,1,2,0:0:0:0:
256,192,206761,1,2,0:0:0:0:
256,192,206948,1,0,0:0:0:0:
256,192,207134,1,2,0:0:0:0:
256,192,207227,1,0,0:0:0:0:
256,192,207320,1,0,0:0:0:0:
256,192,207414,1,0,0:0:0:0:
256,192,207507,1,2,0:0:0:0:
256,192,207600,1,2,0:0:0:0:
256,192,207693,1,0,0:0:0:0:
256,192,207879,5,4,0:0:0:0:
256,192,208252,1,0,0:0:0:0:
256,192,208438,1,2,0:0:0:0:
256,192,208532,1,2,0:0:0:0:
256,192,208625,1,0,0:0:0:0:
256,192,208811,1,2,0:0:0:0:
256,192,208997,1,0,0:0:0:0:
256,192,209091,1,0,0:0:0:0:
256,192,209184,1,2,0:0:0:0:
256,192,209277,1,2,0:0:0:0:
256,192,209370,1,0,0:0:0:0:
256,192,209556,1,2,0:0:0:0:
256,192,209743,1,0,0:0:0:0:
256,192,209929,1,2,0:0:0:0:
256,192,210022,1,2,0:0:0:0:
256,192,210115,1,0,0:0:0:0:
256,192,210302,1,2,0:0:0:0:
256,192,210488,1,0,0:0:0:0:
256,192,210581,1,0,0:0:0:0:
256,192,210674,1,2,0:0:0:0:
256,192,210768,1,0,0:0:0:0:
256,192,210861,1,2,0:0:0:0:
256,192,211047,1,0,0:0:0:0:
256,192,211140,1,0,0:0:0:0:
256,192,211234,1,2,0:0:0:0:
256,192,211420,1,0,0:0:0:0:
256,192,211513,1,2,0:0:0:0:
256,192,211606,1,0,0:0:0:0:
256,192,211793,1,0,0:0:0:0:
256,192,211979,1,2,0:0:0:0:
256,192,212072,1,2,0:0:0:0:
256,192,212165,1,0,0:0:0:0:
256,192,212258,1,0,0:0:0:0:
256,192,212352,1,2,0:0:0:0:
256,192,212538,1,0,0:0:0:0:
256,192,212631,1,2,0:0:0:0:
256,192,212724,1,2,0:0:0:0:
256,192,212911,1,2,0:0:0:0:
256,192,213097,1,0,0:0:0:0:
256,192,213190,1,0,0:0:0:0:
256,192,213283,1,2,0:0:0:0:
256,192,213470,1,0,0:0:0:0:
256,192,213656,1,2,0:0:0:0:
256,192,213749,1,2,0:0:0:0:
256,192,213842,1,0,0:0:0:0:
256,192,214215,1,2,0:0:0:0:
256,192,214401,1,0,0:0:0:0:
256,192,214494,1,0,0:0:0:0:
256,192,214588,1,0,0:0:0:0:
256,192,214774,1,0,0:0:0:0:
256,192,214960,1,2,0:0:0:0:
256,192,215333,1,0,0:0:0:0:
256,192,215519,1,0,0:0:0:0:
256,192,215612,1,0,0:0:0:0:
256,192,215706,1,2,0:0:0:0:
256,192,215892,1,0,0:0:0:0:
256,192,215985,1,2,0:0:0:0:
256,192,216078,1,0,0:0:0:0:
256,192,216171,1,2,0:0:0:0:
256,192,216265,1,2,0:0:0:0:
256,192,216451,1,0,0:0:0:0:
256,192,216637,1,2,0:0:0:0:
256,192,216824,1,0,0:0:0:0:
256,192,217196,1,2,0:0:0:0:
256,192,217383,1,0,0:0:0:0:
256,192,217476,1,0,0:0:0:0:
256,192,217569,1,0,0:0:0:0:
256,192,217755,1,0,0:0:0:0:
256,192,217942,1,2,0:0:0:0:
256,192,218128,1,0,0:0:0:0:
256,192,218314,1,0,0:0:0:0:
256,192,218407,1,0,0:0:0:0:
256,192,218501,1,2,0:0:0:0:
256,192,218594,1,2,0:0:0:0:
256,192,218687,1,0,0:0:0:0:
256,192,218780,1,0,0:0:0:0:
256,192,218873,1,0,0:0:0:0:
256,192,218966,1,0,0:0:0:0:
256,192,219060,1,2,0:0:0:0:
256,192,219153,1,2,0:0:0:0:
256,192,219246,1,0,0:0:0:0:
256,192,219339,1,0,0:0:0:0:
256,192,219432,1,2,0:0:0:0:
256,192,219525,1,2,0:0:0:0:
256,192,219619,1,0,0:0:0:0:
256,192,219805,5,4,0:0:0:0:
256,192,220178,1,0,0:0:0:0:
256,192,220364,1,2,0:0:0:0:
256,192,220457,1,2,0:0:0:0:
256,192,220550,1,0,0:0:0:0:
256,192,220737,1,2,0:0:0:0:
256,192,220923,1,0,0:0:0:0:
256,192,221016,1,0,0:0:0:0:
256,192,221109,1,2,0:0:0:0:
256,192,221202,1,2,0:0:0:0:
256,192,221296,1,0,0:0:0:0:
256,192,221482,1,2,0:0:0:0:
256,192,221668,1,0,0:0:0:0:
256,192,221855,1,2,0:0:0:0:
256,192,222041,1,0,0:0:0:0:
256,192,222134,1,2,0:0:0:0:
256,192,222227,1,0,0:0:0:0:
256,192,222320,1,0,0:0:0:0:
256,192,222414,1,2,0:0:0:0:
256,192,222507,1,2,0:0:0:0:
256,192,222600,1,0,0:0:0:0:
256,192,222786,1,0,0:0:0:0:
256,192,222973,1,2,0:0:0:0:
256,192,223159,1,0,0:0:0:0:
256,192,223252,1,0,0:0:0:0:
256,192,223345,1,2,0:0:0:0:
256,192,223532,1,0,0:0:0:0:
256,192,223718,1,2,0:0:0:0:
256,192,223811,1,2,0:0:0:0:
256,192,223904,1,0,0:0:0:0:
256,192,223997,1,0,0:0:0:0:
256,192,224091,1,2,0:0:0:0:
256,192,224277,1,0,0:0:0:0:
256,192,224370,1,2,0:0:0:0:
256,192,224463,1,2,0:0:0:0:
256,192,224650,1,0,0:0:0:0:
256,192,224836,1,2,0:0:0:0:
256,192,225022,1,2,0:0:0:0:
256,192,225115,1,0,0:0:0:0:
256,192,225209,1,0,0:0:0:0:
256,192,225302,1,0,0:0:0:0:
256,192,225395,1,2,0:0:0:0:
256,192,225488,1,2,0:0:0:0:
256,192,225581,1,0,0:0:0:0:
256,192,225768,5,2,0:0:0:0:
256,192,225954,1,0,0:0:0:0:
256,192,226047,1,0,0:0:0:0:
256,192,226140,1,2,0:0:0:0:
256,192,226327,1,0,0:0:0:0:
256,192,226513,1,2,0:0:0:0:
256,192,226606,1,2,0:0:0:0:
256,192,226699,1,0,0:0:0:0:
256,192,226886,1,2,0:0:0:0:
256,192,227072,1,0,0:0:0:0:
256,192,227258,5,2,0:0:0:0:
256,192,227445,1,0,0:0:0:0:
256,192,227538,1,0,0:0:0:0:
256,192,227631,1,2,0:0:0:0:
256,192,227817,1,0,0:0:0:0:
256,192,228004,1,2,0:0:0:0:
256,192,228097,1,2,0:0:0:0:
256,192,228190,1,0,0:0:0:0:
256,192,228283,1,0,0:0:0:0:
256,192,228376,1,2,0:0:0:0:
256,192,228563,1,0,0:0:0:0:
256,192,228749,5,2,0:0:0:0:
256,192,228935,1,0,0:0:0:0:
256,192,229029,1,0,0:0:0:0:
256,192,229122,1,2,0:0:0:0:
256,192,229308,1,0,0:0:0:0:
256,192,229401,1,0,0:0:0:0:
256,192,229494,1,2,0:0:0:0:
256,192,229588,1,2,0:0:0:0:
256,192,229681,1,0,0:0:0:0:
256,192,229774,1,0,0:0:0:0:
256,192,229867,1,2,0:0:0:0:
256,192,230240,1,4,0:0:0:0:
256,192,230426,1,2,0:0:0:0:
256,192,230612,1,2,0:0:0:0:
256,192,230799,1,4,0:0:0:0:
256,192,230985,1,2,0:0:0:0:
256,192,231078,1,2,0:0:0:0:
256,192,231171,1,0,0:0:0:0:
256,192,231358,1,2,0:0:0:0:
256,192,231451,1,0,0:0:0:0:
256,192,231544,1,0,0:0:0:0:
256,192,231730,5,4,0:0:0:0:
256,192,231917,1,2,0:0:0:0:
256,192,232010,1,2,0:0:0:0:
256,192,232103,1,0,0:0:0:0:
256,192,232289,1,2,0:0:0:0:
256,192,232476,1,0,0:0:0:0:
256,192,232569,1,0,0:0:0:0:
256,192,232662,1,2,0:0:0:0:
256,192,232755,1,2,0:0:0:0:
256,192,232848,1,0,0:0:0:0:
256,192,233035,1,2,0:0:0:0:
256,192,233221,1,0,0:0:0:0:
256,192,233314,1,0,0:0:0:0:
256,192,233407,1,2,0:0:0:0:
256,192,233594,1,0,0:0:0:0:
256,192,233780,1,2,0:0:0:0:
256,192,233873,1,2,0:0:0:0:
256,192,233966,1,0,0:0:0:0:
256,192,234153,1,2,0:0:0:0:
256,192,234246,1,2,0:0:0:0:
256,192,234339,1,0,0:0:0:0:
256,192,234432,1,0,0:0:0:0:
256,192,234525,1,2,0:0:0:0:
256,192,234619,1,0,0:0:0:0:
256,192,234712,1,2,0:0:0:0:
256,192,234898,1,2,0:0:0:0:
256,192,235084,1,0,0:0:0:0:
256,192,235178,1,0,0:0:0:0:
256,192,235271,1,2,0:0:0:0:
256,192,235364,1,0,0:0:0:0:
256,192,235457,1,2,0:0:0:0:
256,192,235643,1,0,0:0:0:0:
256,192,235737,1,0,0:0:0:0:
256,192,235830,1,2,0:0:0:0:
256,192,236016,1,2,0:0:0:0:
256,192,236202,1,0,0:0:0:0:
256,192,236389,1,2,0:0:0:0:
256,192,236482,1,0,0:0:0:0:
256,192,236575,1,2,0:0:0:0:
256,192,236761,1,2,0:0:0:0:
256,192,236948,1,0,0:0:0:0:
256,192,237041,1,0,0:0:0:0:
256,192,237134,1,2,0:0:0:0:
256,192,237227,1,2,0:0:0:0:
256,192,237320,1,0,0:0:0:0:
256,192,237507,1,2,0:0:0:0:
256,192,237600,1,2,0:0:0:0:
256,192,237693,1,0,0:0:0:0:
256,192,238066,1,2,0:0:0:0:
256,192,238252,1,0,0:0:0:0:
256,192,238345,1,0,0:0:0:0:
256,192,238438,1,0,0:0:0:0:
256,192,238625,1,0,0:0:0:0:
256,192,238811,1,2,0:0:0:0:
256,192,238997,1,0,0:0:0:0:
256,192,239184,1,0,0:0:0:0:
256,192,239277,1,0,0:0:0:0:
256,192,239370,1,0,0:0:0:0:
256,192,239463,1,0,0:0:0:0:
256,192,239556,1,2,0:0:0:0:
256,192,239743,1,0,0:0:0:0:
256,192,239929,1,2,0:0:0:0:
256,192,240022,1,2,0:0:0:0:
256,192,240115,1,0,0:0:0:0:
256,192,240209,1,0,0:0:0:0:
256,192,240302,1,2,0:0:0:0:
256,192,240488,1,2,0:0:0:0:
256,192,240674,1,0,0:0:0:0:
256,192,240861,1,2,0:0:0:0:
256,192,240954,1,0,0:0:0:0:
256,192,241047,1,2,0:0:0:0:
256,192,241234,1,0,0:0:0:0:
256,192,241420,1,2,0:0:0:0:
256,192,241513,1,2,0:0:0:0:
256,192,241606,1,0,0:0:0:0:
256,192,241793,1,2,0:0:0:0:
256,192,241979,1,2,0:0:0:0:
256,192,242165,1,0,0:0:0:0:
256,192,242258,1,0,0:0:0:0:
256,192,242352,1,2,0:0:0:0:
256,192,242445,1,0,0:0:0:0:
256,192,242538,1,2,0:0:0:0:
256,192,242631,1,2,0:0:0:0:
256,192,242724,1,0,0:0:0:0:
256,192,242817,1,0,0:0:0:0:
256,192,242911,1,2,0:0:0:0:
256,192,243004,1,0,0:0:0:0:
256,192,243097,1,0,0:0:0:0:
256,192,243190,1,0,0:0:0:0:
256,192,243283,1,2,0:0:0:0:
256,192,243376,1,2,0:0:0:0:
256,192,243470,1,0,0:0:0:0:
256,192,243563,1,0,0:0:0:0:
256,192,243656,5,2,0:0:0:0:
256,192,243842,8,0,249619,0:0:0:0:
