osu file format v14

[General]
AudioFilename: audio.mp3
AudioLeadIn: 0
PreviewTime: 55561
Countdown: 0
SampleSet: Soft
StackLeniency: 0.7
Mode: 0
LetterboxInBreaks: 0
WidescreenStoryboard: 0

[Editor]
Bookmarks: 50982,53963,56944,95702,98684
DistanceSpacing: 1.2
BeatDivisor: 4
GridSize: 32
TimelineZoom: 2.2

[Metadata]
Title:Kimi to Ita Sora
TitleUnicode:君といた空
Artist:Ray
ArtistUnicode:Ray
Creator:SkyFlame
Version:Laura's Sky
Source:蒼の彼方のフォーリズム
Tags:aokana ao no kanata four rhythm ending beyond the sky into the firmament visual novel eroge akitoshi -laura- corinn
BeatmapID:1455766
BeatmapSetID:442148

[Difficulty]
HPDrainRate:6
CircleSize:4
OverallDifficulty:8.5
ApproachRate:9
SliderMultiplier:1.8
SliderTickRate:1

[Events]
//Background and Video events
0,0,"bg1-corinn.jpg",0,0
//Break Periods
//Storyboard Layer 0 (Background)
//Storyboard Layer 1 (Fail)
//Storyboard Layer 2 (Pass)
//Storyboard Layer 3 (Foreground)
//Storyboard Sound Samples

[TimingPoints]
299,372.670807453416,4,2,0,40,1,0
1789,-200,4,2,0,40,0,0
7752,-117.647058823529,4,2,0,40,0,0
13715,-133.333333333333,4,2,0,50,0,0
16603,-133.333333333333,4,2,0,5,0,0
16696,-133.333333333333,4,2,0,50,0,0
19584,-133.333333333333,4,2,0,5,0,0
19677,-133.333333333333,4,2,0,50,0,0
24149,-125,4,2,0,50,0,0
25640,-111.111111111111,4,2,0,50,0,0
28528,-111.111111111111,4,2,0,5,0,0
28621,-111.111111111111,4,2,0,50,0,0
31510,-111.111111111111,4,2,0,5,0,0
31603,-111.111111111111,4,2,0,50,0,0
39429,-133.333333333333,4,2,0,50,0,0
50982,-100,4,2,0,60,0,0
55640,-125,4,2,0,40,0,0
56944,-90.9090909090909,4,2,0,80,0,1
68777,-90.9090909090909,4,2,0,80,0,0
68870,-90.9090909090909,4,2,0,80,0,1
80795,-90.9090909090909,4,2,0,70,0,0

[Colours]
Combo1 : 19,203,236
Combo2 : 0,128,255
Combo3 : 177,182,10
Combo4 : 252,252,58

[HitObjects]
70,237,1789,6,0,P|46:184|154:225,1,270,4|0,0:1|0:0,0:0:0:0:
161,213,3280,6,0,B|220:208|220:208|275:235|275:235|344:192|427:230,1,270,4|0,0:3|0:0,0:0:0:0:
418,226,4771,6,0,B|444:156|387:146|431:54|431:54|385:96|339:80,1,270,2|0,0:0|0:0,0:0:0:0:
346,82,6261,6,0,B|293:130|314:208|314:208|281:135|207:139,1,270,4|0,0:3|0:0,0:0:0:0:
211,139,7752,6,0,L|225:52,1,76.5000014591217,2|0,0:0|0:0,0:0:0:0:
94,160,8125,2,0,L|108:247,1,76.5000014591217,0|0,1:0|0:0,0:0:0:0:
225,343,8497,2,0,P|280:349|320:336,1,76.5000014591217,2|0,0:0|0:0,0:0:0:0:
389,209,8870,2,0,P|334:203|294:216,1,76.5000014591217,0|0,1:0|0:0,0:0:0:0:
443,304,9243,5,2,0:0:0:0:
461,144,9429,1,0,0:0:0:0:
314,207,9615,2,0,L|229:196,1,76.5000014591217,0|0,1:0|0:0,0:0:0:0:
78,174,9988,1,2,0:0:0:0:
221,101,10174,1,0,0:0:0:0:
154,247,10361,2,0,L|166:329,1,76.5000014591217,0|0,1:0|0:0,0:0:0:0:
334,365,10733,5,4,3:2:0:0:
341,364,10826,1,0,3:0:0:0:
349,363,10919,1,0,3:0:0:0:
356,362,11012,1,0,3:0:0:0:
364,361,11106,1,0,1:0:0:0:
371,360,11198,1,0,3:0:0:0:
379,359,11292,1,0,3:0:0:0:
387,358,11385,1,0,3:0:0:0:
394,357,11478,5,2,3:2:0:0:
402,356,11571,1,0,3:0:0:0:
409,355,11664,1,0,3:0:0:0:
417,354,11757,1,0,3:0:0:0:
425,353,11851,1,0,1:0:0:0:
432,352,11944,1,0,3:0:0:0:
440,351,12037,1,0,3:0:0:0:
447,351,12130,1,0,3:0:0:0:
455,349,12224,5,2,3:2:0:0:
435,325,12317,1,0,3:0:0:0:
414,302,12410,1,0,3:0:0:0:
407,272,12503,1,0,3:0:0:0:
404,241,12597,1,0,1:0:0:0:
412,211,12690,1,0,3:0:0:0:
423,182,12783,1,0,3:0:0:0:
442,158,12876,1,0,3:0:0:0:
470,132,12969,5,2,3:2:0:0:
440,107,13062,1,0,3:0:0:0:
403,94,13156,1,0,3:0:0:0:
365,89,13249,1,0,3:0:0:0:
329,102,13342,1,0,1:0:0:0:
294,118,13435,1,0,3:0:0:0:
255,116,13528,1,0,3:0:0:0:
218,104,13621,1,0,3:0:0:0:
189,75,13715,5,6,0:0:0:0:
58,229,14087,2,0,L|64:302,1,67.5000025749208,0|0,3:0|0:0,0:0:0:0:
157,333,14460,2,0,L|163:260,1,67.5000025749208,0|0,3:0|0:0,0:0:0:0:
181,165,14833,1,0,3:0:0:0:
257,231,15019,1,0,0:0:0:0:
351,135,15205,6,0,P|345:78|340:-3,1,135.000005149842,0|0,3:0|3:0,0:0:0:0:
465,123,15764,2,0,P|460:190|454:257,1,135.000005149842
331,324,16323,2,0,P|284:297|228:308,1,101.250003862381,0|0,3:0|0:0,0:0:0:0:
239,302,16696,5,0,3:0:0:0:
70,188,17069,2,0,P|63:153|74:113,1,67.5000025749208,0|0,3:0|0:0,0:0:0:0:
170,122,17441,2,0,P|177:157|166:197,1,67.5000025749208,0|0,3:0|0:0,0:0:0:0:
119,275,17814,1,0,3:0:0:0:
70,188,18000,1,0,0:0:0:0:
237,260,18187,6,0,P|302:252|382:247,1,135.000005149842,0|0,3:0|3:0,0:0:0:0:
489,156,18746,2,0,P|456:152|416:149,1,67.5000025749208,0|0,0:0|3:0,0:0:0:0:
320,156,19118,1,0,0:0:0:0:
225,119,19305,2,0,P|202:79|196:15,1,101.250003862381,0|0,3:0|0:0,0:0:0:0:
194,25,19677,5,0,3:0:0:0:
18,125,20050,2,0,L|23:199,1,67.5000025749208,0|0,3:0|0:0,0:0:0:0:
124,187,20423,2,0,L|119:113,1,67.5000025749208,0|0,3:0|0:0,0:0:0:0:
65,34,20795,1,0,3:0:0:0:
18,125,20982,1,0,0:0:0:0:
159,46,21168,6,0,B|231:34|227:75|295:66,1,135.000005149842,0|0,3:0|3:0,0:0:0:0:
405,28,21727,2,0,P|385:75|417:165,1,135.000005149842
500,230,22286,2,0,L|486:313,1,67.5000025749208,0|0,3:0|0:0,0:0:0:0:
292,262,22659,6,0,P|338:231|430:268,1,135.000005149842,0|0,3:0|3:0,0:0:0:0:
261,334,23218,2,0,L|246:193,1,135.000005149842
155,118,23777,2,0,L|144:216,1,67.5000025749208,0|0,3:0|0:0,0:0:0:0:
93,36,24149,5,0,3:0:0:0:
118,23,24242,1,0,3:0:0:0:
147,17,24335,1,0,3:0:0:0:
175,19,24428,1,0,3:0:0:0:
202,29,24521,1,0,3:0:0:0:
225,46,24614,1,0,3:0:0:0:
243,69,24708,1,0,3:0:0:0:
258,93,24801,1,0,3:0:0:0:
266,124,24894,5,0,3:0:0:0:
297,116,24987,1,0,3:0:0:0:
329,117,25080,1,0,3:0:0:0:
359,126,25173,1,0,3:0:0:0:
386,143,25267,1,0,3:0:0:0:
417,161,25361,1,0,3:0:0:0:
451,169,25454,1,0,3:0:0:0:
486,165,25547,1,0,3:0:0:0:
512,144,25640,5,6,0:0:0:0:
292,294,26013,2,0,L|191:285,1,80.9999975280763,0|0,1:0|0:0,0:0:0:0:
67,266,26385,1,2,0:0:0:0:
125,354,26572,1,0,0:0:0:0:
139,176,26758,1,0,1:0:0:0:
211,286,26945,1,0,0:0:0:0:
49,177,27131,6,0,P|56:103|62:14,1,161.999995056153,2|0,0:0|1:0,0:0:0:0:
226,120,27690,2,0,P|184:135|120:128,1,80.9999975280763,0|2,0:0|0:0,0:0:0:0:
167,23,28062,1,0,0:0:0:0:
344,102,28249,2,0,P|348:162|354:223,1,121.499996292114,0|0,1:0|0:0,0:0:0:0:
354,223,28621,6,0,P|308:218|268:229,1,80.9999975280763,2|0,0:0|0:0,0:0:0:0:
140,331,28994,1,0,1:0:0:0:
269,321,29180,1,0,0:0:0:0:
153,206,29367,2,0,L|145:109,1,80.9999975280763,2|0,0:0|0:0,0:0:0:0:
26,278,29739,1,0,1:0:0:0:
140,331,29926,1,0,0:0:0:0:
46,160,30112,6,0,P|45:94|113:25,1,161.999995056153,2|0,0:0|1:0,0:0:0:0:
226,130,30671,2,0,P|174:133|133:119,1,80.9999975280763,0|2,0:0|0:0,0:0:0:0:
195,20,31044,1,0,0:0:0:0:
313,173,31230,2,0,L|306:303,1,121.499996292114,0|0,1:0|0:0,0:0:0:0:
306,294,31603,5,2,0:0:0:0:
504,153,31976,2,0,P|512:113|496:59,1,80.9999975280763,0|0,1:0|0:0,0:0:0:0:
378,0,32348,1,2,0:0:0:0:
414,114,32535,1,0,0:0:0:0:
239,28,32721,1,0,1:0:0:0:
275,142,32908,1,0,0:0:0:0:
430,0,33094,6,0,B|463:65|401:93|434:163,1,161.999995056153,2|0,0:0|1:0,0:0:0:0:
307,214,33653,2,0,P|291:161|259:130,1,80.9999975280763,0|2,0:0|0:0,0:0:0:0:
182,230,34025,1,0,0:0:0:0:
293,348,34212,2,0,L|383:339,1,80.9999975280763,0|0,1:0|0:0,0:0:0:0:
169,249,34584,6,0,P|111:233|17:277,1,161.999995056153,2|0,0:0|1:0,0:0:0:0:
198,333,35143,2,0,L|208:153,1,161.999995056153
332,44,35702,2,0,L|337:134,1,80.9999975280763,0|0,1:0|0:0,0:0:0:0:
345,303,36075,5,2,0:0:0:0:
431,186,36261,1,0,0:0:0:0:
243,87,36448,1,0,1:0:0:0:
333,210,36634,1,0,0:0:0:0:
438,98,36820,2,0,L|441:10,1,80.9999975280763,2|0,0:0|0:0,0:0:0:0:
243,87,37193,2,0,L|246:175,1,80.9999975280763,0|0,1:0|0:0,0:0:0:0:
171,339,37566,5,2,3:2:0:0:
132,351,37659,1,0,3:0:0:0:
92,347,37752,1,0,3:0:0:0:
56,329,37845,1,0,3:0:0:0:
30,299,37938,1,0,1:0:0:0:
18,260,38031,1,0,3:0:0:0:
21,220,38125,1,0,3:0:0:0:
39,184,38218,1,0,3:0:0:0:
69,158,38311,5,2,3:2:0:0:
98,180,38404,1,0,3:0:0:0:
131,192,38497,1,0,3:0:0:0:
167,196,38590,1,0,3:0:0:0:
201,182,38684,1,0,1:0:0:0:
232,174,38777,1,0,3:0:0:0:
264,170,38870,1,0,3:0:0:0:
295,177,38963,1,0,3:0:0:0:
323,192,39056,5,4,3:0:0:0:
98,180,39429,2,0,L|113:23,1,135.000005149842,2|0,0:0|1:0,0:0:0:0:
181,153,39988,1,0,0:0:0:0:
18,108,40174,1,0,3:0:0:0:
197,45,40361,6,0,P|259:73|335:59,1,135.000005149842,4|0,3:2|0:0,0:0:0:0:
432,9,40920,2,0,L|441:79,1,67.5000025749208,0|0,3:0|0:0,0:0:0:0:
474,269,41292,1,4,1:2:0:0:
474,269,41665,2,0,P|442:247|336:263,1,135.000005149842,0|0,3:0|3:0,0:0:0:0:
350,253,42410,6,0,B|329:185|382:185|350:105,1,135.000005149842,2|0,0:0|1:0,0:0:0:0:
263,150,42969,1,0,0:0:0:0:
428,224,43156,1,0,3:0:0:0:
244,276,43342,6,0,P|171:263|92:251,1,135.000005149842,0|0,3:0|0:0,0:0:0:0:
9,248,43901,1,0,3:0:0:0:
56,336,44087,1,0,3:0:0:0:
111,154,44274,1,4,1:2:0:0:
111,154,44646,2,0,P|113:105|41:52,1,135.000005149842,0|0,3:0|3:0,0:0:0:0:
52,53,45392,6,0,L|198:44,1,135.000005149842,2|0,0:0|1:0,0:0:0:0:
289,39,45951,1,0,0:0:0:0:
243,129,46137,1,0,3:0:0:0:
386,71,46323,6,0,B|413:109|413:109|399:227,1,135.000005149842,0|0,3:0|3:0,0:0:0:0:
387,324,46882,1,0,3:0:0:0:
496,255,47069,1,0,3:0:0:0:
307,252,47255,2,0,L|213:239,1,67.5000025749208,0|0,1:0|0:0,0:0:0:0:
152,157,47628,2,0,L|246:144,1,67.5000025749208,0|0,3:0|0:0,0:0:0:0:
60,89,48000,6,0,P|39:134|59:225,1,135.000005149842,6|2,0:0|0:0,0:0:0:0:
125,345,48559,2,0,L|54:343,1,67.5000025749208,0|0,0:0|1:0,0:0:0:0:
170,246,48932,1,0,0:0:0:0:
236,378,49118,1,2,0:0:0:0:
318,207,49305,6,0,P|309:139|303:49,1,135.000005149842,0|0,3:0|0:0,0:0:0:0:
423,220,49864,2,0,P|420:253|415:287,1,67.5000025749208,2|0,0:0|0:0,0:0:0:0:
223,188,50236,2,0,P|218:154|215:120,1,67.5000025749208,0|0,1:0|0:0,0:0:0:0:
118,17,50609,2,0,P|113:50|110:84,1,67.5000025749208,2|0,0:0|0:0,0:0:0:0:
152,324,50982,5,2,0:0:0:0:
223,188,51168,1,0,0:0:0:0:
5,295,51354,1,0,1:0:0:0:
76,159,51541,5,2,0:0:0:0:
223,188,51727,1,0,0:0:0:0:
152,324,51913,1,0,0:0:0:0:
166,71,52100,5,0,1:0:0:0:
313,100,52287,1,0,0:0:0:0:
220,220,52472,1,0,0:0:0:0:
139,89,52659,5,2,0:0:0:0:
369,209,52845,1,0,1:0:0:0:
327,15,53031,1,0,0:0:0:0:
115,198,53218,5,2,0:0:0:0:
310,131,53404,1,0,0:0:0:0:
39,65,53590,1,0,1:0:0:0:
56,291,53777,1,0,0:0:0:0:
224,7,53963,5,0,1:0:0:0:
105,198,54149,1,0,0:0:0:0:
313,126,54336,1,0,0:0:0:0:
0,158,54522,5,0,1:0:0:0:
217,236,54708,1,0,0:0:0:0:
224,7,54895,1,0,0:0:0:0:
42,297,55081,5,0,1:0:0:0:
412,245,55267,1,0,1:0:0:0:
159,110,55640,5,0,0:0:0:0:
312,88,55826,1,0,0:0:0:0:
200,195,56013,1,0,0:0:0:0:
227,43,56200,1,0,0:0:0:0:
295,183,56385,1,0,0:0:0:0:
159,110,56572,2,0,P|159:146|184:193,1,72
200,195,56851,1,0,0:0:0:0:
200,195,56944,6,0,B|253:212|296:192|296:192|342:171|402:190,1,198.000006042481,6|0,0:0|1:0,0:0:0:0:
350,311,57503,1,0,0:0:0:0:
244,72,57690,2,0,P|192:63|123:85,1,99.0000030212403,2|0,0:0|0:0,0:0:0:0:
0,234,58062,1,0,1:0:0:0:
40,49,58249,1,0,0:0:0:0:
200,195,58435,6,0,L|182:303,1,99.0000030212403,2|0,0:0|0:0,0:0:0:0:
3,136,58808,1,0,1:0:0:0:
229,12,58994,2,0,P|316:21|382:113,1,198.000006042481,2|0,0:0|0:0,0:0:0:0:
184,293,59553,1,0,1:0:0:0:
136,102,59739,1,0,0:0:0:0:
348,251,59926,6,0,P|411:253|514:171,1,198.000006042481,2|0,0:0|1:0,0:0:0:0:
380,104,60485,1,0,0:0:0:0:
179,249,60671,2,0,L|194:360,1,99.0000030212403,2|0,0:0|0:0,0:0:0:0:
272,133,61044,1,0,1:0:0:0:
56,206,61230,1,0,0:0:0:0:
300,249,61417,6,0,L|285:360,1,99.0000030212403,2|0,0:0|0:0,0:0:0:0:
136,102,61789,1,0,1:0:0:0:
358,17,61976,2,0,P|420:33|471:156,1,198.000006042481,2|0,0:0|0:0,0:0:0:0:
286,347,62535,1,0,1:0:0:0:
453,363,62721,1,0,0:0:0:0:
361,130,62907,5,6,0:0:0:0:
286,347,63094,1,0,0:0:0:0:
232,85,63280,1,0,1:0:0:0:
392,245,63466,1,0,0:0:0:0:
165,243,63653,1,2,0:0:0:0:
361,130,63839,1,0,0:0:0:0:
194,338,64025,1,0,1:0:0:0:
254,108,64212,6,0,L|262:-10,1,99.0000030212403,0|2,0:0|0:0,0:0:0:0:
360,156,64584,1,0,0:0:0:0:
146,70,64771,1,0,1:0:0:0:
71,213,64957,2,0,P|62:284|73:321,1,99.0000030212403,0|2,0:0|0:0,0:0:0:0:
276,156,65330,1,0,0:0:0:0:
29,53,65516,1,0,1:0:0:0:
190,265,65702,1,0,0:0:0:0:
313,27,65889,6,0,L|427:21,1,99.0000030212403,2|0,0:0|0:0,0:0:0:0:
142,145,66261,2,0,L|28:139,1,99.0000030212403,0|0,1:0|0:0,0:0:0:0:
313,27,66634,2,0,P|327:79|319:142,1,99.0000030212403,2|0,0:0|0:0,0:0:0:0:
153,241,67007,2,0,P|139:189|147:126,1,99.0000030212403,0|0,1:0|0:0,0:0:0:0:
431,160,67379,6,0,P|338:135|252:179,1,198.000006042481,2|0,0:0|1:0,0:0:0:0:
131,361,67938,1,0,0:0:0:0:
353,265,68125,1,2,0:0:0:0:
152,242,68311,1,0,0:0:0:0:
355,382,68497,1,0,1:0:0:0:
389,376,68590,1,0,3:0:0:0:
423,370,68684,1,0,3:0:0:0:
457,364,68777,1,0,3:0:0:0:
490,357,68870,6,0,P|482:258|473:156,1,198.000006042481,6|0,0:0|1:0,0:0:0:0:
385,39,69429,1,0,0:0:0:0:
240,201,69615,2,0,L|122:188,1,99.0000030212403,2|0,0:0|0:0,0:0:0:0:
285,0,69988,1,0,1:0:0:0:
354,184,70174,1,0,0:0:0:0:
157,89,70361,6,0,P|107:94|51:141,1,99.0000030212403,2|0,0:0|0:0,0:0:0:0:
9,329,70733,1,0,1:0:0:0:
193,255,70920,2,0,B|302:228|287:304|393:279,1,198.000006042481,2|0,0:0|0:0,0:0:0:0:
489,56,71479,1,0,1:0:0:0:
354,184,71665,1,0,0:0:0:0:
152,41,71851,6,0,B|80:2|0:51|0:51|33:79,1,198.000006042481,2|0,0:0|1:0,0:0:0:0:
137,191,72410,1,0,0:0:0:0:
306,106,72597,2,0,L|297:-6,1,99.0000030212403,2|0,0:0|0:0,0:0:0:0:
237,246,72969,1,0,1:0:0:0:
422,117,73156,1,0,0:0:0:0:
152,41,73342,6,0,L|48:47,1,99.0000030212403,6|0,0:0|0:0,0:0:0:0:
154,273,73715,1,0,1:0:0:0:
322,169,73901,2,0,P|334:120|316:58,1,99.0000030212403,2|0,0:0|0:0,0:0:0:0:
154,273,74274,2,0,P|142:322|160:384,1,99.0000030212403,2|0,0:0|1:0,0:0:0:0:
270,326,74646,1,0,0:0:0:0:
201,87,74833,6,0,P|130:67|6:123,2,198.000006042481,2|0|2,0:0|1:0|0:0,0:0:0:0:
322,169,75764,1,0,0:0:0:0:
128,217,75951,1,0,1:0:0:0:
262,361,76137,6,0,B|340:381|404:372|404:372|449:341,1,198.000006042481,2|0,0:0|0:0,0:0:0:0:
472,132,76696,2,0,P|466:76|431:32,1,99.0000030212403,0|0,1:0|0:0,0:0:0:0:
307,200,77069,2,0,P|358:222|414:214,1,99.0000030212403,2|0,0:0|0:0,0:0:0:0:
330,24,77441,2,0,P|284:57|263:109,1,99.0000030212403,0|0,1:0|0:0,0:0:0:0:
180,306,77814,6,0,P|96:306|13:211,1,198.000006042481,2|0,0:0|1:0,0:0:0:0:
193,197,78373,2,0,P|116:233|100:143,1,198.000006042481,2|0,0:0|0:0,0:0:0:0:
330,24,78932,1,0,1:0:0:0:
312,250,79118,1,0,0:0:0:0:
204,48,79305,5,2,3:2:0:0:
165,37,79398,1,0,3:0:0:0:
126,38,79491,1,0,3:0:0:0:
88,49,79584,1,0,3:0:0:0:
54,69,79677,1,0,1:0:0:0:
27,98,79770,1,0,3:0:0:0:
9,133,79864,1,0,3:0:0:0:
0,171,79957,1,0,3:0:0:0:
2,211,80050,5,2,3:2:0:0:
43,195,80143,1,0,3:0:0:0:
87,195,80236,1,0,3:0:0:0:
129,210,80330,1,0,3:0:0:0:
162,246,80423,1,0,1:0:0:0:
204,270,80516,1,0,3:0:0:0:
252,279,80609,1,0,3:0:0:0:
300,268,80702,1,0,3:0:0:0:
339,238,80795,6,0,P|330:141|321:24,1,198.000006042481,6|0,0:0|1:0,0:0:0:0:
129,144,81354,2,0,P|179:155|235:138,1,99.0000030212403,0|2,0:0|0:0,0:0:0:0:
177,30,81727,1,0,0:0:0:0:
119,260,81913,1,0,1:0:0:0:
332,153,82100,6,0,P|389:133|511:197,1,198.000006042481,2|0,0:0|0:0,0:0:0:0:
300,345,82659,2,0,P|275:295|272:246,1,99.0000030212403,0|0,1:0|0:0,0:0:0:0:
402,263,83031,1,2,0:0:0:0:
164,275,83218,2,0,P|167:220|192:172,1,99.0000030212403,0|0,0:0|1:0,0:0:0:0:
332,153,83590,1,0,0:0:0:0:
300,345,83777,5,2,0:0:0:0:
92,345,83963,2,0,P|71:299|69:232,2,99.0000030212403,0|0|0,0:0|1:0|0:0,0:0:0:0:
101,116,84522,2,0,L|-10:128,1,99.0000030212403,2|0,0:0|0:0,0:0:0:0:
217,2,84895,2,0,L|328:14,1,99.0000030212403,0|0,1:0|0:0,0:0:0:0:
421,235,85267,6,0,P|349:319|227:299,1,198.000006042481,2|0,0:0|1:0,0:0:0:0:
289,101,85826,2,0,L|301:200,1,99.0000030212403,0|2,0:0|0:0,0:0:0:0:
412,23,86199,1,0,0:0:0:0:
192,82,86385,2,0,L|58:68,1,99.0000030212403,0|0,1:0|0:0,0:0:0:0:
10,263,86758,6,0,P|76:306|202:280,2,198.000006042481,2|0|2,0:0|1:0|0:0,0:0:0:0:
114,175,87690,1,0,0:0:0:0:
326,255,87876,2,0,L|318:362,1,99.0000030212403,0|0,1:0|0:0,0:0:0:0:
438,158,88249,6,0,L|430:51,1,99.0000030212403,2|0,0:0|0:0,0:0:0:0:
240,184,88621,1,0,1:0:0:0:
416,251,88808,1,0,0:0:0:0:
316,91,88994,1,2,0:0:0:0:
222,309,89180,1,0,0:0:0:0:
222,309,89274,1,0,0:0:0:0:
222,309,89367,2,0,L|107:302,1,99.0000030212403,0|0,1:0|0:0,0:0:0:0:
330,238,89739,5,2,0:0:0:0:
291,384,89926,1,0,0:0:0:0:
187,192,90112,2,0,L|199:86,1,99.0000030212403,0|0,1:0|0:0,0:0:0:0:
18,150,90485,2,0,L|30:256,1,99.0000030212403,2|0,0:0|0:0,0:0:0:0:
160,383,90858,1,0,1:0:0:0:
317,280,91044,6,0,P|369:278|429:298,1,99.0000030212403,0|2,0:0|0:0,0:0:0:0:
187,192,91417,2,0,P|239:194|299:174,2,99.0000030212403,0|0|0,0:0|1:0|0:0,0:0:0:0:
18,106,91976,2,0,L|5:223,1,99.0000030212403,2|0,0:0|0:0,0:0:0:0:
160,383,92348,1,0,1:0:0:0:
291,189,92535,1,0,0:0:0:0:
291,189,92628,1,0,0:0:0:0:
291,189,92721,5,6,0:0:0:0:
129,263,92907,1,0,0:0:0:0:
353,344,93094,2,0,L|488:330,1,99.0000030212403,0|0,1:0|0:0,0:0:0:0:
291,189,93466,2,0,L|156:175,1,99.0000030212403,2|0,0:0|0:0,0:0:0:0:
375,42,93839,1,0,1:0:0:0:
447,237,94025,6,0,P|459:287|444:349,1,99.0000030212403,0|2,0:0|0:0,0:0:0:0:
277,291,94398,1,0,0:0:0:0:
426,132,94584,1,0,1:0:0:0:
451,333,94771,1,0,0:0:0:0:
302,174,94957,2,0,L|295:64,1,99.0000030212403,2|0,0:0|0:0,0:0:0:0:
86,10,95330,2,0,L|79:120,1,99.0000030212403,0|0,1:0|0:0,0:0:0:0:
59,345,95702,5,2,0:0:0:0:
0,183,95889,1,0,0:0:0:0:
204,303,96075,1,0,1:0:0:0:
204,303,96168,1,0,0:0:0:0:
204,303,96261,5,2,0:0:0:0:
39,264,96448,1,0,0:0:0:0:
289,172,96634,1,0,0:0:0:0:
289,172,96727,1,0,0:0:0:0:
289,172,96820,5,0,1:0:0:0:
245,365,97007,1,0,0:0:0:0:
127,206,97193,1,2,0:0:0:0:
393,281,97379,5,0,0:0:0:0:
393,281,97472,1,0,0:0:0:0:
393,281,97566,1,0,1:0:0:0:
204,303,97752,1,0,0:0:0:0:
327,66,97938,5,2,0:0:0:0:
299,292,98125,1,0,0:0:0:0:
201,43,98311,1,0,1:0:0:0:
385,176,98497,1,0,0:0:0:0:
94,270,98684,5,2,3:2:0:0:
94,270,98777,1,0,3:0:0:0:
94,270,98870,1,0,3:0:0:0:
201,43,99056,1,0,3:0:0:0:
338,328,99243,5,2,3:2:0:0:
338,328,99336,1,0,3:0:0:0:
338,328,99429,1,0,3:0:0:0:
144,137,99615,1,0,3:0:0:0:
447,234,99802,5,0,1:0:0:0:
134,366,99988,1,0,1:0:0:0:
