osu file format v14

[General]
AudioFilename: audio.mp3
AudioLeadIn: 0
PreviewTime: 55561
Countdown: 0
SampleSet: Soft
StackLeniency: 0.7
Mode: 0
LetterboxInBreaks: 0
WidescreenStoryboard: 1

[Editor]
Bookmarks: 24816
DistanceSpacing: 1
BeatDivisor: 2
GridSize: 4
TimelineZoom: 1.7

[Metadata]
Title:Kimi to Ita Sora
TitleUnicode:君といた空
Artist:Ray
ArtistUnicode:Ray
Creator:SkyFlame
Version:Easy
Source:蒼の彼方のフォーリズム
Tags:aokana ao no kanata four rhythm ending beyond the sky into the firmament visual novel eroge akitoshi -laura- corinn
BeatmapID:1317227
BeatmapSetID:442148

[Difficulty]
HPDrainRate:2
CircleSize:3
OverallDifficulty:2
ApproachRate:3
SliderMultiplier:0.899999999999999
SliderTickRate:1

[Events]
//Background and Video events
0,0,"kimi to ita sora bg.jpg",0,0
//Break Periods
//Storyboard Layer 0 (Background)
//Storyboard Layer 1 (Fail)
//Storyboard Layer 2 (Pass)
//Storyboard Layer 3 (Foreground)
//Storyboard Sound Samples

[TimingPoints]
299,372.670807453416,4,2,0,40,1,0
14087,-100,4,2,0,50,0,0
16603,-100,4,2,0,5,0,0
16696,-100,4,2,0,50,0,0
19584,-100,4,2,0,5,0,0
19677,-100,4,2,0,50,0,0
24149,-100,4,2,0,50,0,0
24895,-100,4,2,0,50,0,0
25640,-100,4,2,0,50,0,0
28528,-100,4,2,0,5,0,0
28621,-100,4,2,0,50,0,0
31510,-100,4,2,0,5,0,0
31603,-100,4,2,0,50,0,0
39429,-100,4,2,0,50,0,0
39522,-100,4,2,0,50,0,0
42410,-100,4,2,0,50,0,0
42503,-100,4,2,0,50,0,0
45392,-100,4,2,0,50,0,0
45485,-100,4,2,0,50,0,0
50982,-100,4,2,0,60,0,0
55640,-100,4,2,0,40,0,0
56944,-100,4,2,0,80,0,1
68497,-100,4,2,0,80,0,0
68870,-100,4,2,0,80,0,1
80423,-100,4,2,0,80,0,0
80795,-100,4,2,0,70,0,0
81168,-100,4,2,0,70,0,0

[Colours]
Combo1 : 103,105,156
Combo2 : 46,92,115
Combo3 : 245,43,125
Combo4 : 252,252,58

[HitObjects]
116,60,1789,6,0,L|172:232,1,180,4|0,0:1|0:0,0:0:0:0:
252,268,2907,1,0,0:0:0:0:
335,234,3280,2,0,L|403:354,2,135,4|0|0,0:3|0:0|0:0,0:0:0:0:
271,172,4771,6,0,P|192:193|164:293,1,180,2|0,0:0|0:0,0:0:0:0:
251,260,5889,1,0,0:0:0:0:
335,234,6261,2,0,P|395:226|443:162,2,135,4|0|0,0:3|0:0|0:0,0:0:0:0:
349,145,7752,6,0,P|304:143|255:177,1,89.9999999999999,2|0,0:0|1:0,0:0:0:0:
191,215,8497,2,0,P|189:261|165:316,1,89.9999999999999,2|0,0:0|1:0,0:0:0:0:
239,364,9243,2,0,P|282:364|336:364,1,89.9999999999999,2|0,0:0|1:0,0:0:0:0:
316,275,9988,2,0,L|412:259,1,89.9999999999999,2|0,0:0|1:0,0:0:0:0:
357,183,10733,6,0,L|268:197,2,89.9999999999999,4|0|2,3:2|1:0|3:2,0:0:0:0:
342,94,11851,1,0,1:0:0:0:
424,131,12224,2,0,L|513:145,2,89.9999999999999,2|0|2,3:2|1:0|3:2,0:0:0:0:
437,220,13342,1,0,1:0:0:0:
349,243,13715,1,6,0:0:0:0:
262,217,14087,6,0,L|158:229,2,89.9999999999999,0|0|0,3:0|3:0|3:0,0:0:0:0:
323,148,15205,1,0,3:0:0:0:
263,80,15578,2,0,P|347:61|414:140,1,180,0|0,3:0|3:0,0:0:0:0:
426,209,16696,5,0,3:0:0:0:
360,271,17069,2,0,L|256:283,2,89.9999999999999,0|0|0,3:0|3:0|3:0,0:0:0:0:
426,209,18187,1,0,3:0:0:0:
340,180,18559,2,0,L|143:204,1,180,0|0,3:0|3:0,0:0:0:0:
115,279,19677,1,0,3:0:0:0:
206,280,20050,6,0,L|295:269,2,89.9999999999999,0|0|0,3:0|3:0|3:0,0:0:0:0:
115,279,21168,1,0,3:0:0:0:
161,201,21541,2,0,P|90:193|27:302,1,180,0|0,3:0|3:0,0:0:0:0:
68,357,22659,6,0,P|139:365|202:256,1,180,0|0,3:0|0:0,0:0:0:0:
238,204,23777,1,0,3:0:0:0:
148,210,24149,2,0,L|7:218,2,135,0|0|0,3:0|3:0|3:0,0:0:0:0:
238,204,25640,1,6,0:0:0:0:
327,198,26013,6,0,L|416:191,2,89.9999999999999,0|2|0,1:0|0:0|1:0,0:0:0:0:
238,204,27131,1,2,0:0:0:0:
181,134,27503,2,0,P|107:140|84:162,1,89.9999999999999,0|2,1:0|0:0,0:0:0:0:
50,225,28249,2,0,L|61:322,1,89.9999999999999,0|2,1:0|0:0,0:0:0:0:
144,346,28994,6,0,L|234:340,2,89.9999999999999,0|2|0,1:0|0:0|1:0,0:0:0:0:
60,314,30112,1,2,0:0:0:0:
133,262,30485,2,0,L|240:256,1,89.9999999999999,0|2,1:0|0:0,0:0:0:0:
306,289,31230,2,0,L|305:200,1,89.9999999999999,0|2,1:0|0:0,0:0:0:0:
217,154,31976,6,0,P|172:150|140:120,2,89.9999999999999,0|2|0,1:0|0:0|1:0,0:0:0:0:
290,101,33094,2,0,P|365:110|429:197,1,180,2|2,0:0|0:0,0:0:0:0:
446,279,34212,1,0,1:0:0:0:
360,306,34584,6,0,B|209:322,2,135,2|0|0,0:0|0:0|1:0,0:0:0:0:
347,216,36075,1,2,0:0:0:0:
332,127,36448,2,0,P|262:82|164:109,1,180,0|0,1:0|1:0,0:0:0:0:
102,160,37566,1,2,3:2:0:0:
154,233,37938,2,0,B|226:273|242:345|242:345|306:285|366:273,1,270,0|4,1:0|3:0,0:0:0:0:
429,249,39429,6,0,P|433:185|381:85,2,180,2|0|0,0:0|3:0|3:0,0:0:0:0:
344,278,41292,1,4,1:2:0:0:
301,198,41665,2,0,P|264:179|207:198,1,89.9999999999999,0|0,3:0|3:0,0:0:0:0:
140,230,42410,6,0,P|145:143|219:98,2,180,2|0|0,0:0|3:0|3:0,0:0:0:0:
220,189,44274,1,4,1:2:0:0:
299,149,44646,2,0,L|375:207,1,89.9999999999999,0|0,3:0|3:0,0:0:0:0:
318,277,45392,6,0,P|205:338|91:281,2,225,2|0|0,0:0|3:0|1:0,0:0:0:0:
372,209,47628,1,0,3:0:0:0:
368,120,48000,2,0,P|304:80|216:120,2,180,6|0|0,0:0|1:0|0:0,0:0:0:0:
368,208,49864,1,2,0:0:0:0:
292,168,50236,2,0,P|282:217|303:263,1,89.9999999999999,0|2,1:0|0:0,0:0:0:0:
368,296,50982,6,0,P|327:333|287:334,1,89.9999999999999,2|0,0:0|1:0,0:0:0:0:
212,296,51727,2,0,L|122:302,1,89.9999999999999,0|0,0:0|1:0,0:0:0:0:
96,216,52472,2,0,L|185:210,1,89.9999999999999,0|0,0:0|1:0,0:0:0:0:
272,232,53218,2,0,P|311:171|311:151,1,89.9999999999999,2|0,0:0|1:0,0:0:0:0:
266,77,53963,6,0,L|132:93,1,135,0|0,1:0|1:0,0:0:0:0:
57,206,55081,2,0,L|101:199,1,45,0|0,1:0|1:0,0:0:0:0:
368,126,56944,6,0,L|464:126,2,89.9999999999999,6|0|2,0:0|1:0|0:0,0:0:0:0:
299,185,58062,1,0,1:0:0:0:
220,236,58435,2,0,P|307:281|379:233,1,180,2|0,0:0|0:0,0:0:0:0:
299,185,59553,1,0,1:0:0:0:
384,160,59926,6,0,L|480:160,2,89.9999999999999,2|0|2,0:0|1:0|0:0,0:0:0:0:
299,185,61044,1,0,1:0:0:0:
228,128,61417,2,0,P|137:90|69:144,1,180,2|0,0:0|0:0,0:0:0:0:
152,176,62535,1,0,1:0:0:0:
216,240,62907,6,0,L|320:240,2,89.9999999999999,6|0|2,0:0|1:0|0:0,0:0:0:0:
152,176,64025,1,0,1:0:0:0:
231,125,64398,2,0,L|331:125,2,89.9999999999999,2|0|2,0:0|1:0|0:0,0:0:0:0:
152,176,65516,1,0,1:0:0:0:
165,265,65889,6,0,P|249:265|273:249,1,89.9999999999999,2|0,0:0|1:0,0:0:0:0:
330,219,66634,2,0,P|373:208|416:217,1,89.9999999999999,2|0,0:0|1:0,0:0:0:0:
483,278,67379,2,0,P|503:210|493:175,2,89.9999999999999,2|0|2,0:0|1:0|0:0,0:0:0:0:
416,217,68497,1,0,1:0:0:0:
390,303,68870,6,0,L|298:320,2,89.9999999999999,6|0|2,0:0|1:0|0:0,0:0:0:0:
416,217,69988,1,0,1:0:0:0:
355,149,70361,2,0,P|271:172|241:253,1,180,2|0,0:0|0:0,0:0:0:0:
332,236,71479,1,0,1:0:0:0:
418,217,71851,6,0,P|417:265|389:301,2,89.9999999999999,2|0|2,0:0|1:0|0:0,0:0:0:0:
357,150,72969,1,0,1:0:0:0:
444,128,73342,2,0,P|379:63|290:88,1,180,6|0,0:0|0:0,0:0:0:0:
357,150,74460,1,0,1:0:0:0:
299,79,74833,6,0,P|254:81|203:123,1,89.9999999999999,2|0,0:0|1:0,0:0:0:0:
273,174,75578,2,0,L|263:263,1,89.9999999999999,2|0,0:0|1:0,0:0:0:0:
199,327,76323,2,0,P|148:332|88:289,1,89.9999999999999,0|0,0:0|1:0,0:0:0:0:
80,236,77069,2,0,L|89:146,1,89.9999999999999,2|0,0:0|1:0,0:0:0:0:
167,92,77814,6,0,B|231:84|231:84|295:100|295:100|335:88|375:84,1,180,2|0,0:0|0:0,0:0:0:0:
421,134,78932,1,0,1:0:0:0:
465,212,79305,2,0,P|405:240|349:228,1,89.9999999999999,2|0,3:2|1:0,0:0:0:0:
296,212,80050,2,0,P|251:215|213:239,1,89.9999999999999,2|0,3:2|1:0,0:0:0:0:
137,286,80795,6,0,P|77:218|101:126,1,180,6|2,0:0|0:0,0:0:0:0:
142,61,81913,1,0,1:0:0:0:
223,99,82286,2,0,L|339:99,2,89.9999999999999,0|0|2,0:0|1:0|0:0,0:0:0:0:
156,159,83404,1,0,1:0:0:0:
178,246,83777,6,0,B|238:218|238:218|390:222,1,180,2|2,0:0|0:0,0:0:0:0:
441,230,84895,1,0,1:0:0:0:
407,146,85267,2,0,P|320:111|265:142,2,135,2|0|0,0:0|0:0|1:0,0:0:0:0:
438,230,86758,2,0,L|330:222,1,89.9999999999999,2|0,0:0|1:0,0:0:0:0:
261,253,87503,2,0,P|221:268|159:264,1,89.9999999999999,2|0,0:0|1:0,0:0:0:0:
99,216,88249,2,0,P|94:163|115:128,1,89.9999999999999,2|0,0:0|1:0,0:0:0:0:
192,93,88994,2,0,P|193:141|176:181,1,89.9999999999999,2|0,0:0|1:0,0:0:0:0:
174,268,89739,6,0,P|292:217|287:151,2,180,2|2|2,0:0|0:0|0:0,0:0:0:0:
207,184,91603,1,0,1:0:0:0:
259,111,91976,2,0,L|363:87,1,89.9999999999999,2|0,0:0|1:0,0:0:0:0:
439,107,92721,6,0,P|459:159|391:267,1,180,6|2,0:0|0:0,0:0:0:0:
337,200,93839,2,0,L|233:208,2,89.9999999999999,0|2|0,1:0|0:0|1:0,0:0:0:0:
401,137,94957,2,0,L|389:45,1,89.9999999999999,2|0,0:0|1:0,0:0:0:0:
299,48,95702,6,0,P|253:42|211:54,1,89.9999999999999,2|0,0:0|1:0,0:0:0:0:
138,107,96448,1,0,0:0:0:0:
204,166,96820,2,0,P|218:208|215:252,2,89.9999999999999,0|2|0,1:0|0:0|1:0,0:0:0:0:
138,107,97938,2,0,P|138:47|174:-9,1,89.9999999999999,2|0,0:0|1:0,0:0:0:0:
222,73,98684,6,0,L|356:89,1,135,2|2,3:2|3:2,0:0:0:0:
431,202,99802,2,0,L|387:195,1,45,0|0,1:0|1:0,0:0:0:0:
