osu file format v14

[General]
AudioFilename: audio.mp3
AudioLeadIn: 0
PreviewTime: 56697
Countdown: 0
SampleSet: Soft
StackLeniency: 0.3
Mode: 0
LetterboxInBreaks: 0
WidescreenStoryboard: 0

[Editor]
DistanceSpacing: 1
BeatDivisor: 2
GridSize: 32
TimelineZoom: 1

[Metadata]
Title:Kimi to Ita Sora
TitleUnicode:君といた空
Artist:Ray
ArtistUnicode:Ray
Creator:Momochikun
Version:Normal
Source:蒼の彼方のフォーリズム
Tags:Ao no Kanata no Four Rhythm ending visual novel eroge sprite fumika kantokun
BeatmapID:961659
BeatmapSetID:445879

[Difficulty]
HPDrainRate:3.5
CircleSize:3.5
OverallDifficulty:4
ApproachRate:5
SliderMultiplier:1.15
SliderTickRate:1

[Events]
//Background and Video events
Video,0,"Ao no Kanata.avi"
0,0,"Asuka.jpg",0,0
//Break Periods
//Storyboard Layer 0 (Background)
//Storyboard Layer 1 (Fail)
//Storyboard Layer 2 (Pass)
//Storyboard Layer 3 (Foreground)
//Storyboard Sound Samples

[TimingPoints]
145,372.670807453416,4,2,2,80,1,0
1635,-100,4,2,2,80,0,0
7598,-100,4,2,2,80,0,0
13561,-100,4,2,1,80,0,0
24741,-100,4,2,1,80,0,0
39275,-100,4,2,1,80,0,0
50828,-100,4,2,1,80,0,0
56790,-100,4,2,2,80,0,1
62940,-100,4,2,1,80,0,1
68390,-100,4,2,2,50,0,1
68623,-100,4,2,2,50,0,0
68716,-100,4,2,2,80,0,1
74865,-100,4,2,1,80,0,1
80641,-100,4,2,1,80,0,0

[Colours]
Combo1 : 125,190,255
Combo2 : 128,255,255
Combo3 : 128,255,128

[HitObjects]
446,113,1635,6,0,P|411:161|405:230,1,115,4|2,1:0|0:0,0:0:0:0:
435,262,2194,1,0,0:0:0:0:
435,262,2381,2,0,P|336:240|299:234,1,115,2|2,0:1|0:0,0:0:0:0:
231,166,3126,2,0,P|174:176|118:190,1,115,4|2,1:2|0:0,0:0:0:0:
70,222,3685,2,0,P|13:195|18:84,1,172.5,2|2,0:1|0:0,0:0:0:0:
95,21,4617,6,0,P|151:31|207:45,1,115,4|2,1:2|0:0,0:0:0:0:
251,82,5176,1,0,0:0:0:0:
251,82,5362,2,0,P|307:90|366:56,1,115,2|2,0:1|0:0,0:0:0:0:
468,33,6107,2,0,P|437:115|434:163,1,115,4|2,1:2|0:0,0:0:0:0:
392,182,6666,2,0,P|455:226|491:273,1,115,2|0,0:1|0:0,0:0:0:0:
505,306,7225,1,2,0:1:0:0:
400,353,7598,6,0,B|360:364|360:364|267:346,1,115,4|2,1:0|1:2,0:0:0:0:
190,288,8343,2,0,B|150:277|150:277|57:295,2,115,2|2|2,1:0|1:2|1:0,0:0:0:0:
298,248,9461,1,2,1:2:0:0:
216,167,9834,2,0,P|186:118|194:55,1,115,2|2,1:0|1:2,0:0:0:0:
297,18,10579,6,0,L|418:40,1,115,4|2,1:0|1:2,0:0:0:0:
458,143,11325,2,0,L|344:122,1,115,0|2,1:0|1:2,0:0:0:0:
240,170,12070,2,0,L|182:155,2,57.5,0|2|2,1:0|0:1|1:2,0:0:0:0:
142,231,12815,2,0,L|86:216,2,57.5,0|2|2,1:0|0:1|1:2,0:0:0:0:
189,263,13374,5,0,1:0:0:0:
189,263,13561,2,0,P|221:316|230:373,1,115,4|0,1:0|1:0,0:0:0:0:
336,323,14306,2,0,P|396:305|462:302,1,115,0|0,1:0|1:0,0:0:0:0:
487,193,15051,2,0,P|427:211|361:214,1,115,0|0,1:0|1:0,0:0:0:0:
321,236,15610,2,0,P|334:181|345:124,1,115,2|2,0:0|0:0,0:0:0:0:
370,71,16169,1,0,1:0:0:0:
259,40,16542,6,0,L|142:75,1,115,0|0,1:0|1:0,0:0:0:0:
35,50,17287,2,0,L|70:167,1,115,0|0,1:0|1:0,0:0:0:0:
116,265,18033,2,0,P|180:283|235:283,1,115,0|0,1:0|1:0,0:0:0:0:
277,254,18592,2,0,P|246:327|241:387,1,115,2|2,0:0|0:0,0:0:0:0:
297,374,19151,1,0,1:0:0:0:
402,327,19523,6,0,B|422:253|422:253|397:196,1,115,0|0,1:0|1:0,0:0:0:0:
373,170,20082,1,2,0:0:0:0:
373,170,20269,2,0,P|341:120|351:53,1,115,0|0,1:0|1:0,0:0:0:0:
449,20,21014,2,0,P|481:70|471:137,1,115,0|0,1:0|1:0,0:0:0:0:
461,179,21573,2,0,P|392:165|294:242,1,172.5,2|0,0:0|1:0,0:0:0:0:
272,320,22505,5,0,1:0:0:0:
171,265,22877,1,0,1:0:0:0:
171,265,23064,2,0,B|113:254|72:282|72:282|27:262|25:224,1,172.5,2|0,0:0|1:0,0:0:0:0:
100,145,23995,2,0,L|118:26,1,115,0|0,1:0|1:2,0:0:0:0:
224,73,24741,2,0,L|284:86,1,57.5,2|2,1:0|0:0,0:0:0:0:
313,131,25113,2,0,L|373:144,1,57.5,4|2,1:2|0:0,0:0:0:0:
426,152,25486,6,0,P|463:117|459:48,2,115,4|8|0,1:0|0:0|1:0,0:0:0:0:
332,218,26604,1,8,0:0:0:0:
231,274,26977,2,0,L|95:250,1,115,0|8,1:0|0:0,0:0:0:0:
80,298,27536,2,0,L|52:168,1,115,2|2,0:0|0:0,0:0:0:0:
44,129,28095,1,8,0:0:0:0:
117,41,28467,6,0,P|166:63|199:124,1,115,0|8,1:0|0:0,0:0:0:0:
270,202,29213,2,0,P|333:198|387:168,1,115,0|8,1:0|0:0,0:0:0:0:
425,141,29772,1,2,0:0:0:0:
425,141,29958,2,0,L|394:279,1,115,0|8,1:0|0:0,0:0:0:0:
389,309,30517,1,2,0:0:0:0:
279,344,30890,1,2,0:0:0:0:
279,344,31076,2,0,P|224:358|157:356,1,115,8|4,0:0|0:0,0:0:0:0:
72,290,31822,5,8,0:0:0:0:
157,213,32194,2,0,P|183:159|182:89,1,115,0|8,1:0|0:0,0:0:0:0:
293,64,32940,2,0,P|330:106|348:161,1,115,0|8,1:0|0:0,0:0:0:0:
320,211,33499,2,0,B|393:186|393:186|436:199,1,115,2|2,0:0|0:0,0:0:0:0:
475,231,34058,1,8,0:0:0:0:
392,311,34430,6,0,L|267:348,1,115,0|8,1:0|0:0,0:0:0:0:
226,360,34989,2,0,P|158:361|90:257,1,172.5,2|8,0:0|0:0,0:0:0:0:
146,185,35921,2,0,P|145:136|87:73,1,115,0|8,1:0|0:0,0:0:0:0:
79,33,36480,2,0,L|254:68,1,172.5,2|8,0:0|0:0,0:0:0:0:
353,113,37412,6,0,L|410:100,2,57.5,4|2|8,1:0|0:1|0:0,0:0:0:0:
259,179,38157,2,0,P|220:227|214:303,1,115,2|8,1:0|0:0,0:0:0:0:
243,325,38716,2,0,L|260:381,1,57.5,2|0,0:1|1:0,0:0:0:0:
371,350,39275,6,0,L|397:232,1,115,4|8,1:0|0:0,0:0:0:0:
470,150,40020,1,0,1:0:0:0:
470,150,40207,2,0,P|473:85|440:35,1,115,4|0,1:2|1:0,0:0:0:0:
392,31,40766,2,0,P|338:59|270:59,1,115,0|8,1:0|0:0,0:0:0:0:
181,11,41511,2,0,L|155:124,1,115,0|0,1:0|1:0,0:0:0:0:
121,230,42256,5,4,1:0:0:0:
235,239,42629,2,0,L|209:352,1,115,8|0,0:0|1:0,0:0:0:0:
260,377,43188,2,0,B|322:343|385:352|385:352|427:325,1,172.5,4|0,1:2|1:0,0:0:0:0:
484,238,44120,2,0,P|499:187|466:120,1,115,8|0,0:0|1:0,0:0:0:0:
369,91,44865,1,0,1:0:0:0:
303,185,45238,5,4,1:0:0:0:
191,224,45610,2,0,L|135:206,1,57.5,8|2,0:0|0:1,0:0:0:0:
78,213,45983,1,0,1:0:0:0:
78,213,46169,2,0,L|43:88,1,115,4|0,1:2|1:0,0:0:0:0:
92,66,46728,2,0,P|156:55|212:86,1,115,0|8,1:0|0:0,0:0:0:0:
277,160,47474,1,0,1:0:0:0:
355,244,47846,6,0,P|385:193|382:121,2,115,4|2|8,1:0|1:0|0:0,0:0:0:0:
256,320,48964,1,2,1:0:0:0:
256,320,49151,2,0,B|174:293|174:293|113:314,1,115,4|2,1:2|0:1,0:0:0:0:
97,331,49710,1,0,1:0:0:0:
21,244,50082,2,0,L|-1:113,1,115,8|0,0:0|1:0,0:0:0:0:
100,70,50828,6,0,L|119:183,1,115,4|8,1:2|0:0,0:0:0:0:
172,205,51387,2,0,P|229:209|304:151,1,115,2|2,0:0|0:0,0:0:0:0:
329,155,51946,1,8,0:0:0:0:
436,114,52318,2,0,P|481:164|484:223,1,115,0|8,1:0|0:0,0:0:0:0:
387,267,53064,2,0,P|354:311|342:373,1,115,0|8,1:0|0:0,0:0:0:0:
235,324,53809,6,0,L|175:341,1,57.5,14|0,0:0|1:0,0:0:0:0:
122,349,54182,1,0,1:0:0:0:
122,349,54368,2,0,P|77:314|72:239,1,115,14|0,0:0|1:0,0:0:0:0:
74,202,54927,1,14,0:0:0:0:
74,202,55113,1,14,0:0:0:0:
256,32,56790,6,0,L|385:60,1,115,4|8,1:0|0:0,0:0:0:0:
470,109,57536,2,0,P|438:190|428:233,1,115,0|8,1:0|0:0,0:0:0:0:
453,270,58095,1,2,0:0:0:0:
453,270,58281,2,0,P|384:260|340:301,1,115,0|8,1:0|0:0,0:0:0:0:
309,326,58840,2,0,B|265:348|265:348|133:326,1,172.5,2|8,0:0|0:0,0:0:0:0:
53,256,59772,6,0,L|25:141,1,115,0|8,1:0|0:0,0:0:0:0:
63,100,60331,1,2,0:0:0:0:
63,100,60517,2,0,P|114:61|171:68,1,115,0|8,1:0|0:0,0:0:0:0:
257,128,61263,2,0,P|308:167|365:160,1,115,0|8,1:0|0:0,0:0:0:0:
410,145,61822,2,0,P|371:195|354:279,1,115,2|2,0:0|0:0,0:0:0:0:
391,288,62381,1,8,0:0:0:0:
297,354,62753,6,0,L|182:328,1,115,4|8,1:0|0:0,0:0:0:0:
129,343,63312,1,2,0:0:0:0:
129,343,63499,2,0,L|103:229,1,115,0|8,1:0|0:0,0:0:0:0:
42,133,64244,2,0,B|74:106|74:106|147:119,1,115,0|8,1:0|0:0,0:0:0:0:
199,140,64803,2,0,P|258:111|315:112,1,115,2|2,0:0|0:0,0:0:0:0:
359,132,65362,1,8,0:0:0:0:
439,49,65735,6,0,P|476:90|485:150,1,115,0|8,1:0|0:0,0:0:0:0:
387,207,66480,2,0,P|395:263|433:305,1,115,0|8,1:0|0:0,0:0:0:0:
334,364,67225,2,0,P|291:326|235:317,1,115,4|8,1:2|0:0,0:0:0:0:
181,337,67784,1,2,0:0:0:0:
181,337,67971,2,0,L|113:298,1,57.5,0|2,1:0|0:0,0:0:0:0:
82,278,68343,2,0,L|95:213,1,57.5,8|2,0:0|0:0,0:0:0:0:
107,165,68716,6,0,L|76:45,1,115,4|8,1:0|0:0,0:0:0:0:
192,68,69461,2,0,L|220:179,1,115,0|8,1:0|0:0,0:0:0:0:
254,226,70020,1,2,0:0:0:0:
254,226,70207,2,0,P|305:196|361:200,1,115,0|8,1:0|0:0,0:0:0:0:
400,239,70766,2,0,B|437:206|479:204|479:204|494:167|467:111,1,172.5,2|8,0:0|0:0,0:0:0:0:
389,42,71697,6,0,L|272:68,1,115,0|8,1:0|0:0,0:0:0:0:
238,110,72256,1,2,0:0:0:0:
238,110,72443,2,0,L|115:91,1,115,0|8,1:0|0:0,0:0:0:0:
41,172,73188,2,0,P|49:230|103:269,1,115,0|8,1:0|0:0,0:0:0:0:
138,297,73747,2,0,P|193:270|251:271,1,115,2|2,0:0|0:0,0:0:0:0:
280,315,74306,1,8,0:0:0:0:
392,291,74679,6,0,B|411:216|411:216|391:162,1,115,4|8,1:0|0:0,0:0:0:0:
316,99,75424,2,0,B|297:174|297:174|317:228,2,115,0|8|0,1:0|0:0|1:0,0:0:0:0:
229,22,76542,1,8,0:0:0:0:
158,112,76915,1,0,1:0:0:0:
62,47,77287,1,8,0:0:0:0:
17,153,77660,6,0,L|-1:278,1,115,0|8,1:0|0:0,0:0:0:0:
29,316,78219,2,0,P|94:335|151:327,1,115,2|2,0:0|0:0,0:0:0:0:
185,294,78778,2,0,L|252:312,1,57.5,8|2,0:0|0:0,0:0:0:0:
296,321,79151,2,0,P|327:273|320:211,1,115,0|8,1:0|0:0,0:0:0:0:
233,144,79896,2,0,P|183:146|133:105,1,115,0|8,1:0|0:0,0:0:0:0:
256,192,80641,12,2,83623,0:0:0:0:
