osu file format v14

[General]
AudioFilename: audio.mp3
AudioLeadIn: 0
PreviewTime: 56697
Countdown: 0
SampleSet: Soft
StackLeniency: 0.7
Mode: 0
LetterboxInBreaks: 0
WidescreenStoryboard: 1

[Editor]
DistanceSpacing: 1.2
BeatDivisor: 4
GridSize: 32
TimelineZoom: 1.85

[Metadata]
Title:Kimi to Ita Sora
TitleUnicode:君といた空
Artist:Ray
ArtistUnicode:Ray
Creator:Momochikun
Version:Kanto's Easy
Source:蒼の彼方のフォーリズム
Tags:Ao no Kanata no Four Rhythm ending visual novel eroge sprite fumika kantokun
BeatmapID:969644
BeatmapSetID:445879

[Difficulty]
HPDrainRate:4
CircleSize:3
OverallDifficulty:4
ApproachRate:5
SliderMultiplier:0.800000005960464
SliderTickRate:1

[Events]
//Background and Video events
Video,0,"Ao no Kanata.avi"
0,0,"Misaki.jpg",0,0
//Break Periods
//Storyboard Layer 0 (Background)
//Storyboard Layer 1 (Fail)
//Storyboard Layer 2 (Pass)
//Storyboard Layer 3 (Foreground)
//Storyboard Sound Samples

[TimingPoints]
145,372.670807453416,4,2,2,65,1,0
9368,-100,4,2,4,40,0,0
9554,-100,4,2,2,80,0,0
13561,-100,4,2,2,50,0,0
13840,-100,4,2,4,35,0,0
14026,-100,4,2,2,50,0,0
15331,-100,4,2,4,30,0,0
15890,-100,4,2,2,50,0,0
19803,-100,4,2,4,45,0,0
19989,-100,4,2,2,50,0,0
21294,-100,4,2,4,45,0,0
21853,-100,4,2,2,50,0,0
22784,-100,4,2,4,45,0,0
23343,-100,4,2,2,50,0,0
25486,-100,4,2,2,65,0,0
25766,-100,4,2,3,45,0,0
25952,-100,4,2,2,65,0,0
33219,-100,4,2,3,50,0,0
33405,-100,4,2,2,65,0,0
34710,-100,4,2,3,50,0,0
34896,-100,4,2,2,65,0,0
35082,-100,4,2,4,50,0,0
35269,-100,4,2,2,65,0,0
45890,-100,4,2,3,45,0,0
46076,-100,4,2,2,65,0,0
48126,-100,4,2,4,45,0,0
48312,-100,4,2,2,65,0,0
56790,-100,4,2,2,70,0,1
57629,-100,4,2,2,70,0,1
63033,-100,4,2,3,45,0,1
63219,-100,4,2,2,70,0,1
64523,-100,4,2,3,45,0,1
64710,-100,4,2,2,70,0,1
68623,-100,4,2,2,60,0,0
68716,-100,4,2,2,70,0,1
74958,-100,4,2,3,45,0,1
75144,-100,4,2,2,70,0,1
78685,-100,4,2,3,45,0,1
78871,-100,4,2,2,70,0,1
79058,-100,4,2,4,45,0,1
79244,-100,4,2,2,70,0,1
80641,-100,4,2,1,70,0,0
81200,-100,4,2,1,20,0,0
83623,-100,4,2,1,5,0,0

[Colours]
Combo1 : 125,190,255
Combo2 : 128,255,255
Combo3 : 128,255,128

[HitObjects]
490,13,1635,6,0,L|458:173,1,160.000001192093,4|0,0:0|0:0,0:0:0:0:
274,224,3126,2,0,P|243:205|207:122,2,120.00000089407,4|0|0,0:0|0:0|0:0,0:0:0:0:
344,289,4617,6,0,P|422:298|489:257,1,160.000001192093,4|0,0:0|0:0,0:0:0:0:
334,143,6107,2,0,B|280:137|280:137|235:161|235:161|180:156,1,160.000001192093,4|0,0:0|0:0,0:0:0:0:
86,177,7225,1,0,0:0:0:0:
145,251,7598,6,0,P|148:297|149:342,1,80.0000005960464,4|0,1:0|1:0,0:0:0:0:
241,357,8343,2,0,P|242:317|244:277,1,80.0000005960464,0|0,1:0|1:0,0:0:0:0:
329,322,9089,2,0,P|414:323|461:260,1,160.000001192093,0|0,1:0|1:0,0:0:0:0:
462,173,10207,1,0,1:0:0:0:
367,156,10579,6,0,P|368:195|370:235,1,80.0000005960464,0|0,1:0|1:0,0:0:0:0:
297,297,11325,2,0,P|257:298|217:300,1,80.0000005960464,0|0,1:0|1:0,0:0:0:0:
150,232,12070,2,0,P|148:192|146:152,1,80.0000005960464,0|0,1:0|1:0,0:0:0:0:
220,91,12816,2,0,P|259:89|299:87,1,80.0000005960464,0|0,1:0|1:0,0:0:0:0:
392,62,13561,6,0,B|389:112|396:232|397:232,1,160.000001192093,4|0,1:0|1:0,0:0:0:0:
471,281,14679,1,0,1:0:0:0:
380,312,15051,2,0,B|350:310|328:288|328:288|298:304|260:296,2,120.00000089407,0|0|0,1:0|0:0|1:0,0:0:0:0:
471,281,16542,6,0,P|490:241|491:201,1,80.0000005960464,0|0,1:0|1:0,0:0:0:0:
431,132,17287,1,0,1:0:0:0:
396,221,17660,1,0,1:0:0:0:
334,147,18033,2,0,P|287:142|251:138,1,80.0000005960464,0|0,1:0|1:0,0:0:0:0:
223,229,18778,2,0,P|262:233|302:237,1,80.0000005960464,0|0,1:0|1:0,0:0:0:0:
396,221,19523,6,0,P|424:178|396:75,1,160.000001192093,0|0,1:0|1:0,0:0:0:0:
311,39,20641,1,0,1:0:0:0:
228,88,21014,2,0,B|169:105|169:68|109:86,2,120.00000089407,0|0|0,1:0|0:0|1:0,0:0:0:0:
311,39,22505,6,0,P|360:32|430:72,2,120.00000089407,0|0|0,1:0|0:0|1:0,0:0:0:0:
228,87,23995,2,0,P|233:134|237:170,1,80.0000005960464,0|0,1:0|1:0,0:0:0:0:
314,223,24741,2,0,P|309:270|305:306,1,80.0000005960464,0|4,1:0|1:0,0:0:0:0:
222,351,25486,6,0,B|168:342|100:331|100:331|49:358,1,160.000001192093,4|0,1:0|1:0,0:0:0:0:
42,255,26604,1,8,0:0:0:0:
137,244,26977,2,0,P|178:250|219:256,1,80.0000005960464,0|8,1:0|0:0,0:0:0:0:
302,297,27722,2,0,P|341:292|382:286,1,80.0000005960464,0|8,1:0|0:0,0:0:0:0:
458,228,28467,6,0,P|477:186|475:144,2,80.0000005960464,0|8|0,1:0|0:0|1:0,0:0:0:0:
472,323,29585,1,8,0:0:0:0:
381,286,29958,2,0,P|341:291|302:297,1,80.0000005960464,0|8,1:0|0:0,0:0:0:0:
216,255,30704,2,0,P|178:250|137:244,1,80.0000005960464,0|8,1:0|0:0,0:0:0:0:
51,287,31449,6,0,P|45:242|51:189,1,80.0000005960464,0|8,1:0|0:0,0:0:0:0:
124,149,32194,2,0,P|129:109|127:69,1,80.0000005960464,0|8,1:0|0:0,0:0:0:0:
40,27,32940,2,0,B|120:49|119:2|209:29,1,160.000001192093,0|0,1:0|1:0,0:0:0:0:
250,106,34058,1,8,0:0:0:0:
346,99,34430,6,0,B|402:81|403:117|464:100,2,120.00000089407,0|0|8,1:0|0:0|0:0,0:0:0:0:
274,162,35921,2,0,P|272:226|272:249,1,80.0000005960464,0|8,1:0|0:0,0:0:0:0:
177,257,36666,2,0,P|174:193|174:170,1,80.0000005960464,0|8,1:0|0:0,0:0:0:0:
204,83,37412,5,0,1:0:0:0:
282,141,37784,1,8,0:0:0:0:
374,115,38157,2,0,P|424:107|466:105,1,80.0000005960464,0|8,1:0|0:0,0:0:0:0:
426,197,38902,5,0,1:0:0:0:
353,261,39275,1,4,0:0:0:0:
267,219,39648,2,0,P|215:182|210:122,2,120.00000089407,8|4|0,0:0|0:0|1:0,0:0:0:0:
353,261,41138,1,8,0:0:0:0:
340,356,41511,1,0,1:0:0:0:
248,375,41884,6,0,P|240:334|257:295,1,80.0000005960464,0|4,1:0|1:0,0:0:0:0:
267,204,42629,2,0,P|226:155|181:101,2,120.00000089407,8|4|0,0:0|0:0|1:0,0:0:0:0:
340,266,44120,2,0,P|379:262|419:260,1,80.0000005960464,8|0,0:0|1:0,0:0:0:0:
511,275,44865,6,0,P|507:235|505:195,1,80.0000005960464,0|4,1:0|1:0,0:0:0:0:
424,143,45610,2,0,P|430:88|439:12,2,120.00000089407,8|4|0,0:0|0:0|1:0,0:0:0:0:
416,238,47101,1,8,0:0:0:0:
336,184,47474,1,0,1:0:0:0:
256,237,47846,6,0,P|197:263|111:224,1,160.000001192093,0|8,1:0|0:0,0:0:0:0:
49,97,49151,2,0,L|180:74,1,120.00000089407,4|0,0:1|1:0,0:0:0:0:
252,120,50082,2,0,P|291:123|331:125,1,80.0000005960464,8|0,0:0|1:0,0:0:0:0:
256,192,50828,12,8,55113,3:2:0:0:
326,272,56790,6,0,P|338:233|332:188,2,80.0000005960464,4|8|0,1:0|0:0|1:0,0:0:0:0:
259,341,57908,1,8,0:0:0:0:
163,318,58281,2,0,P|117:313|75:310,1,80.0000005960464,0|8,1:0|0:0,0:0:0:0:
102,216,59026,2,0,P|148:221|190:224,1,80.0000005960464,0|8,1:0|0:0,0:0:0:0:
255,288,59772,6,0,P|293:269|332:268,2,80.0000005960464,0|8|0,1:0|0:0|1:0,0:0:0:0:
203,369,60890,1,8,0:0:0:0:
119,321,61263,2,0,P|73:316|31:313,1,80.0000005960464,0|8,1:0|0:0,0:0:0:0:
18,219,62008,2,0,P|23:173|26:131,1,80.0000005960464,0|8,1:0|0:0,0:0:0:0:
99,79,62753,6,0,P|153:55|240:95,1,160.000001192093,0|0,1:0|1:0,0:0:0:0:
298,170,63871,1,8,0:0:0:0:
368,237,64244,2,0,P|422:261|509:221,1,160.000001192093,0|0,1:0|1:0,0:0:0:0:
433,161,65362,1,8,0:0:0:0:
368,237,65735,6,0,P|322:242|270:247,1,80.0000005960464,0|8,1:0|0:0,0:0:0:0:
203,290,66480,2,0,P|198:244|193:192,1,80.0000005960464,0|8,1:0|0:0,0:0:0:0:
147,126,67225,2,0,P|193:121|245:116,1,80.0000005960464,0|8,1:0|0:0,0:0:0:0:
312,73,67970,2,0,P|317:119|322:171,1,80.0000005960464,0|8,1:0|0:0,0:0:0:0:
407,193,68716,6,0,P|453:189|496:184,2,80.0000005960464,4|8|0,1:0|0:0|1:0,0:0:0:0:
349,270,69834,1,8,0:0:0:0:
261,313,70207,2,0,P|214:328|167:320,1,80.0000005960464,0|8,1:0|0:0,0:0:0:0:
166,231,70952,2,0,P|203:217|242:218,1,80.0000005960464,0|8,1:0|0:0,0:0:0:0:
336,195,71697,6,0,P|332:149|327:106,2,80.0000005960464,4|8|0,1:0|0:0|1:0,0:0:0:0:
399,267,72815,1,8,0:0:0:0:
338,343,73188,1,0,1:0:0:0:
251,301,73561,1,8,0:0:0:0:
176,361,73933,2,0,P|140:356|91:353,1,80.0000005960464,0|8,1:0|0:0,0:0:0:0:
69,260,74679,6,0,P|155:270|227:278,1,160.000001192093,0|0,1:0|1:0,0:0:0:0:
309,328,75797,1,8,0:0:0:0:
400,300,76169,2,0,P|416:259|418:219,1,80.0000005960464,0|8,1:0|0:0,0:0:0:0:
493,163,76915,2,0,P|489:123|474:86,1,80.0000005960464,0|8,1:0|0:0,0:0:0:0:
392,35,77660,6,0,P|341:40|296:45,1,80.0000005960464,0|8,1:0|0:0,0:0:0:0:
227,87,78405,2,0,B|198:86|172:69|172:69|141:82|110:79,2,120.00000089407,0|0|8,1:0|0:0|0:0,0:0:0:0:
307,139,79896,2,0,P|312:183|312:228,1,80.0000005960464,0|8,1:0|0:0,0:0:0:0:
310,313,80641,5,2,0:0:0:0:
256,192,80735,12,0,83623,0:0:0:0:
