osu file format v14

[General]
AudioFilename: audio.mp3
AudioLeadIn: 0
PreviewTime: 56697
Countdown: 0
SampleSet: Soft
StackLeniency: 0.7
Mode: 0
LetterboxInBreaks: 0
WidescreenStoryboard: 0

[Editor]
DistanceSpacing: 1.5
BeatDivisor: 4
GridSize: 4
TimelineZoom: 1.85

[Metadata]
Title:Kimi to Ita Sora
TitleUnicode:君といた空
Artist:Ray
ArtistUnicode:Ray
Creator:Momochikun
Version:Fumika's Hard
Source:蒼の彼方のフォーリズム
Tags:Ao no Kanata no Four Rhythm ending visual novel eroge sprite fumika kantokun
BeatmapID:957833
BeatmapSetID:445879

[Difficulty]
HPDrainRate:6
CircleSize:3.8
OverallDifficulty:6
ApproachRate:7.6
SliderMultiplier:1.45
SliderTickRate:1

[Events]
//Background and Video events
Video,0,"Ao no Kanata.avi"
0,0,"Rika.jpg",0,0
//Break Periods
//Storyboard Layer 0 (Background)
//Storyboard Layer 1 (Fail)
//Storyboard Layer 2 (Pass)
//Storyboard Layer 3 (Foreground)
//Storyboard Sound Samples

[TimingPoints]
145,372.670807453416,4,2,2,80,1,0
1635,-133.333333333333,4,2,2,80,0,0
7598,-100,4,2,2,80,0,0
13933,-100,4,2,1,70,0,0
23995,-100,4,2,2,70,0,0
24089,-100,4,2,2,60,0,0
24182,-100,4,2,2,50,0,0
24275,-100,4,2,2,60,0,0
24368,-100,4,2,2,70,0,0
24461,-100,4,2,2,60,0,0
24741,-100,4,2,2,70,0,0
24834,-100,4,2,2,60,0,0
25113,-100,4,2,2,70,0,0
25207,-100,4,2,2,60,0,0
25486,-100,4,2,2,70,0,0
25859,-100,4,2,2,80,0,0
37505,-100,4,2,2,60,0,0
37784,-100,4,2,2,80,0,0
37877,-100,4,2,2,60,0,0
38157,-100,4,2,2,80,0,0
38250,-100,4,2,2,60,0,0
38530,-100,4,2,2,80,0,0
50828,-100,4,2,1,80,0,0
56790,-100,4,2,2,80,0,1
62940,-100,4,2,1,80,0,1
68390,-100,4,2,2,60,0,1
68623,-100,4,2,2,60,0,0
68716,-100,4,2,2,80,0,1
74865,-100,4,2,1,80,0,1
79151,-100,4,2,2,80,0,1
79244,-100,4,2,2,60,0,1
79523,-100,4,2,2,80,0,1
79617,-100,4,2,2,60,0,1
79896,-100,4,2,2,80,0,1
79989,-100,4,2,2,60,0,1
80269,-100,4,2,2,80,0,1
80362,-100,4,2,2,60,0,1
80641,-100,4,2,1,80,0,0
81200,-100,4,2,1,20,0,0
83623,-100,4,2,1,5,0,0

[Colours]
Combo1 : 125,190,255
Combo2 : 128,255,255
Combo3 : 128,255,128

[HitObjects]
0,304,1635,6,0,P|40:344|92:344,1,108.750004148483,4|2,1:0|0:0,0:0:0:0:
192,217,2381,2,0,P|244:205|292:233,1,108.750004148483,2|2,0:1|0:0,0:0:0:0:
418,331,3126,2,0,P|470:335|510:299,1,108.750004148483,4|2,1:2|0:0,0:0:0:0:
435,153,3871,2,0,B|427:113|427:113|435:89|435:89|427:46,1,108.750004148483,2|2,0:1|0:0,0:0:0:0:
265,20,4617,6,0,P|213:16|169:48,1,108.750004148483,4|2,1:2|0:0,0:0:0:0:
33,139,5362,2,0,L|41:251,1,108.750004148483,2|2,0:1|0:0,0:0:0:0:
197,293,6107,2,0,L|204:184,1,108.750004148483,4|2,1:2|0:0,0:0:0:0:
342,97,6853,2,0,L|349:205,1,108.750004148483,2|2,0:1|0:0,0:0:0:0:
441,357,7598,5,6,1:0:0:0:
485,281,7784,1,0,0:0:0:0:
428,213,7971,2,0,B|425:169|425:169|444:133,1,72.5,2|0,1:2|0:0,0:0:0:0:
345,51,8343,5,2,1:0:0:0:
261,35,8530,1,0,0:0:0:0:
197,95,8716,2,0,L|201:167,1,72.5,2|0,1:2|0:0,0:0:0:0:
114,292,9089,5,2,1:0:0:0:
182,344,9275,1,0,0:0:0:0:
262,308,9461,2,0,B|298:308|298:308|346:320,1,72.5,2|0,1:2|0:0,0:0:0:0:
456,272,9834,5,2,1:0:0:0:
500,196,10020,1,0,0:0:0:0:
452,120,10207,2,0,B|444:84|444:84|448:44,1,72.5,2|0,1:2|0:0,0:0:0:0:
312,32,10579,5,4,1:0:0:0:
296,40,10672,1,0,0:0:0:0:
280,48,10766,1,2,0:1:0:0:
264,56,10859,1,0,0:0:0:0:
248,64,10952,6,0,L|196:92,3,36.25,2|0|2|0,1:2|0:0|0:1|0:0,0:0:0:0:
180,76,11325,2,0,L|164:116,3,36.25,0|0|2|0,1:0|0:0|0:1|0:0,0:0:0:0:
132,116,11697,6,0,L|128:172,3,36.25,2|0|2|0,1:2|0:0|0:1|0:0,0:0:0:0:
96,168,12070,2,0,L|108:208,3,36.25,0|0|2|0,1:0|0:0|0:1|0:0,0:0:0:0:
80,228,12443,6,0,L|108:260,3,36.25,2|0|2|0,1:2|0:0|0:1|0:0,0:0:0:0:
88,288,12815,2,0,L|124:304,3,36.25,0|0|2|0,1:0|0:0|0:1|0:0,0:0:0:0:
156,316,13188,6,0,L|256:300,2,72.5,2|0|4,1:2|1:0|1:0,0:0:0:0:
12,332,13933,6,0,P|0:300|8:256,1,72.5,0|2,1:0|0:0,0:0:0:0:
48,180,14306,2,0,P|60:144|52:104,1,72.5,0|2,1:0|0:0,0:0:0:0:
4,28,14679,1,0,1:0:0:0:
96,84,14865,1,2,0:0:0:0:
192,36,15051,6,0,B|228:32|228:32|264:44,1,72.5,0|2,1:0|0:0,0:0:0:0:
341,95,15424,1,0,1:0:0:0:
421,143,15610,2,0,P|368:189|295:180,1,145,2|2,0:0|0:0,0:0:0:0:
204,168,16169,2,0,L|120:172,2,72.5,0|2|0,1:0|0:0|1:0,0:0:0:0:
220,164,16915,5,0,1:0:0:0:
276,240,17101,1,2,0:0:0:0:
200,292,17287,2,0,P|206:326|230:356,1,72.5,0|2,1:0|0:0,0:0:0:0:
330,322,17660,2,0,L|408:304,1,72.5,0|2,1:0|0:0,0:0:0:0:
456,228,18033,6,0,B|460:176|460:176|480:140|480:140|484:88,1,145,0|0,1:0|1:0,0:0:0:0:
412,28,18592,2,0,P|380:12|336:16,1,72.5,2|0,0:0|1:0,0:0:0:0:
280,100,18964,1,2,0:0:0:0:
280,100,19151,2,0,P|244:112|208:104,1,72.5,0|2,1:0|0:0,0:0:0:0:
128,36,19523,6,0,P|152:92|128:172,1,145,0|0,1:0|1:0,0:0:0:0:
56,232,20082,1,2,0:0:0:0:
76,324,20269,2,0,B|104:344|104:344|152:356,1,72.5,0|2,1:0|0:0,0:0:0:0:
196,276,20641,2,0,B|232:260|232:260|268:260,1,72.5,0|2,1:0|0:0,0:0:0:0:
392,308,21014,6,0,P|452:296|460:220,1,145,0|0,1:0|1:0,0:0:0:0:
352,136,21573,2,0,B|300:136|300:136|264:152|264:152|204:152,1,145,2|2,0:0|0:0,0:0:0:0:
104,64,22132,2,0,L|212:64,1,108.75,0|2,1:0|0:0,0:0:0:0:
248,64,22505,5,0,1:0:0:0:
336,24,22691,1,2,0:0:0:0:
376,112,22877,1,0,1:0:0:0:
288,152,23064,2,0,P|284:196|296:224,1,72.5,2|0,0:0|1:0,0:0:0:0:
380,264,23436,2,0,L|452:256,2,72.5,2|0|2,0:0|1:0|0:0,0:0:0:0:
244,288,23995,6,0,L|204:268,3,36.25,0|2|4|2,1:0|0:0|0:0|0:0,0:0:0:0:
176,280,24368,2,0,L|148:248,3,36.25,0|2|2|2,1:2|0:0|0:1|0:0,0:0:0:0:
116,244,24741,6,0,L|108:196,3,36.25,2|2|2|2,1:0|0:0|0:0|0:0,0:0:0:0:
84,184,25113,2,0,L|96:144,3,36.25,4|2|2|2,1:2|0:0|0:0|0:0,0:0:0:0:
104,116,25486,1,4,1:0:0:0:
108,104,25859,6,0,P|144:96|180:104,1,72.5,8|2,0:0|0:0,0:0:0:0:
272,156,26231,2,0,P|308:164|344:156,1,72.5,0|2,1:0|0:0,0:0:0:0:
412,72,26604,1,8,0:0:0:0:
376,160,26790,1,2,0:0:0:0:
444,228,26977,6,0,B|444:256|444:256|436:280|436:280|436:304,1,72.5,0|2,1:0|0:0,0:0:0:0:
360,352,27349,1,8,0:0:0:0:
288,292,27536,2,0,P|256:284|216:292,1,72.5,2|0,0:0|1:0,0:0:0:0:
128,232,27908,2,0,P|92:244|68:272,1,72.5,2|8,0:0|0:0,0:0:0:0:
60,364,28281,1,2,0:0:0:0:
144,320,28467,6,0,B|168:252|168:252|160:180,1,145,0|8,1:0|0:0,0:0:0:0:
76,108,29026,2,0,L|4:116,2,72.5,2|0|2,0:0|1:0|0:0,0:0:0:0:
152,52,29585,1,8,0:0:0:0:
224,112,29772,1,2,0:0:0:0:
336,32,29958,6,0,P|396:28|420:100,1,145,0|8,1:0|0:0,0:0:0:0:
400,192,30517,2,0,B|392:228|392:228|404:268,1,72.5,2|0,0:0|1:0,0:0:0:0:
360,348,30890,1,2,0:0:0:0:
276,308,31076,2,0,B|264:276|264:276|224:252,1,72.5,8|2,0:0|0:0,0:0:0:0:
204,248,31356,2,0,L|160:252,1,36.25,2|4,0:0|0:0,0:0:0:0:
0,296,31822,6,0,P|35:294|65:275,1,72.5,8|2,0:0|0:0,0:0:0:0:
96,172,32194,2,0,P|56:160|36:136,1,72.5,0|2,1:0|0:0,0:0:0:0:
108,16,32567,2,0,P|148:28|168:52,1,72.5,8|2,0:0|0:0,0:0:0:0:
256,192,32940,6,0,P|292:200|328:184,1,72.5,0|2,1:0|0:0,0:0:0:0:
380,112,33312,1,8,0:0:0:0:
472,128,33499,2,0,B|496:156|496:156|504:196,1,72.5,2|0,0:0|1:0,0:0:0:0:
448,284,33871,2,0,B|412:268|412:268|376:268,1,72.5,2|8,0:0|0:0,0:0:0:0:
284,276,34244,1,2,0:0:0:0:
212,336,34430,6,0,P|160:344|124:268,1,145,0|8,1:0|0:0,0:0:0:0:
84,140,34989,2,0,B|64:108|64:108|28:84,2,72.5,2|0|2,0:0|1:0|0:0,0:0:0:0:
124,240,35548,2,0,P|172:248|204:236,1,72.5,8|2,0:0|0:0,0:0:0:0:
280,136,35921,6,0,L|276:208,1,72.5,0|2,1:0|0:0,0:0:0:0:
396,276,36294,2,0,L|392:204,1,72.5,8|2,0:0|0:0,0:0:0:0:
512,132,36666,2,0,L|508:204,1,72.5,0|2,1:0|0:0,0:0:0:0:
460,64,37039,2,0,P|432:44|388:44,1,72.5,8|2,0:0|0:0,0:0:0:0:
304,100,37412,6,0,L|300:140,3,36.25,0|2|2|2,1:0|0:0|0:0|0:0,0:0:0:0:
284,160,37784,2,0,L|288:196,3,36.25,8|2|2|2,0:0|0:0|0:0|0:0,0:0:0:0:
280,224,38157,2,0,L|276:260,3,36.25,2|2|2|2,1:0|0:0|0:0|0:0,0:0:0:0:
264,284,38530,2,0,B|260:312|260:312|264:328|264:328|260:360,2,72.5,8|2|0,0:0|0:1|1:0,0:0:0:0:
252,276,39275,6,0,L|164:288,2,72.5,4|2|8,1:0|0:0|0:0,0:0:0:0:
336,152,39834,1,2,0:1:0:0:
364,160,39927,1,2,0:1:0:0:
392,168,40020,2,0,L|463:158,1,72.5,0|4,1:0|1:2,0:0:0:0:
480,156,40579,5,0,1:0:0:0:
441,242,40766,1,0,1:0:0:0:
328,108,41138,1,8,0:0:0:0:
256,312,41511,2,0,P|196:328|152:264,1,145,0|0,1:0|1:0,0:0:0:0:
156,256,42256,6,0,B|163:216|163:216|156:156,1,72.5,4|2,1:0|0:0,0:0:0:0:
104,108,42629,1,8,0:0:0:0:
152,28,42815,1,2,0:1:0:0:
152,28,42908,1,2,0:1:0:0:
152,28,43002,2,0,B|188:24|188:24|232:32,1,72.5,0|4,1:0|1:2,1:0:0:0:
472,152,43561,6,0,B|435:155|435:155|399:151,1,72.5,2|0,0:1|1:0,0:0:0:0:
324,96,43933,1,0,1:0:0:0:
292,200,44120,1,8,0:0:0:0:
89,162,44492,1,0,1:0:0:0:
324,96,44865,5,0,1:0:0:0:
328,108,45238,2,0,L|324:184,1,72.5,4|2,1:0|0:0,0:0:0:0:
312,272,45610,1,8,0:0:0:0:
240,332,45797,2,0,L|240:368,2,36.25,2|0|0,0:1|0:0|1:0,0:0:0:0:
104,320,46169,6,0,P|52:296|64:212,1,145,4|0,1:2|1:0,0:0:0:0:
120,148,46728,1,0,1:0:0:0:
84,60,46915,1,0,1:0:0:0:
208,116,47101,2,0,P|244:120|280:104,1,72.5,8|2,0:0|0:1,0:0:0:0:
360,36,47474,2,0,P|392:28|436:44,1,72.5,0|2,1:0|0:1,0:0:0:0:
512,148,47846,6,0,L|508:220,1,72.5,4|0,1:0|0:0,0:0:0:0:
392,124,48219,2,0,L|396:196,1,72.5,2|0,1:0|0:0,0:0:0:0:
296,292,48592,2,0,P|260:304|228:296,1,72.5,8|0,0:0|0:0,0:0:0:0:
144,120,48964,5,2,1:0:0:0:
232,88,49151,2,0,P|268:136|256:216,1,145,4|2,1:2|0:1,0:0:0:0:
120,244,49710,2,0,P|84:196|96:116,2,145,0|8|0,1:0|0:0|1:0,0:0:0:0:
208,276,50641,1,2,0:1:0:0:
296,248,50828,6,0,B|332:252|332:252|368:272,1,72.5,0|2,1:0|0:0,0:0:0:0:
424,160,51200,2,0,L|352:160,1,72.5,8|2,0:0|0:0,0:0:0:0:
296,68,51573,2,0,B|332:64|332:64|363:46,1,72.5,0|2,1:0|0:0,0:0:0:0:
216,32,51946,2,0,P|208:68|216:104,1,72.5,8|2,0:0|0:0,0:0:0:0:
248,236,52318,5,0,1:0:0:0:
248,236,52505,2,0,P|256:272|248:308,1,72.5,2|8,0:0|0:0,0:0:0:0:
160,340,52878,1,2,0:0:0:0:
68,316,53064,2,0,P|60:280|68:244,1,72.5,0|2,1:0|0:0,0:0:0:0:
108,128,53436,2,0,B|144:124|144:124|184:132,1,72.5,8|2,0:0|0:0,0:0:0:0:
288,216,53809,5,10,0:0:0:0:
344,292,53995,2,0,L|416:284,1,72.5,0|0,1:0|1:0,1:0:0:0:
460,152,54368,5,10,0:0:0:0:
396,84,54554,2,0,L|324:92,1,72.5,0|0,1:0|1:0,1:0:0:0:
152,112,54927,2,0,L|224:104,1,72.5,10|10,0:0|0:0,0:0:0:0:
136,116,55486,6,0,B|124:148|124:148|132:192,1,72.5,2|0,0:0|0:0,0:0:0:0:
88,284,55859,2,0,B|120:296|120:296|164:288,1,72.5,2|0,0:0|0:0,0:0:0:0:
260,324,56231,2,0,B|272:292|272:292|264:248,1,72.5,2|0,0:0|0:0,0:0:0:0:
276,260,56790,6,0,P|311:262|347:242,1,72.5,4|2,1:0|0:0,0:0:0:0:
312,104,57163,2,0,P|277:102|241:122,1,72.5,8|2,0:0|0:0,0:0:0:0:
196,200,57536,2,0,L|200:272,1,72.5,0|2,1:0|0:0,0:0:0:0:
100,168,57908,2,0,L|104:240,1,72.5,8|2,0:0|0:0,0:0:0:0:
52,96,58281,6,0,P|84:80|128:88,1,72.5,0|2,1:0|0:0,0:0:0:0:
200,132,58654,1,8,0:0:0:0:
292,108,58840,2,0,L|368:104,1,72.5,2|0,0:0|1:0,0:0:0:0:
372,244,59213,2,0,L|296:248,1,72.5,2|8,0:0|0:0,0:0:0:0:
176,192,59585,1,2,0:0:0:0:
76,288,59772,6,0,P|72:324|88:360,1,72.5,0|2,1:0|0:0,0:0:0:0:
220,328,60144,2,0,P|244:352|296:360,1,72.5,8|2,0:0|0:0,0:0:0:0:
340,236,60517,2,0,P|316:212|264:204,1,72.5,0|2,1:0|0:0,0:0:0:0:
372,328,60890,5,8,0:0:0:0:
456,284,61076,1,2,0:0:0:0:
452,188,61263,2,0,B|452:152|452:152|464:116,1,72.5,0|2,1:0|0:0,0:0:0:0:
416,20,61635,1,8,0:0:0:0:
312,52,61822,2,0,B|300:90|300:90|276:116,1,72.5,2|0,0:0|1:0,0:0:0:0:
192,148,62194,1,2,0:0:0:0:
100,120,62381,1,8,0:0:0:0:
60,36,62567,1,2,0:0:0:0:
34,171,62753,6,0,B|34:195|34:195|26:215|26:215|26:247,1,72.5,4|2,1:0|0:0,0:0:0:0:
96,326,63126,1,8,0:0:0:0:
196,284,63312,2,0,P|232:272|268:284,1,72.5,2|0,0:0|1:0,0:0:0:0:
360,336,63685,2,0,P|393:347|428:338,1,72.5,2|8,0:0|0:0,0:0:0:0:
492,148,64058,5,2,0:0:0:0:
400,132,64244,2,0,P|372:196|400:268,1,145,0|8,1:0|0:0,0:0:0:0:
324,200,64803,5,2,0:0:0:0:
232,224,64989,1,0,1:0:0:0:
192,308,65176,2,0,B|156:316|156:316|116:304,1,72.5,2|8,0:0|0:0,0:0:0:0:
44,192,65548,1,2,0:0:0:0:
120,76,65735,6,0,B|176:76|176:76|212:92|212:92|264:92,1,145,0|8,1:0|0:0,0:0:0:0:
344,44,66294,1,2,0:0:0:0:
428,88,66480,2,0,P|448:116|448:156,1,72.5,0|2,1:0|0:0,0:0:0:0:
320,204,66853,2,0,P|300:176|300:136,1,72.5,8|2,0:0|0:0,0:0:0:0:
228,256,67225,6,0,P|192:272|148:260,1,72.5,0|2,1:0|0:0,0:0:0:0:
80,148,67598,2,0,L|76:224,1,72.5,8|2,0:0|0:0,0:0:0:0:
180,116,67971,2,0,L|184:192,1,72.5,0|2,1:0|0:0,0:0:0:0:
278,82,68343,6,0,P|299:85|324:97,3,36.25,8|2|2|2,0:0|0:0|0:0|0:0,0:0:0:0:
347,116,68716,6,0,P|391:132|427:120,1,72.5,4|2,1:0|0:0,0:0:0:0:
400,256,69089,2,0,P|432:244|460:208,1,72.5,8|2,0:0|0:0,0:0:0:0:
304,232,69461,2,0,L|300:308,1,72.5,0|2,1:0|0:0,0:0:0:0:
212,196,69834,2,0,L|208:272,1,72.5,8|2,0:0|0:0,0:0:0:0:
104,360,70207,6,0,P|68:364|36:348,1,72.5,0|2,1:0|0:0,0:0:0:0:
8,260,70579,1,8,0:0:0:0:
36,168,70766,2,0,B|68:148|68:148|108:144,1,72.5,2|0,0:0|1:0,0:0:0:0:
204,48,71138,2,0,B|240:60|240:60|264:88,1,72.5,2|8,0:0|0:0,0:0:0:0:
292,220,71511,1,2,0:0:0:0:
204,324,71697,6,0,L|132:320,2,72.5,0|2|8,1:0|0:0|0:0,0:0:0:0:
288,364,72256,1,2,0:0:0:0:
372,324,72443,2,0,L|444:320,1,72.5,0|2,1:0|0:0,0:0:0:0:
500,244,72815,1,8,0:0:0:0:
480,152,73002,1,2,0:0:0:0:
320,56,73188,6,0,B|316:84|316:84|328:108|328:108|320:140,2,72.5,0|2|8,1:0|0:0|0:0,0:0:0:0:
160,148,73747,2,0,P|120:156|88:136,1,72.5,2|0,0:0|1:0,0:0:0:0:
132,56,74120,1,2,0:0:0:0:
224,36,74306,1,8,0:0:0:0:
288,100,74492,1,2,0:0:0:0:
424,84,74679,6,0,L|428:12,1,72.5,4|2,1:0|0:0,0:0:0:0:
480,152,75051,2,0,P|444:172|392:156,1,72.5,8|2,0:0|0:0,0:0:0:0:
320,112,75424,2,0,P|284:92|232:108,1,72.5,0|2,1:0|0:0,0:0:0:0:
172,144,75797,1,8,0:0:0:0:
164,236,75983,1,2,0:0:0:0:
216,312,76169,2,0,L|288:316,1,72.5,0|2,1:0|0:0,0:0:0:0:
124,320,76542,6,0,L|52:316,1,72.5,8|2,0:0|0:0,0:0:0:0:
192,220,76915,2,0,L|264:216,1,72.5,0|2,1:0|0:0,0:0:0:0:
124,148,77287,2,0,L|52:152,1,72.5,8|2,0:0|0:0,0:0:0:0:
188,52,77660,6,0,P|224:44|260:52,1,72.5,0|2,1:0|0:0,0:0:0:0:
328,112,78033,1,8,0:0:0:0:
352,204,78219,2,0,L|348:280,1,72.5,2|0,0:0|1:0,0:0:0:0:
440,184,78592,2,0,L|436:260,1,72.5,2|8,0:0|0:0,0:0:0:0:
500,108,78964,1,2,0:0:0:0:
424,32,79151,21,0,1:0:0:0:
396,36,79244,1,2,0:0:0:0:
368,40,79337,1,2,0:0:0:0:
340,44,79430,1,2,0:0:0:0:
312,48,79523,70,0,L|280:76,3,36.25,8|2|2|2,0:0|0:0|0:0|0:0,0:0:0:0:
256,72,79896,2,0,L|240:108,3,36.25,2|2|2|2,1:0|0:0|0:0|0:0,0:0:0:0:
216,120,80269,2,0,L|216:160,3,36.25,8|2|2|2,0:0|0:0|0:0|0:0,0:0:0:0:
216,184,80641,21,2,0:0:0:0:
256,192,81200,12,2,83623,0:0:0:0:
