osu file format v14

[General]
AudioFilename: audio.mp3
AudioLeadIn: 0
PreviewTime: 56697
Countdown: 0
SampleSet: Soft
StackLeniency: 0.3
Mode: 0
LetterboxInBreaks: 0
WidescreenStoryboard: 0

[Editor]
DistanceSpacing: 0.8
BeatDivisor: 4
GridSize: 16
TimelineZoom: 2

[Metadata]
Title:Kimi to Ita Sora
TitleUnicode:君といた空
Artist:Ray
ArtistUnicode:Ray
Creator:Momochikun
Version:Insane
Source:蒼の彼方のフォーリズム
Tags:Ao no Kanata no Four Rhythm ending visual novel eroge sprite fumika kantokun
BeatmapID:957792
BeatmapSetID:445879

[Difficulty]
HPDrainRate:7
CircleSize:4
OverallDifficulty:7
ApproachRate:8.3
SliderMultiplier:1.55
SliderTickRate:1

[Events]
//Background and Video events
Video,0,"Ao no Kanata.avi"
0,0,"BG.jpg",0,0
//Break Periods
//Storyboard Layer 0 (Background)
//Storyboard Layer 1 (Fail)
//Storyboard Layer 2 (Pass)
//Storyboard Layer 3 (Foreground)
//Storyboard Sound Samples

[TimingPoints]
145,372.670807453416,4,2,2,60,1,0
1635,-111.111111111111,4,2,2,60,0,0
7598,-100,4,2,2,80,0,0
13561,-105.263157894737,4,2,2,80,0,0
13933,-105.263157894737,4,2,1,60,0,0
23995,-105.263157894737,4,2,2,70,0,0
24089,-105.263157894737,4,2,2,60,0,0
24182,-105.263157894737,4,2,2,50,0,0
24275,-105.263157894737,4,2,2,60,0,0
24368,-105.263157894737,4,2,2,70,0,0
24461,-105.263157894737,4,2,2,60,0,0
24741,-100,4,2,2,70,0,0
24834,-100,4,2,2,50,0,0
25207,-100,4,2,2,60,0,0
25486,-100,4,2,2,70,0,0
37412,-100,4,2,2,40,0,0
37505,-100,4,2,2,60,0,0
37784,-100,4,2,2,80,0,0
37877,-100,4,2,2,60,0,0
38157,-100,4,2,2,80,0,0
38250,-100,4,2,2,60,0,0
38530,-100,4,2,2,80,0,0
39275,-105.263157894737,4,2,2,80,0,0
50828,-100,4,2,1,70,0,0
56790,-100,4,2,2,80,0,1
62940,-100,4,2,1,80,0,1
68390,-100,4,2,2,60,0,1
68623,-100,4,2,2,60,0,0
68716,-100,4,2,2,80,0,1
74865,-100,4,2,1,80,0,1
79151,-100,4,2,2,80,0,1
79244,-100,4,2,2,60,0,1
79523,-100,4,2,2,80,0,1
79617,-100,4,2,2,60,0,1
79896,-100,4,2,2,80,0,1
79989,-100,4,2,2,60,0,1
80269,-100,4,2,2,80,0,1
80362,-100,4,2,2,60,0,1
80641,-100,4,2,1,80,0,0
80735,-100,4,2,1,25,0,0
83623,-100,4,2,1,5,0,0

[Colours]
Combo1 : 125,190,255
Combo2 : 128,255,255
Combo3 : 128,255,128

[HitObjects]
314,154,1635,6,0,P|376:164|443:100,1,139.499995742798,4|2,1:0|0:0,0:0:0:0:
355,62,2194,1,0,0:0:0:0:
227,203,2381,2,0,P|165:213|95:154,1,139.499995742798,2|2,0:1|0:0,0:0:0:0:
183,111,2940,1,2,0:1:0:0:
297,287,3126,6,0,P|364:265|448:249,1,139.499995742798,4|2,1:0|0:0,0:0:0:0:
326,123,3685,2,0,P|259:145|175:161,1,139.499995742798,2|0,0:1|0:0,0:0:0:0:
153,265,4244,2,0,P|191:254|221:247,1,69.749997871399,2|0,0:0|0:0,0:0:0:0:
398,177,4617,6,0,P|355:228|351:304,1,139.499995742798,4|2,1:2|0:0,0:0:0:0:
495,274,5176,1,0,0:0:0:0:
473,135,5362,2,0,P|409:93|344:107,1,139.499995742798,2|2,0:1|0:0,0:0:0:0:
334,118,6107,6,0,L|263:138,1,69.749997871399,4|0,1:2|0:0,0:0:0:0:
188,180,6480,1,2,0:0:0:0:
0,289,6666,2,0,P|61:245|134:249,1,139.499995742798,2|0,0:1|0:0,0:0:0:0:
270,352,7225,2,0,L|202:338,1,69.749997871399,2|0,0:1|0:0,0:0:0:0:
340,255,7598,5,4,1:0:0:0:
257,165,7784,1,2,0:1:0:0:
400,203,7971,2,0,P|419:240|416:297,1,77.5,2|2,1:2|0:1,0:0:0:0:
354,103,8343,2,0,P|391:84|448:87,1,77.5,0|2,1:0|0:1,0:0:0:0:
257,165,8716,1,2,1:2:0:0:
400,203,8902,1,2,0:1:0:0:
354,103,9089,5,0,1:0:0:0:
319,237,9275,1,2,0:1:0:0:
482,130,9461,1,2,1:2:0:0:
268,14,9648,1,2,0:1:0:0:
354,103,9834,2,0,L|336:183,1,77.5,0|2,1:0|0:1,0:0:0:0:
408,271,10207,1,2,1:2:0:0:
256,96,10393,1,2,0:1:0:0:
191,326,10579,6,0,L|177:380,3,38.75,4|0|2|0,1:0|0:0|0:1|0:0,0:0:0:0:
298,361,10952,2,0,L|347:348,3,38.75,2|0|2|0,1:2|0:0|0:1|0:0,0:0:0:0:
251,269,11325,2,0,L|237:232,3,38.75,0|0|2|0,1:0|0:0|0:1|0:0,0:0:0:0:
353,236,11697,2,0,L|390:226,3,38.75,2|0|2|0,1:2|0:0|0:1|0:0,0:0:0:0:
356,129,12071,5,0,1:0:0:0:
318,118,12163,1,0,0:0:0:0:
280,122,12256,1,2,0:1:0:0:
246,139,12349,1,0,0:0:0:0:
211,156,12443,1,0,1:0:0:0:
173,159,12535,1,0,0:0:0:0:
136,148,12629,1,2,0:1:0:0:
108,121,12722,1,0,0:0:0:0:
81,92,12815,6,0,L|39:106,1,38.75,0|0,1:0|0:0,0:0:0:0:
17,202,13002,2,0,L|53:189,1,38.75,2|0,0:1|0:0,0:0:0:0:
173,159,13188,2,0,L|160:195,1,38.75,0|0,1:0|0:0,0:0:0:0:
88,296,13374,2,0,L|100:259,1,38.75,0|0,1:0|0:0,0:0:0:0:
237,236,13561,6,0,B|286:276|343:265|343:265|357:275|372:285,1,147.249996068001,4|0,1:0|1:0,0:0:0:0:
272,376,14120,1,2,0:0:0:0:
115,344,14306,2,0,P|78:332|42:328,1,73.6249980340005,0|2,1:0|0:0,0:0:0:0:
131,211,14679,2,0,P|166:200|203:196,1,73.6249980340005,0|2,1:0|0:0,0:0:0:0:
378,201,15051,6,0,P|305:182|226:163,1,147.249996068001,0|0,1:0|1:0,0:0:0:0:
160,117,15610,1,2,0:0:0:0:
218,50,15797,2,0,P|253:58|289:67,1,73.6249980340005,0|2,1:0|0:0,0:0:0:0:
142,192,16169,2,0,P|89:158|107:70,1,147.249996068001,0|0,1:0|1:0,0:0:0:0:
119,70,16915,5,0,1:0:0:0:
279,151,17101,2,0,P|295:117|294:80,1,73.6249980340005,2|0,0:0|1:0,0:0:0:0:
211,17,17474,1,2,0:0:0:0:
186,184,17660,1,0,1:0:0:0:
216,270,17846,1,2,0:0:0:0:
245,357,18033,6,0,B|298:368|339:333|339:333|374:343|392:362,1,147.249996068001,0|0,1:0|1:0,0:0:0:0:
381,352,18592,1,2,0:0:0:0:
270,271,18778,2,0,P|241:255|200:250,1,73.6249980340005,0|2,1:0|0:0,0:0:0:0:
348,230,19151,2,0,P|396:181|377:108,1,147.249996068001,0|0,1:0|1:0,0:0:0:0:
350,77,19896,6,0,L|420:98,1,73.6249980340005,0|2,1:0|0:0,0:0:0:0:
464,203,20269,1,0,1:0:0:0:
350,77,20455,1,2,0:0:0:0:
490,36,20641,1,0,1:0:0:0:
379,162,20828,1,2,0:0:0:0:
305,241,21014,6,0,B|371:227|381:282|465:253,1,147.249996068001,0|0,1:0|1:0,0:0:0:0:
397,90,21573,2,0,L|377:165,1,73.6249980340005,2|0,0:0|1:0,0:0:0:0:
297,320,21946,1,2,0:0:0:0:
173,244,22132,2,0,P|211:226|245:222,1,73.6249980340005,0|2,1:0|0:0,0:0:0:0:
243,223,22505,6,0,P|174:252|87:290,1,147.249996068001,0|0,1:0|1:0,0:0:0:0:
317,186,23064,2,0,P|272:115|194:108,1,147.249996068001,2|2,0:0|0:0,0:0:0:0:
305,279,23623,2,0,P|337:295|374:297,1,73.6249980340005,0|2,1:0|0:0,0:0:0:0:
437,92,23995,5,0,1:0:0:0:
430,120,24088,1,2,0:0:0:0:
423,148,24181,1,4,0:0:0:0:
432,175,24274,1,2,0:0:0:0:
446,200,24368,1,0,1:0:0:0:
462,224,24461,2,0,L|450:281,1,36.8124990170002,2|2,0:0|0:0,0:0:0:0:
376,323,24648,5,2,0:0:0:0:
376,323,24741,2,0,L|389:370,1,38.75,2|2,1:0|0:0,0:0:0:0:
289,272,24927,2,0,L|253:315,1,38.75,2|2,0:0|0:0,0:0:0:0:
135,341,25113,1,4,0:0:0:0:
135,302,25206,1,2,0:0:0:0:
152,268,25299,1,2,0:0:0:0:
185,247,25392,1,2,0:0:0:0:
216,222,25486,6,0,P|225:148|169:97,1,155,4|8,1:0|0:0,0:0:0:0:
170,97,26045,1,2,0:0:0:0:
340,132,26231,1,0,1:0:0:0:
309,12,26418,1,2,0:0:0:0:
149,179,26604,1,8,0:0:0:0:
209,88,26790,1,2,0:0:0:0:
256,288,26977,6,0,P|323:294|394:221,1,155,0|8,1:0|0:0,0:0:0:0:
441,95,27536,1,2,0:0:0:0:
335,169,27722,1,0,1:0:0:0:
485,259,27908,1,2,0:0:0:0:
312,178,28095,2,0,P|274:169|236:159,1,77.5,8|2,0:0|0:0,0:0:0:0:
119,233,28467,5,0,1:0:0:0:
204,288,28654,1,2,0:0:0:0:
288,97,28840,2,0,P|252:77|204:80,1,77.5,8|2,0:0|0:0,0:0:0:0:
295,258,29213,2,0,B|335:274|335:274|426:248,1,116.25,0|0,1:0|0:0,0:0:0:0:
461,303,29585,2,0,P|478:269|475:230,1,77.5,8|2,0:0|0:0,0:0:0:0:
418,39,29958,6,0,P|356:69|333:153,1,155,0|8,1:0|0:0,0:0:0:0:
428,167,30517,1,2,0:0:0:0:
234,200,30704,1,0,1:0:0:0:
331,147,30890,1,2,0:0:0:0:
248,67,31076,1,8,0:0:0:0:
320,240,31263,5,2,0:0:0:0:
320,240,31356,1,2,0:0:0:0:
320,240,31449,2,0,L|307:317,1,77.5,4|0,0:0|0:0,0:0:0:0:
321,125,31822,1,8,0:0:0:0:
430,258,32008,1,2,0:0:0:0:
410,153,32194,1,0,1:0:0:0:
231,192,32381,1,2,0:0:0:0:
118,148,32567,2,0,P|105:113|110:67,1,77.5,8|2,0:0|0:0,0:0:0:0:
284,288,32940,6,0,B|229:282|183:310|183:310|144:291|135:260,1,155,0|8,1:0|0:0,0:0:0:0:
304,181,33499,2,0,P|341:170|378:161,1,77.5,2|0,0:0|1:0,0:0:0:0:
495,196,33871,1,2,0:0:0:0:
358,307,34058,2,0,P|320:296|283:287,1,77.5,8|2,0:0|0:0,0:0:0:0:
118,344,34430,6,0,P|64:315|80:211,1,155,0|8,1:0|0:0,0:0:0:0:
183,75,34989,1,2,0:0:0:0:
206,193,35176,1,0,1:0:0:0:
79,151,35362,1,2,0:0:0:0:
215,60,35548,2,0,L|296:38,1,77.5,8|2,0:0|0:0,0:0:0:0:
256,160,35921,5,0,1:0:0:0:
388,91,36107,1,2,0:0:0:0:
286,247,36294,1,8,0:0:0:0:
152,197,36480,2,0,P|166:120|184:33,1,155,2|2,0:0|0:0,0:0:0:0:
59,139,37039,2,0,P|51:176|44:215,1,77.5,8|2,0:0|0:0,0:0:0:0:
200,364,37412,5,4,1:0:0:0:
228,366,37505,1,2,0:0:0:0:
256,358,37598,1,2,0:1:0:0:
280,342,37691,1,2,0:0:0:0:
296,318,37784,2,0,L|346:329,1,38.75,8|2,0:0|0:0,0:0:0:0:
428,271,37971,2,0,L|390:262,1,38.75,2|2,0:1|0:0,0:0:0:0:
329,203,38157,2,0,L|291:195,1,38.75,0|0,1:0|0:0,0:0:0:0:
195,183,38343,5,2,0:1:0:0:
193,163,38436,1,2,0:0:0:0:
191,143,38530,1,8,0:0:0:0:
189,123,38623,1,0,0:0:0:0:
187,103,38716,1,2,0:1:0:0:
185,83,38809,1,0,0:0:0:0:
183,63,38902,1,0,1:0:0:0:
183,63,39275,6,0,P|146:56|103:48,1,73.6249980340005,4|2,1:0|0:0,0:0:0:0:
60,137,39648,1,8,0:0:0:0:
249,14,39834,2,0,P|272:53|271:85,1,73.6249980340005,2|0,0:1|1:0,0:0:0:0:
223,210,40207,2,0,P|288:224|357:164,1,147.249996068001,4|0,1:2|1:0,0:0:0:0:
414,108,40766,2,0,B|383:149|383:149|411:246,2,147.249996068001,0|8|0,1:0|0:0|1:0,0:0:0:0:
430,92,41884,5,0,1:0:0:0:
445,76,42256,2,0,P|410:69|371:55,1,73.6249980340005,4|2,1:0|0:0,0:0:0:0:
244,91,42629,1,8,0:0:0:0:
328,143,42815,1,2,0:1:0:0:
293,16,43002,1,0,1:0:0:0:
179,172,43188,2,0,P|152:241|138:331,1,147.249996068001,4|2,1:2|0:1,0:0:0:0:
256,275,43747,1,0,1:0:0:0:
179,172,43933,1,0,1:0:0:0:
350,221,44120,2,0,B|425:240|495:189,2,147.249996068001,8|0|0,0:0|1:0|1:0,0:0:0:0:
279,146,45051,5,2,0:0:0:0:
186,270,45238,2,0,P|148:268|111:245,1,73.6249980340005,4|2,1:0|0:0,0:0:0:0:
256,320,45610,1,8,0:0:0:0:
165,188,45797,2,0,P|145:145|150:107,1,73.6249980340005,2|0,0:1|1:0,0:0:0:0:
195,43,46169,2,0,L|161:204,1,147.249996068001,4|0,1:2|1:0,0:0:0:0:
300,161,46728,1,0,1:0:0:0:
387,145,46915,1,0,1:0:0:0:
239,241,47101,2,0,P|192:294|175:372,1,147.249996068001,8|0,0:0|1:0,0:0:0:0:
373,288,47846,6,0,P|302:299|217:320,1,147.249996068001,4|2,1:0|1:0,0:0:0:0:
228,316,48405,1,0,0:0:0:0:
284,216,48592,2,0,P|197:192|123:182,1,147.249996068001,8|2,0:0|1:0,0:0:0:0:
240,115,49151,2,0,P|176:77|122:27,1,147.249996068001,4|2,1:2|0:1,0:0:0:0:
20,48,49710,1,0,1:0:0:0:
73,179,50082,1,8,0:0:0:0:
220,158,50455,1,0,1:0:0:0:
246,255,50641,1,2,0:1:0:0:
333,220,50828,6,0,P|382:237|408:247,1,77.5,4|2,1:2|0:0,0:0:0:0:
470,313,51200,1,8,0:0:0:0:
237,110,51387,2,0,P|221:150|212:185,1,77.5,2|0,0:0|1:0,0:0:0:0:
243,276,51759,1,2,0:0:0:0:
398,61,51946,2,0,P|360:71|324:85,1,77.5,8|2,0:0|0:0,0:0:0:0:
133,140,52318,5,0,1:0:0:0:
324,85,52505,1,2,0:0:0:0:
248,13,52691,1,8,0:0:0:0:
212,183,52877,1,2,0:0:0:0:
345,213,53064,2,0,P|383:211|416:186,1,77.5,0|2,1:0|0:0,0:0:0:0:
211,345,53436,2,0,P|186:312|190:261,1,77.5,8|2,0:0|0:0,0:0:0:0:
298,55,53809,5,14,0:0:0:0:
264,265,53995,1,0,1:0:0:0:
97,177,54182,1,0,1:0:0:0:
406,40,54368,5,14,0:0:0:0:
172,71,54554,1,0,1:0:0:0:
359,182,54741,1,0,1:0:0:0:
290,14,54927,5,14,0:0:0:0:
139,302,55113,1,14,0:0:0:0:
71,241,56604,5,0,0:0:0:0:
78,249,56697,1,0,0:0:0:0:
86,257,56790,2,0,P|150:302|228:291,1,155,4|8,1:0|0:0,0:0:0:0:
324,185,57349,1,2,0:0:0:0:
201,144,57536,2,0,P|178:189|170:218,1,77.5,0|2,1:0|0:0,0:0:0:0:
292,267,57908,1,8,0:0:0:0:
201,144,58095,5,2,0:0:0:0:
190,133,58188,1,2,0:0:0:0:
179,122,58281,2,0,P|140:114|102:104,1,77.5,0|2,1:0|0:0,0:0:0:0:
17,190,58654,1,8,0:0:0:0:
269,75,58840,2,0,P|286:107|285:155,1,77.5,2|0,0:0|1:0,0:0:0:0:
234,273,59213,1,2,0:0:0:0:
413,322,59399,2,0,P|396:290|397:242,1,77.5,8|2,0:0|0:0,0:0:0:0:
416,229,59679,5,2,0:0:0:0:
416,229,59772,2,0,L|337:249,1,77.5,0|2,1:0|0:0,0:0:0:0:
187,330,60144,2,0,L|266:350,1,77.5,8|2,0:0|0:0,0:0:0:0:
149,206,60517,1,0,1:0:0:0:
236,245,60704,1,2,0:0:0:0:
260,143,60890,1,8,0:0:0:0:
76,270,61076,1,2,0:0:0:0:
235,72,61263,6,0,P|257:111|259:148,1,77.5,0|2,1:0|0:0,0:0:0:0:
150,24,61635,1,8,0:0:0:0:
358,109,61822,2,0,P|423:116|487:43,1,155,2|2,0:0|0:0,0:0:0:0:
259,142,62381,1,8,0:0:0:0:
397,8,62567,1,2,0:0:0:0:
361,214,62753,6,0,P|352:254|346:295,1,77.5,4|2,1:0|0:0,0:0:0:0:
501,155,63126,1,8,0:0:0:0:
336,75,63312,1,2,0:0:0:0:
360,213,63499,1,0,1:0:0:0:
487,56,63685,1,2,0:0:0:0:
275,138,63871,1,8,0:0:0:0:
458,259,64058,1,2,0:0:0:0:
336,75,64244,6,0,P|299:61|250:52,1,77.5,0|2,1:0|0:0,0:0:0:0:
87,122,64617,1,8,0:0:0:0:
39,211,64803,2,0,P|75:224|113:232,1,77.5,2|0,0:0|1:0,0:0:0:0:
261,199,65176,1,2,0:0:0:0:
87,122,65362,1,8,0:0:0:0:
157,313,65548,1,2,0:0:0:0:
316,275,65735,6,0,L|440:251,1,116.25,0|0,1:0|0:0,0:0:0:0:
476,196,66107,2,0,L|403:220,1,77.5,8|2,0:0|0:0,0:0:0:0:
97,189,66480,2,0,P|93:130|134:90,1,116.25,0|0,1:0|0:0,0:0:0:0:
93,53,66853,2,0,P|125:31|163:28,1,77.5,8|2,0:0|0:0,0:0:0:0:
223,213,67225,5,4,1:2:0:0:
463,132,67412,1,2,0:0:0:0:
383,28,67598,1,8,0:0:0:0:
299,257,67784,1,2,0:0:0:0:
299,257,67877,1,0,0:0:0:0:
299,257,67971,1,0,1:0:0:0:
494,118,68157,1,2,0:0:0:0:
228,37,68343,5,8,0:0:0:0:
204,22,68436,1,2,0:0:0:0:
178,14,68529,1,2,0:0:0:0:
151,10,68622,1,2,0:0:0:0:
122,14,68716,2,0,P|63:62|65:160,1,155,4|8,1:0|0:0,0:0:0:0:
82,304,69275,5,2,0:0:0:0:
222,215,69461,1,0,1:0:0:0:
131,97,69648,1,2,0:0:0:0:
247,108,69834,2,0,P|284:99|322:90,1,77.5,8|2,0:0|0:0,0:0:0:0:
322,90,70113,1,2,0:0:0:0:
322,90,70207,1,0,1:0:0:0:
396,179,70393,5,2,0:0:0:0:
452,25,70579,1,8,0:0:0:0:
247,108,70766,2,0,B|200:97|150:126|150:126|119:117|105:91,1,155,2|2,0:0|0:0,0:0:0:0:
225,208,71325,1,8,0:0:0:0:
304,32,71511,1,2,0:0:0:0:
444,158,71697,6,0,P|442:196|425:231,1,77.5,0|2,1:0|0:0,0:0:0:0:
342,133,72070,1,8,0:0:0:0:
269,293,72256,1,2,0:0:0:0:
269,293,72349,1,2,0:0:0:0:
269,293,72443,2,0,L|189:278,1,77.5,0|2,1:0|0:0,0:0:0:0:
112,197,72815,1,8,0:0:0:0:
256,96,73002,1,2,0:0:0:0:
379,331,73188,6,0,P|310:335|253:276,1,155,0|8,1:0|0:0,0:0:0:0:
327,84,73747,1,2,0:0:0:0:
273,246,73933,1,0,1:0:0:0:
408,158,74120,1,2,0:0:0:0:
202,90,74306,2,0,L|217:171,1,77.5,8|2,0:0|0:0,0:0:0:0:
252,353,74679,5,4,1:0:0:0:
324,211,74865,1,2,0:0:0:0:
200,179,75051,1,8,0:0:0:0:
347,310,75238,1,2,0:0:0:0:
416,241,75424,2,0,P|452:229|494:224,1,77.5,0|2,1:0|0:0,0:0:0:0:
335,132,75797,1,8,0:0:0:0:
335,132,75983,2,0,P|299:144|257:149,1,77.5,2|0,0:0|1:0,0:0:0:0:
164,80,76356,5,2,0:0:0:0:
323,30,76542,2,0,P|374:39|404:46,1,77.5,8|2,0:0|0:0,0:0:0:0:
145,173,76915,2,0,P|108:209|87:231,1,77.5,0|2,1:0|0:0,0:0:0:0:
386,278,77287,2,0,P|407:324|418:353,1,77.5,8|2,0:0|0:0,0:0:0:0:
256,192,77660,5,0,1:0:0:0:
382,152,77846,1,2,0:0:0:0:
282,294,78033,1,8,0:0:0:0:
314,88,78219,2,0,B|355:60|355:60|430:52|469:117,1,155,2|2,0:0|0:0,0:0:0:0:
256,192,78778,2,0,P|212:181|175:175,1,77.5,8|2,0:0|0:0,0:0:0:0:
0,303,79151,5,0,1:0:0:0:
22,311,79244,1,2,0:0:0:0:
47,311,79337,1,2,0:0:0:0:
72,304,79430,1,2,0:0:0:0:
93,290,79523,1,8,0:0:0:0:
111,271,79616,1,2,0:0:0:0:
120,246,79710,1,2,0:0:0:0:
194,122,79896,6,0,L|223:38,1,77.5,0|2,1:0|0:0,0:0:0:0:
382,205,80269,2,0,L|411:289,1,77.5,8|2,0:0|0:0,0:0:0:0:
325,366,80641,1,2,0:0:0:0:
256,192,80735,12,0,83623,0:0:0:0:
