osu file format v14

[General]
AudioFilename: audio.mp3
AudioLeadIn: 0
PreviewTime: 56697
Countdown: 0
SampleSet: Soft
StackLeniency: 0.3
Mode: 0
LetterboxInBreaks: 0
WidescreenStoryboard: 0

[Editor]
DistanceSpacing: 1.3
BeatDivisor: 4
GridSize: 32
TimelineZoom: 1.5

[Metadata]
Title:Kimi to Ita Sora
TitleUnicode:君といた空
Artist:Ray
ArtistUnicode:Ray
Creator:Momochikun
Version:Hard
Source:蒼の彼方のフォーリズム
Tags:Ao no Kanata no Four Rhythm ending visual novel eroge sprite fumika kantokun
BeatmapID:1051764
BeatmapSetID:445879

[Difficulty]
HPDrainRate:5.5
CircleSize:4
OverallDifficulty:5.5
ApproachRate:7
SliderMultiplier:1.35
SliderTickRate:1

[Events]
//Background and Video events
Video,0,"Ao no Kanata.avi"
0,0,"Mashiro.png",0,0
//Break Periods
//Storyboard Layer 0 (Background)
//Storyboard Layer 1 (Fail)
//Storyboard Layer 2 (Pass)
//Storyboard Layer 3 (Foreground)
//Storyboard Sound Samples

[TimingPoints]
145,372.670807453416,4,2,2,60,1,0
1635,-100,4,2,2,60,0,0
7598,-100,4,2,2,80,0,0
13561,-100,4,2,2,80,0,0
13933,-100,4,2,1,60,0,0
23995,-100,4,2,2,70,0,0
24089,-100,4,2,2,60,0,0
24182,-100,4,2,2,50,0,0
24275,-100,4,2,2,60,0,0
24368,-100,4,2,2,70,0,0
24461,-100,4,2,2,60,0,0
24741,-100,4,2,2,70,0,0
24834,-100,4,2,2,50,0,0
25207,-100,4,2,2,60,0,0
25486,-100,4,2,2,70,0,0
37412,-100,4,2,2,40,0,0
37505,-100,4,2,2,60,0,0
37784,-100,4,2,2,80,0,0
37877,-100,4,2,2,60,0,0
38157,-100,4,2,2,80,0,0
38250,-100,4,2,2,60,0,0
38530,-100,4,2,2,80,0,0
39275,-100,4,2,2,80,0,0
50828,-100,4,2,1,70,0,0
56790,-100,4,2,2,80,0,1
62940,-100,4,2,1,80,0,1
68390,-100,4,2,2,60,0,1
68623,-100,4,2,2,60,0,0
68716,-100,4,2,2,80,0,1
74865,-100,4,2,1,80,0,1
79151,-100,4,2,2,80,0,1
79244,-100,4,2,2,60,0,1
79523,-100,4,2,2,80,0,1
79617,-100,4,2,2,60,0,1
79896,-100,4,2,2,80,0,1
79989,-100,4,2,2,60,0,1
80269,-100,4,2,2,80,0,1
80362,-100,4,2,2,60,0,1
80641,-100,4,2,1,80,0,0
80735,-100,4,2,1,20,0,0
83623,-100,4,2,1,5,0,0

[Colours]
Combo1 : 125,190,255
Combo2 : 128,255,255
Combo3 : 128,255,128

[HitObjects]
412,19,1635,6,0,L|279:46,1,135,4|2,1:0|0:0,0:0:0:0:
344,199,2381,2,0,L|197:230,1,135,2|2,0:1|0:0,0:0:0:0:
94,336,3126,2,0,P|141:370|226:361,1,135,4|2,1:2|0:0,0:0:0:0:
273,309,3685,1,2,0:1:0:0:
273,309,3871,2,0,P|328:272|394:278,1,135,0|2,0:0|0:0,0:0:0:0:
508,163,4617,6,0,P|491:98|463:30,1,135,4|2,1:2|0:0,0:0:0:0:
351,150,5362,2,0,P|376:212|393:277,1,135,2|2,0:1|0:0,0:0:0:0:
251,357,6107,2,0,P|188:331|123:314,1,135,4|2,1:2|0:0,0:0:0:0:
58,364,6666,2,0,L|109:226,1,135,2|0,0:1|0:0,0:0:0:0:
143,165,7225,2,0,L|122:90,1,67.5,2|0,0:1|0:0,0:0:0:0:
192,36,7598,6,0,B|260:57|271:13|346:41,1,135,4|2,1:0|1:2,0:0:0:0:
408,64,8157,1,0,0:1:0:0:
408,64,8343,2,0,P|453:98|455:181,1,135,2|2,1:0|1:2,0:0:0:0:
354,316,9089,6,0,L|283:296,1,67.5,0|2,1:0|0:1,0:0:0:0:
222,354,9461,2,0,L|151:334,1,67.5,2|0,1:2|0:0,0:0:0:0:
69,324,9834,2,0,P|133:301|168:224,1,135,2|2,1:0|1:2,0:0:0:0:
144,160,10393,1,2,0:1:0:0:
83,99,10579,6,0,L|228:129,1,135,4|2,1:0|1:2,0:0:0:0:
285,178,11138,1,2,0:1:0:0:
236,251,11325,2,0,L|254:327,2,67.5,0|2|2,1:0|0:1|1:2,0:0:0:0:
285,178,11884,1,2,0:1:0:0:
376,242,12070,6,0,L|421:254,2,33.75,0|0|2,1:0|0:0|0:1,0:0:0:0:
426,169,12443,2,0,L|471:181,2,33.75,0|0|2,1:0|0:0|0:1,0:0:0:0:
466,91,12815,2,0,L|511:103,2,33.75,0|0|2,1:0|0:0|0:1,0:0:0:0:
400,32,13188,1,2,1:2:0:0:
314,50,13374,1,0,1:0:0:0:
228,70,13561,1,4,1:0:0:0:
228,70,13933,6,0,B|190:104|190:104|213:198,1,135,0|0,1:0|1:0,0:0:0:0:
230,268,14492,1,2,0:0:0:0:
145,292,14679,2,0,L|127:371,2,67.5,0|2|0,1:0|0:0|1:0,0:0:0:0:
313,242,15424,1,0,1:0:0:0:
393,207,15610,2,0,B|403:156|344:117|344:117|349:138|362:149,1,135,2|2,0:0|0:0,0:0:0:0:
313,242,16169,2,0,P|340:309|402:322,1,135,0|0,1:0|1:0,0:0:0:0:
354,140,16915,6,0,P|302:99|226:107,1,135,0|0,1:0|1:0,0:0:0:0:
168,158,17474,1,2,0:0:0:0:
168,158,17660,2,0,P|154:191|152:231,1,67.5,0|2,1:0|0:0,0:0:0:0:
96,282,18033,2,0,L|229:241,1,135,0|0,1:0|1:0,0:0:0:0:
311,224,18592,1,2,0:0:0:0:
375,282,18778,2,0,P|392:250|412:200,1,67.5,0|2,1:0|0:0,0:0:0:0:
370,139,19151,2,0,P|328:98|346:19,1,135,0|0,1:0|1:0,0:0:0:0:
171,82,19896,6,0,B|130:94|89:68|89:68|63:73|42:83,2,135,0|0|0,1:0|1:0|1:0,0:0:0:0:
242,133,20828,1,2,0:0:0:0:
169,237,21014,2,0,L|149:165,1,67.5,0|0,1:0|0:0,0:0:0:0:
242,133,21387,1,0,1:0:0:0:
239,246,21573,2,0,P|186:282|101:283,1,135,2|2,0:0|0:0,0:0:0:0:
38,328,22132,1,0,1:0:0:0:
290,360,22505,6,0,P|285:299|214:235,1,135,0|0,1:0|1:0,0:0:0:0:
156,222,23064,2,0,P|217:217|281:146,1,135,2|2,0:0|0:0,0:0:0:0:
307,48,23623,2,0,P|268:66|244:89,1,67.5,0|2,1:0|0:0,0:0:0:0:
342,203,23995,2,0,L|389:189,3,33.75,0|2|4|2,1:0|0:0|0:0|0:0,0:0:0:0:
414,212,24368,2,0,L|461:198,3,33.75,0|2|0|2,1:2|0:0|0:0|0:0,0:0:0:0:
484,180,24741,2,0,L|495:109,1,67.5,2|2,1:0|0:0,0:0:0:0:
388,0,25113,2,0,L|410:115,1,101.25,4|2,1:2|0:0,0:0:0:0:
386,119,25486,5,4,1:0:0:0:
386,119,25859,2,0,P|341:106|261:167,1,135,8|0,0:0|1:0,0:0:0:0:
189,186,26418,1,2,0:0:0:0:
134,117,26604,2,0,P|100:98|59:95,1,67.5,8|2,0:0|0:0,0:0:0:0:
58,220,26977,2,0,L|196:183,1,135,0|8,1:0|0:0,0:0:0:0:
256,288,27536,2,0,B|203:302|165:271|165:271|144:279|131:287,1,135,2|2,0:0|0:0,0:0:0:0:
167,366,28095,1,8,0:0:0:0:
276,209,28467,6,0,P|330:250|321:337,1,135,0|8,1:0|0:0,0:0:0:0:
256,288,29026,1,2,0:0:0:0:
276,209,29213,2,0,L|290:132,1,67.5,0|0,1:0|0:0,0:0:0:0:
209,104,29585,2,0,L|196:170,1,67.5,8|2,0:0|0:0,0:0:0:0:
128,225,29958,1,0,1:0:0:0:
8,105,30331,1,8,0:0:0:0:
62,36,30517,2,0,P|35:16|-7:12,1,67.5,2|0,0:0|1:0,0:0:0:0:
88,154,30890,2,0,P|118:123|122:89,1,67.5,2|8,0:0|0:0,0:0:0:0:
18,261,31449,6,0,P|70:296|149:295,1,135,4|8,0:0|0:0,0:0:0:0:
224,269,32008,1,2,0:0:0:0:
125,363,32194,2,0,L|141:292,1,67.5,0|2,1:0|0:0,0:0:0:0:
220,243,32567,2,0,L|204:172,1,67.5,8|2,0:0|0:0,0:0:0:0:
191,90,32940,1,0,1:0:0:0:
377,159,33312,1,8,0:0:0:0:
302,213,33499,2,0,L|271:78,1,135,2|2,0:0|0:0,0:0:0:0:
349,37,34058,1,8,0:0:0:0:
465,217,34430,6,0,P|450:253|344:277,1,135,0|8,1:0|0:0,0:0:0:0:
248,169,34989,2,0,P|290:156|377:212,1,135,2|2,0:0|0:0,0:0:0:0:
336,360,35548,2,0,P|295:328|306:232,1,135,8|0,0:0|1:0,0:0:0:0:
341,136,36107,2,0,P|367:177|361:214,1,67.5,2|8,0:0|0:0,0:0:0:0:
355,54,36480,2,0,P|328:100|251:134,1,135,2|2,0:0|0:0,0:0:0:0:
170,111,37039,2,0,P|144:89|135:53,1,67.5,8|2,0:0|0:0,0:0:0:0:
50,31,37412,5,4,1:0:0:0:
37,117,37598,1,2,0:1:0:0:
25,203,37784,2,0,L|43:275,1,67.5,8|2,0:0|0:0,0:0:0:0:
128,333,38157,2,0,L|180:319,3,33.75,2|2|2|2,1:0|0:0|0:0|0:0,0:0:0:0:
200,343,38530,2,0,L|252:329,3,33.75,8|0|2|0,0:0|0:0|0:1|0:0,0:0:0:0:
275,327,38902,2,0,P|329:291|398:302,1,135,0|4,1:0|1:0,0:0:0:0:
480,146,39648,5,8,0:0:0:0:
399,180,39834,2,0,L|332:166,1,67.5,2|0,0:1|1:0,0:0:0:0:
264,115,40207,2,0,B|295:81|340:81|340:81|400:95,1,135,4|0,1:2|1:0,0:0:0:0:
480,146,40766,2,0,P|443:111|450:16,2,135,0|8|0,1:0|0:0|1:0,0:0:0:0:
415,309,41884,5,0,1:0:0:0:
247,257,42256,2,0,L|110:286,1,135,4|8,1:0|0:0,0:0:0:0:
27,293,42815,2,0,L|39:226,1,67.5,2|0,0:1|1:0,0:0:0:0:
132,186,43188,2,0,P|142:133|88:79,1,135,4|2,1:2|0:1,0:0:0:0:
1,132,43747,2,0,P|37:148|66:150,1,67.5,0|0,1:0|1:0,0:0:0:0:
212,110,44120,2,0,P|156:76|73:86,1,135,8|0,0:0|1:0,0:0:0:0:
256,224,44865,6,0,L|256:320,1,67.5,0|2,1:0|0:0,0:0:0:0:
197,356,45238,2,0,P|252:330|326:365,1,135,4|8,1:0|0:0,0:0:0:0:
404,372,45797,1,2,0:1:0:0:
435,290,45983,1,0,1:0:0:0:
467,208,46169,2,0,L|440:64,1,135,4|0,1:2|1:0,0:0:0:0:
380,95,46728,2,0,P|408:76|442:75,1,67.5,0|0,1:0|1:0,0:0:0:0:
323,156,47101,2,0,P|290:124|287:36,1,135,8|0,0:0|1:0,0:0:0:0:
323,156,47846,6,0,P|261:187|183:170,1,135,4|2,1:0|1:0,0:0:0:0:
93,319,48592,2,0,P|154:287|233:305,1,135,8|2,0:0|1:0,0:0:0:0:
228,375,49151,2,0,P|250:312|302:271,1,135,4|2,1:2|0:1,0:0:0:0:
364,329,49710,2,0,L|339:191,1,135,0|8,1:0|0:0,0:0:0:0:
256,32,50455,2,0,L|183:48,1,67.5,0|2,1:0|0:1,0:0:0:0:
148,151,50828,6,0,P|220:124|282:122,1,135,4|8,1:2|0:0,0:0:0:0:
354,78,51387,2,0,P|394:124|417:207,1,135,2|2,0:0|0:0,0:0:0:0:
395,271,51946,2,0,P|424:221|493:178,1,135,8|0,0:0|1:0,0:0:0:0:
470,314,52505,1,2,0:0:0:0:
470,314,52691,2,0,P|448:347|413:365,1,67.5,8|2,0:0|0:0,0:0:0:0:
322,330,53064,2,0,P|304:294|306:255,1,67.5,0|2,1:0|0:0,0:0:0:0:
331,183,53436,2,0,L|308:80,1,101.25,8|0,0:0|0:0,0:0:0:0:
280,65,53809,6,0,L|211:39,2,67.5,14|0|0,0:0|1:0|1:0,0:0:0:0:
183,139,54368,2,0,L|111:159,2,67.5,14|0|0,0:0|1:0|1:0,0:0:0:0:
256,192,54927,1,14,0:0:0:0:
308,84,55113,1,14,0:0:0:0:
460,295,56790,6,0,P|403:326|328:318,1,135,4|8,1:0|0:0,0:0:0:0:
256,256,57349,1,2,0:0:0:0:
177,320,57536,2,0,P|110:326|52:295,1,135,0|8,1:0|0:0,0:0:0:0:
49,206,58095,1,2,0:0:0:0:
135,189,58281,6,0,P|127:137|66:79,1,135,0|8,1:0|0:0,0:0:0:0:
12,14,58840,2,0,P|82:44|145:42,1,135,2|2,0:0|0:0,0:0:0:0:
217,84,59399,2,0,L|290:68,1,67.5,8|2,0:0|0:0,0:0:0:0:
390,132,59772,6,0,L|258:160,1,135,0|8,1:0|0:0,0:0:0:0:
190,217,60331,1,2,0:0:0:0:
156,300,60517,2,0,P|209:308|269:250,1,135,0|8,1:0|0:0,0:0:0:0:
258,160,61076,1,2,0:0:0:0:
209,86,61263,6,0,P|261:116|336:115,1,135,0|8,1:0|0:0,0:0:0:0:
285,37,61822,2,0,P|233:7|158:8,1,135,2|2,0:0|0:0,0:0:0:0:
92,64,62381,2,0,L|65:128,1,67.5,8|2,0:0|0:0,0:0:0:0:
60,213,62753,5,4,1:0:0:0:
145,190,62940,1,2,0:0:0:0:
203,255,63126,2,0,L|230:319,1,67.5,8|2,0:0|0:0,0:0:0:0:
298,263,63499,2,0,L|271:200,1,67.5,0|2,1:0|0:0,0:0:0:0:
241,118,63871,1,8,0:0:0:0:
323,88,64058,1,2,0:0:0:0:
386,147,64244,6,0,P|439:125|454:48,1,135,0|8,1:0|0:0,0:0:0:0:
475,148,64803,2,0,P|442:197|420:269,1,135,2|2,0:0|0:0,0:0:0:0:
346,318,65362,2,0,P|308:301|277:296,1,67.5,8|2,0:0|0:0,0:0:0:0:
294,206,65735,6,0,P|335:192|371:158,1,67.5,0|0,1:0|0:0,0:0:0:0:
386,93,66107,2,0,B|340:89|306:110|306:110|278:83|252:71,2,135,8|0|8,0:0|1:0|0:0,0:0:0:0:
474,244,67225,5,4,1:2:0:0:
428,319,67412,1,2,0:0:0:0:
347,353,67598,1,8,0:0:0:0:
255,332,67784,1,2,0:0:0:0:
177,290,67971,2,0,P|152:262|146:230,1,67.5,0|2,1:0|0:0,0:0:0:0:
188,156,68343,2,0,P|157:133|125:130,1,67.5,8|2,0:0|0:0,0:0:0:0:
13,125,68716,6,0,L|149:80,1,135,4|8,1:0|0:0,0:0:0:0:
188,156,69275,1,2,0:0:0:0:
146,233,69461,2,0,P|210:197|293:200,1,135,0|8,1:0|0:0,0:0:0:0:
351,228,70020,1,2,0:0:0:0:
400,147,70207,6,0,L|417:80,2,67.5,0|2|8,1:0|0:0|0:0,0:0:0:0:
351,228,70766,1,2,0:0:0:0:
490,121,71138,1,2,0:0:0:0:
400,147,71325,2,0,L|320:132,1,67.5,8|2,0:0|0:0,0:0:0:0:
235,189,71697,6,0,P|284:232|350:227,1,135,0|8,1:0|0:0,0:0:0:0:
419,281,72256,1,2,0:0:0:0:
463,357,72443,2,0,P|413:313|347:318,1,135,0|8,1:0|0:0,0:0:0:0:
263,342,73002,1,2,0:0:0:0:
181,256,73188,6,0,P|196:181|212:123,1,135,0|8,1:0|0:0,0:0:0:0:
328,97,73747,2,0,P|310:162|297:228,1,135,2|2,0:0|0:0,0:0:0:0:
398,209,74306,2,0,P|389:241|382:274,1,67.5,8|2,0:0|0:0,0:0:0:0:
432,347,74679,5,4,1:0:0:0:
349,376,74865,2,0,P|311:363|297:342,1,67.5,2|8,0:0|0:0,0:0:0:0:
232,281,75238,2,0,P|176:285|130:355,1,135,2|2,0:0|0:0,0:0:0:0:
43,333,75797,2,0,L|15:188,1,135,8|0,0:0|1:0,0:0:0:0:
66,127,76356,5,2,0:0:0:0:
150,151,76542,2,0,P|195:160|261:95,2,135,8|0|8,0:0|1:0|0:0,0:0:0:0:
187,71,77474,1,2,0:0:0:0:
165,214,77660,6,0,P|151:184|150:151,1,67.5,0|2,1:0|0:0,0:0:0:0:
248,238,78033,1,8,0:0:0:0:
312,178,78219,2,0,L|282:315,1,135,2|2,0:0|0:0,0:0:0:0:
372,346,78778,2,0,L|386:280,1,67.5,8|2,0:0|0:0,0:0:0:0:
458,217,79151,6,0,L|448:166,3,33.75,0|2|2|2,1:0|0:0|0:0|0:0,0:0:0:0:
478,149,79523,2,0,L|468:98,3,33.75,8|2|2|0,0:0|0:0|0:0|0:0,0:0:0:0:
458,73,79896,2,0,B|421:28|354:36|354:36|369:53|381:72,2,135,0|8|2,1:0|0:0|0:0,0:0:0:0:
256,192,80735,12,2,83623,0:0:0:0:
