osu file format v14

[General]
AudioFilename: audio.mp3
AudioLeadIn: 0
PreviewTime: 55647
Countdown: 0
SampleSet: Soft
StackLeniency: 0.7
Mode: 2
LetterboxInBreaks: 0
WidescreenStoryboard: 1

[Editor]
DistanceSpacing: 1.1
BeatDivisor: 4
GridSize: 16
TimelineZoom: 0.9

[Metadata]
Title:Kimi to Ita Sora
TitleUnicode:君といた空
Artist:Ray
ArtistUnicode:Ray
Creator:Greaper
Version:Cup
Source:蒼の彼方のフォーリズム
Tags:Anime Japanese ao no kanata no four rhythm ending ed visual novel eroge cut edit version -hex- jbhyperion jbh ajamez jemzuu
BeatmapID:2230690
BeatmapSetID:1064784

[Difficulty]
HPDrainRate:2
CircleSize:2.5
OverallDifficulty:6
ApproachRate:6
SliderMultiplier:1.3
SliderTickRate:1

[Events]
//Background and Video events
0,0,"702148.png",0,0
//Break Periods
//Storyboard Layer 0 (Background)
//Storyboard Layer 1 (Fail)
//Storyboard Layer 2 (Pass)
//Storyboard Layer 3 (Foreground)
//Storyboard Layer 4 (Overlay)
//Storyboard Sound Samples

[TimingPoints]
1797,372.670807453416,4,2,11,50,1,0
7759,-100,4,2,11,55,0,0
10741,-100,4,2,11,60,0,0
13722,-100,4,2,11,50,0,0
24157,-100,4,2,11,35,0,0
25647,-100,4,2,11,50,0,0
31610,-100,4,2,11,35,0,0
31703,-100,4,2,11,50,0,0
37573,-100,4,2,11,35,0,0
37666,-100,4,2,11,55,0,0
39064,-100,4,2,11,60,0,0
39436,-100,4,2,11,35,0,0
39529,-100,4,2,11,60,0,0
42418,-100,4,2,11,35,0,0
42511,-100,4,2,11,60,0,0
43349,-100,4,2,11,35,0,0
43442,-100,4,2,11,60,0,0
45399,-100,4,2,11,40,0,0
45492,-100,4,2,11,60,0,0
46331,-100,4,2,11,40,0,0
46424,-100,4,2,11,60,0,0
48008,-100,4,2,11,50,0,0
48101,-100,4,2,11,60,0,0
49312,-100,4,2,11,50,0,0
49405,-100,4,2,11,60,0,0
50989,-100,4,2,11,70,0,0
53970,-100,4,2,11,55,0,0
54064,-100,4,2,11,70,0,0
55647,-100,4,2,11,50,0,0
56579,-100,4,2,11,60,0,0
56952,-100,4,2,11,80,0,1
62915,-100,4,2,11,70,0,0
67387,-100,4,2,11,60,0,0
68877,-100,4,2,11,75,0,1
74840,-100,4,2,11,65,0,0
79312,-100,4,2,11,50,0,0
80803,-100,4,2,11,60,0,0
95710,-100,4,2,11,65,0,0
98691,-100,4,2,11,70,0,0
99809,-100,4,2,11,75,0,0
100182,-100,4,2,11,70,0,0
100368,-100,4,2,11,60,0,0
100554,-100,4,2,11,45,0,0
100741,-100,4,2,11,30,0,0
100927,-100,4,2,11,15,0,0
101113,-100,4,2,11,5,0,0

[Colours]
Combo1 : 112,114,214
Combo2 : 158,62,255
Combo3 : 227,72,72

[HitObjects]
182,339,1797,6,0,L|171:185,1,130,4|4,0:0|0:3,0:0:0:0:
106,223,2356,1,0,0:0:0:0:
172,199,2542,2,0,L|319:186,1,130,0|4,0:0|0:3,0:0:0:0:
146,159,3287,6,0,L|141:13,1,130,4|4,0:0|0:3,0:0:0:0:
208,45,3846,2,0,P|57:60|43:92,1,195,0|4,0:0|0:3,0:0:0:0:
204,183,4778,6,0,L|212:319,1,130,4|4,0:0|0:3,0:0:0:0:
152,309,5337,1,0,0:0:0:0:
232,317,5523,2,0,L|381:318,1,130,0|4,0:0|0:3,0:0:0:0:
204,232,6269,6,0,L|75:218,1,130,4|4,0:0|0:3,0:0:0:0:
128,138,6828,1,0,0:0:0:0:
238,130,7200,1,0,0:0:0:0:
127,120,7573,1,0,0:0:0:0:
205,63,7759,6,0,L|357:54,1,130,2|4,0:0|0:3,0:0:0:0:
221,166,8505,2,0,L|214:318,1,130,2|4,0:0|0:3,0:0:0:0:
329,202,9250,6,0,L|329:342,1,130,0|4,0:0|0:3,0:0:0:0:
444,241,9995,2,0,L|447:373,1,130,2|4,0:0|0:3,0:0:0:0:
283,316,10741,6,0,L|145:324,1,130,4|12,0:0|0:3,0:0:0:0:
267,229,11486,2,0,L|271:91,1,130,8|12,0:3|0:3,0:0:0:0:
117,80,12231,5,10,0:3:0:0:
52,93,12418,1,0,0:0:0:0:
119,136,12604,1,12,0:3:0:0:
266,132,12977,1,2,0:0:0:0:
328,154,13163,1,2,0:0:0:0:
268,191,13349,1,12,0:3:0:0:
101,227,13722,5,4,0:0:0:0:
226,235,14095,1,8,0:3:0:0:
355,228,14467,1,8,0:3:0:0:
226,298,14840,1,8,0:3:0:0:
169,240,15026,1,0,0:0:0:0:
251,187,15213,6,0,L|370:134,1,130,2|8,0:0|0:3,0:0:0:0:
303,60,15772,2,0,P|231:68|175:174,1,195,0|2,0:0|0:0,0:0:0:0:
332,171,16703,5,2,0:0:0:0:
463,182,17076,2,0,L|465:323,1,130,8|8,0:3|0:3,0:0:0:0:
337,308,17821,2,0,L|265:313,1,65,8|0,0:3|0:0,0:0:0:0:
187,309,18194,6,0,P|141:278|197:180,1,195,2|0,0:0|0:0,0:0:0:0:
333,169,19126,2,0,L|336:71,1,65,0|8,0:0|0:3,0:0:0:0:
165,98,19685,5,2,0:0:0:0:
293,126,20057,1,8,0:3:0:0:
412,151,20430,1,8,0:3:0:0:
292,191,20803,2,0,L|286:264,1,65,8|0,0:3|0:0,0:0:0:0:
372,258,21175,6,0,P|438:235|360:157,1,195,2|0,0:0|0:0,0:0:0:0:
272,171,22107,2,0,L|191:164,1,65,0|8,0:0|0:3,0:0:0:0:
374,103,22666,5,2,0:0:0:0:
252,99,23039,2,0,L|154:103,2,65,8|0|0,0:3|0:0|0:0,0:0:0:0:
369,65,23784,2,0,L|373:-5,1,65,8|0,0:3|0:0,0:0:0:0:
290,16,24157,6,0,P|217:22|142:144,1,195,10|2,0:3|0:0,0:0:0:0:
336,129,25275,1,6,0:0:0:0:
179,165,25647,5,10,0:3:0:0:
303,191,26020,2,0,L|321:283,2,65,8|0|8,0:0|0:0|0:3,0:0:0:0:
171,258,26765,2,0,L|86:267,1,65,8|0,0:0|0:0,0:0:0:0:
186,318,27138,6,0,L|321:296,1,130,2|8,0:0|0:0,0:0:0:0:
330,233,27697,1,0,0:0:0:0:
212,202,28070,2,0,L|205:120,1,65,0|8,0:0|0:0,0:0:0:0:
365,101,28629,5,2,0:0:0:0:
243,96,29001,2,0,L|147:91,1,65,8|0,0:0|0:0,0:0:0:0:
218,24,29374,1,8,0:3:0:0:
352,28,29747,2,0,L|357:113,1,65,8|0,0:0|0:0,0:0:0:0:
268,165,30119,6,0,L|125:181,1,130,2|8,0:0|0:0,0:0:0:0:
125,229,30678,1,0,0:0:0:0:
266,237,31051,2,0,L|271:310,1,65,0|8,0:0|0:0,0:0:0:0:
105,301,31610,5,4,0:0:0:0:
218,231,31983,2,0,L|223:93,1,130,8|8,0:0|0:3,0:0:0:0:
121,72,32728,2,0,L|117:5,1,65,8|0,0:0|0:0,0:0:0:0:
201,66,33101,6,0,L|344:61,1,130,2|8,0:0|0:0,0:0:0:0:
346,113,33660,1,0,0:0:0:0:
228,121,34033,2,0,L|222:203,1,65,0|8,0:0|0:0,0:0:0:0:
392,191,34592,6,0,L|208:301,2,195,2|0|8,0:0|0:0|0:0,0:0:0:0:
234,199,36082,5,2,0:0:0:0:
203,136,36269,1,0,0:0:0:0:
231,79,36455,1,8,0:0:0:0:
296,39,36641,2,0,L|501:35,1,195,0|8,0:0|0:0,0:0:0:0:
320,205,37573,5,4,0:0:0:0:
250,190,37759,2,0,P|213:119|261:102,1,130,2|2,0:0|0:0,0:0:0:0:
308,59,38318,1,10,0:3:0:0:
191,55,38691,1,10,0:0:0:0:
86,52,39064,1,0,0:0:0:0:
250,168,39436,6,0,L|391:167,1,130,4|8,0:0|0:0,0:0:0:0:
245,244,40182,1,8,0:3:0:0:
316,285,40368,6,0,P|381:269|426:159,1,195,10|8,0:3|0:3,0:0:0:0:
291,158,41300,2,0,L|158:113,2,130,8|8|8,0:0|0:3|0:3,0:0:0:0:
130,82,42418,6,0,P|75:106|121:209,1,195,4|0,0:0|0:0,0:0:0:0:
186,210,43163,1,8,0:3:0:0:
267,199,43349,1,4,0:0:0:0:
150,218,43722,2,0,L|142:358,1,130,0|8,0:0|0:3,0:0:0:0:
226,344,44281,2,0,L|366:337,1,130,8|8,0:0|0:3,0:0:0:0:
384,265,45026,1,8,0:3:0:0:
210,215,45399,6,0,L|205:67,1,130,4|8,0:0|0:0,0:0:0:0:
268,88,45958,2,0,L|272:0,1,65,0|8,0:0|0:3,0:0:0:0:
186,37,46331,6,0,L|52:39,1,130,4|8,0:0|0:3,0:0:0:0:
69,116,46890,1,8,0:3:0:0:
212,189,47262,1,8,0:0:0:0:
96,210,47635,1,8,0:3:0:0:
252,260,48008,6,0,L|451:274,1,195,4|0,0:0|0:0,0:0:0:0:
452,200,48753,1,8,0:0:0:0:
296,177,49126,2,0,L|291:101,1,65,8|4,0:3|0:0,0:0:0:0:
453,113,49871,2,0,L|333:63,2,130,8|8|8,0:3|0:0|0:3,0:0:0:0:
278,80,50989,6,0,L|276:221,1,130,2|8,0:0|0:0,0:0:0:0:
406,216,51734,1,10,0:3:0:0:
276,209,52107,2,0,L|140:204,1,130,10|10,0:0|0:3,0:0:0:0:
221,85,52666,2,0,L|224:-7,1,65,0|8,0:0|0:0,0:0:0:0:
90,27,53225,1,10,0:3:0:0:
206,19,53598,1,10,0:0:0:0:
361,30,53970,6,0,L|160:79,2,195,12|10|8,0:0|0:0|0:0,0:0:0:0:
426,27,55275,1,10,0:0:0:0:
188,138,56952,6,0,L|179:278,1,130,4|8,0:0|0:0,0:0:0:0:
247,270,57511,1,0,0:0:0:0:
168,297,57697,2,0,L|33:305,1,130,8|8,0:3|0:0,0:0:0:0:
208,193,58442,6,0,L|341:180,1,130,10|8,0:3|0:0,0:0:0:0:
266,112,59001,2,0,P|172:74|200:7,1,195,2|8,0:0|0:0,0:0:0:0:
356,68,59933,6,0,L|490:73,1,130,10|8,0:3|0:0,0:0:0:0:
472,142,60492,1,0,0:0:0:0:
401,147,60678,2,0,P|351:192|338:253,1,130,10|8,0:3|0:0,0:0:0:0:
495,300,61424,6,0,L|340:303,1,130,8|8,0:3|0:0,0:0:0:0:
293,301,61983,2,0,P|234:273|305:199,1,195,2|8,0:0|0:0,0:0:0:0:
463,201,62915,5,10,0:3:0:0:
342,186,63287,2,0,L|333:48,1,130,8|8,0:0|0:3,0:0:0:0:
451,74,64033,2,0,L|381:72,1,65,8|0,0:0|0:0,0:0:0:0:
301,68,64405,5,10,0:3:0:0:
181,124,64778,2,0,L|175:210,1,65,8|0,0:0|0:0,0:0:0:0:
308,214,65337,2,0,L|389:218,1,65,0|8,0:0|0:0,0:0:0:0:
200,261,65896,6,0,L|61:233,2,130,10|8|8,0:3|0:0|0:3,0:0:0:0:
342,283,67014,1,8,0:0:0:0:
173,192,67387,6,0,L|165:37,1,130,4|10,0:0|0:0,0:0:0:0:
232,58,67946,1,8,0:0:0:0:
302,255,68132,2,0,L|131:245,1,130,10|10,0:3|0:0,0:0:0:0:
341,196,68877,6,0,L|475:189,1,130,4|8,0:0|0:0,0:0:0:0:
329,125,69623,2,0,L|325:-10,1,130,8|8,0:3|0:0,0:0:0:0:
385,16,70182,1,0,0:0:0:0:
470,67,70368,5,10,0:3:0:0:
351,100,70741,1,8,0:0:0:0:
281,103,70927,2,0,P|224:205|280:257,1,195,0|8,0:0|0:0,0:0:0:0:
421,248,71859,6,0,L|431:104,1,130,10|8,0:3|0:0,0:0:0:0:
299,106,72604,2,0,L|162:95,1,130,8|8,0:3|0:0,0:0:0:0:
339,352,73349,6,0,L|346:206,1,130,10|10,0:3|0:0,0:0:0:0:
286,202,73908,1,0,0:0:0:0:
166,191,74281,1,2,0:0:0:0:
39,179,74654,1,0,0:0:0:0:
122,145,74840,6,0,L|131:6,1,130,10|8,0:3|0:0,0:0:0:0:
17,28,75585,2,0,L|168:22,1,130,8|8,0:3|0:0,0:0:0:0:
308,17,76331,5,10,0:3:0:0:
189,91,76703,2,0,L|52:98,2,130,8|10|8,0:0|0:3|0:0,0:0:0:0:
361,116,77821,6,0,P|415:172|338:250,1,195,10|0,0:3|0:0,0:0:0:0:
300,254,78567,1,8,0:3:0:0:
176,271,78939,2,0,L|171:193,1,65,8|0,0:0|0:0,0:0:0:0:
257,134,79312,5,0,0:0:0:0:
316,95,79498,1,2,0:0:0:0:
313,33,79685,2,0,L|179:19,1,130,8|10,0:0|0:3,0:0:0:0:
79,49,80430,1,8,0:0:0:0:
249,220,80803,6,0,L|448:239,2,195,4|2|8,0:0|0:0|0:0,0:0:0:0:
95,222,82293,5,8,0:3:0:0:
216,205,82666,1,10,0:0:0:0:
75,162,83039,2,0,L|67:26,1,130,8|8,0:3|0:0,0:0:0:0:
236,52,83784,6,0,P|295:98|188:212,1,260,10|10,0:3|0:3,0:0:0:0:
89,213,84902,1,8,0:0:0:0:
258,258,85275,6,0,L|451:280,2,195,8|0|8,0:3|0:0|0:0,0:0:0:0:
427,215,86765,2,0,P|482:167|294:49,1,390,4|8,0:0|0:0,0:0:0:0:
143,53,88256,6,0,L|136:203,1,130,8|8,0:3|0:0,0:0:0:0:
281,221,89001,2,0,L|458:229,1,130,8|8,0:3|0:0,0:0:0:0:
243,303,89747,6,0,P|180:272|298:176,1,260,10|10,0:3|0:3,0:0:0:0:
387,154,90865,2,0,L|395:65,1,65,8|2,0:0|0:0,0:0:0:0:
218,68,91424,6,0,L|126:62,1,65,2|10,0:0|0:0,0:0:0:0:
69,119,91796,2,0,L|63:45,1,65,2|10,0:0|0:3,0:0:0:0:
187,120,92356,1,10,0:3:0:0:
357,148,92728,6,0,L|362:292,1,130,4|8,0:0|0:0,0:0:0:0:
243,224,93474,2,0,L|239:302,1,65,10|0,0:3|0:0,0:0:0:0:
122,291,94033,1,2,0:0:0:0:
292,233,94405,6,0,L|297:151,1,65,2|8,0:0|0:0,0:0:0:0:
162,137,94964,2,0,L|77:134,2,65,10|0|8,0:3|0:0|0:0,0:0:0:0:
332,141,95710,6,0,L|487:134,1,130,10|8,0:3|0:0,0:0:0:0:
454,76,96269,1,4,0:3:0:0:
221,128,96828,6,0,L|215:58,1,65,10|4,0:0|0:3,0:0:0:0:
372,90,97387,2,0,L|374:22,1,65,2|8,0:0|0:0,0:0:0:0:
242,201,97946,1,10,0:3:0:0:
120,210,98318,1,10,0:0:0:0:
291,246,98691,6,0,L|493:256,2,195,8|10|10,0:0|0:0|0:0,0:0:0:0:
193,242,99995,1,14,0:0:0:0:
256,192,100368,12,0,101113,0:0:0:0:
