osu file format v14

[General]
AudioFilename: pin pon.mp3
AudioLeadIn: 0
PreviewTime: 135226
Countdown: 1
SampleSet: None
StackLeniency: 0.3
Mode: 0
LetterboxInBreaks: 0
WidescreenStoryboard: 0

[Editor]
DistanceSpacing: 0.9
BeatDivisor: 3
GridSize: 4
TimelineZoom: 2

[Metadata]
Title:Hajimete Girls!
TitleUnicode:初めてガールズ!
Artist:Ray
ArtistUnicode:Ray
Creator:pishifat
Version:old
Source:わかば*ガール
Tags:
BeatmapID:1113732
BeatmapSetID:524742

[Difficulty]
HPDrainRate:5
CircleSize:4
OverallDifficulty:8.6
ApproachRate:9.2
SliderMultiplier:2
SliderTickRate:1

[Events]
//Background and Video events
0,0,"horriblesubs-wakaba-girl-07-720p-mkv_snapshot_06-22_2015-08-15_01-18-29.jpg",0,0
//Break Periods
//Storyboard Layer 0 (Background)
//Storyboard Layer 1 (Fail)
//Storyboard Layer 2 (Pass)
//Storyboard Layer 3 (Foreground)
//Storyboard Sound Samples

[TimingPoints]
544,238.095238095238,4,2,0,70,1,0
544,-200,4,2,0,70,0,0
7686,-300.3003003003,4,2,0,70,0,0
8163,-133.333333333333,4,2,0,70,0,1
8401,-100,4,2,0,70,0,1
8639,-133.333333333333,4,2,0,70,0,1
8877,-100,4,2,0,70,0,1
9115,-133.333333333333,4,2,0,70,0,1
9353,-100,4,2,0,70,0,1
9591,-133.333333333333,4,2,0,70,0,1
9829,-100,4,2,0,70,0,1
10067,-133.333333333333,4,2,0,70,0,1
10305,-100,4,2,0,70,0,1
10543,-133.333333333333,4,2,0,70,0,1
10782,-100,4,2,0,70,0,1
11020,-100,4,2,0,70,0,1
11258,-100,4,2,0,70,0,1
11496,-121.212121212121,4,2,0,70,0,1
11734,-100,4,2,0,70,0,1
11972,-133.333333333333,4,2,0,70,0,1
12210,-100,4,2,0,70,0,1
12448,-133.333333333333,4,2,0,70,0,1
12686,-100,4,2,0,70,0,1
12924,-133.333333333333,4,2,0,70,0,1
13163,-100,4,2,0,70,0,1
13401,-133.333333333333,4,2,0,70,0,1
13639,-100,4,2,0,70,0,1
13877,-133.333333333333,4,2,0,70,0,1
14115,-100,4,2,0,70,0,1
14353,-133.333333333333,4,2,0,70,0,1
14591,-100,4,2,0,70,0,1
14829,-100,4,2,0,70,0,1
15782,-133.333333333333,4,2,0,70,0,0
16020,-285.714285714284,4,2,0,70,0,0
18401,-232.558139534884,4,2,0,70,0,0
18559,-188.679245283019,4,2,0,5,0,0
18639,-188.679245283019,4,2,0,70,0,0
18797,-188.679245283019,4,2,0,5,0,0
18877,-188.679245283019,4,2,0,70,0,0
19115,-188.679245283019,4,2,0,70,0,0
19274,-188.679245283019,4,2,0,5,0,0
19353,-188.679245283019,4,2,0,70,0,0
19591,-142.857142857143,4,2,0,70,0,0
19829,-111.111111111111,4,2,0,70,0,0
20067,-142.857142857143,4,2,0,70,0,0
20305,-111.111111111111,4,2,0,70,0,0
20543,-142.857142857143,4,2,0,70,0,0
20782,-117.647058823529,4,2,0,70,0,0
21020,-142.857142857143,4,2,0,70,0,0
21258,-111.111111111111,4,2,0,70,0,0
21496,-142.857142857143,4,2,0,70,0,0
21734,-111.111111111111,4,2,0,70,0,0
21972,-142.857142857143,4,2,0,70,0,0
22210,-111.111111111111,4,2,0,70,0,0
22448,-142.857142857143,4,2,0,70,0,0
26020,-200,4,2,0,70,0,0
27210,-142.857142857143,4,2,0,70,0,0
27448,-111.111111111111,4,2,0,70,0,0
27686,-142.857142857143,4,2,0,70,0,0
27924,-111.111111111111,4,2,0,70,0,0
28163,-142.857142857143,4,2,0,70,0,0
28401,-111.111111111111,4,2,0,70,0,0
28639,-142.857142857143,4,2,0,70,0,0
28877,-111.111111111111,4,2,0,70,0,0
29115,-142.857142857143,4,2,0,70,0,0
29353,-111.111111111111,4,2,0,70,0,0
29591,-142.857142857143,4,2,0,70,0,0
29829,-111.111111111111,4,2,0,70,0,0
30067,-142.857142857143,4,2,0,70,0,0
30305,-111.111111111111,4,2,0,70,0,0
30543,-142.857142857143,4,2,0,70,0,0
30782,-111.111111111111,4,2,0,70,0,0
31020,-333.333333333333,4,2,0,70,0,0
34115,-250,4,2,0,70,0,0
34829,-333.333333333333,4,2,0,70,0,0
37924,-250,4,2,0,70,0,0
38639,-142.857142857143,4,2,0,70,0,0
38877,-111.111111111111,4,2,0,70,0,0
39115,-142.857142857143,4,2,0,70,0,0
39353,-111.111111111111,4,2,0,70,0,0
39591,-142.857142857143,4,2,0,70,0,0
39829,-111.111111111111,4,2,0,70,0,0
40067,-142.857142857143,4,2,0,70,0,0
40305,-111.111111111111,4,2,0,70,0,0
40543,-142.857142857143,4,2,0,70,0,0
40782,-111.111111111111,4,2,0,70,0,0
41020,-142.857142857143,4,2,0,70,0,0
41258,-111.111111111111,4,2,0,70,0,0
41496,-111.111111111111,4,2,0,70,0,0
41734,-111.111111111111,4,2,0,70,0,0
41972,-142.857142857143,4,2,0,70,0,0
42210,-111.111111111111,4,2,0,70,0,0
42448,-142.857142857143,4,2,0,70,0,0
42686,-111.111111111111,4,2,0,70,0,0
42924,-142.857142857143,4,2,0,70,0,0
43163,-111.111111111111,4,2,0,70,0,0
43401,-133.333333333333,4,2,0,70,0,0
43639,-100,4,2,0,70,0,0
43877,-133.333333333333,4,2,0,70,0,0
44115,-153.846153846154,4,2,0,70,0,0
44353,-142.857142857143,4,2,0,70,0,0
45782,-166.666666666667,4,2,0,30,0,0
45821,-142.857142857143,4,2,0,30,0,0
46258,-117.647058823529,4,2,0,70,0,1
46496,-86.9565217391304,4,2,0,70,0,1
46734,-117.647058823529,4,2,0,70,0,1
46972,-86.9565217391304,4,2,0,70,0,1
47210,-117.647058823529,4,2,0,70,0,1
47448,-86.9565217391304,4,2,0,70,0,1
47686,-117.647058823529,4,2,0,70,0,1
47924,-86.9565217391304,4,2,0,70,0,1
48163,-117.647058823529,4,2,0,70,0,1
48401,-86.9565217391304,4,2,0,70,0,1
48639,-117.647058823529,4,2,0,70,0,1
48877,-86.9565217391304,4,2,0,70,0,1
49115,-117.647058823529,4,2,0,70,0,1
49353,-86.9565217391302,4,2,0,70,0,1
49591,-105.263157894737,4,2,0,70,0,1
49829,-80,4,2,0,70,0,1
50067,-117.647058823529,4,2,0,70,0,1
50305,-86.9565217391302,4,2,0,70,0,1
50543,-117.647058823529,4,2,0,70,0,1
50782,-86.9565217391302,4,2,0,70,0,1
51020,-117.647058823529,4,2,0,70,0,1
51258,-86.9565217391302,4,2,0,70,0,1
51496,-117.647058823529,4,2,0,70,0,1
51734,-86.9565217391302,4,2,0,70,0,1
51972,-117.647058823529,4,2,0,70,0,1
52210,-86.9565217391302,4,2,0,70,0,1
52448,-117.647058823529,4,2,0,70,0,1
52686,-86.9565217391302,4,2,0,70,0,1
52924,-105.263157894737,4,2,0,70,0,1
53163,-86.9565217391302,4,2,0,70,0,1
53401,-200,4,2,0,70,0,0
53877,-117.647058823529,4,2,0,70,0,1
54115,-86.9565217391304,4,2,0,70,0,1
54353,-117.647058823529,4,2,0,70,0,1
54591,-86.9565217391304,4,2,0,70,0,1
54829,-117.647058823529,4,2,0,70,0,1
55067,-86.9565217391304,4,2,0,70,0,1
55305,-117.647058823529,4,2,0,70,0,1
55543,-86.9565217391304,4,2,0,70,0,1
55782,-117.647058823529,4,2,0,70,0,1
56020,-86.9565217391304,4,2,0,70,0,1
56258,-117.647058823529,4,2,0,70,0,1
56496,-86.9565217391304,4,2,0,70,0,1
56734,-117.647058823529,4,2,0,70,0,1
56972,-86.9565217391304,4,2,0,70,0,1
57210,-117.647058823529,4,2,0,70,0,1
57448,-86.9565217391304,4,2,0,70,0,1
57686,-117.647058823529,4,2,0,70,0,1
57924,-86.9565217391304,4,2,0,70,0,1
58163,-117.647058823529,4,2,0,70,0,1
58401,-86.9565217391304,4,2,0,70,0,1
58639,-117.647058823529,4,2,0,70,0,1
58877,-86.9565217391304,4,2,0,70,0,1
59115,-117.647058823529,4,2,0,70,0,1
59353,-86.9565217391304,4,2,0,70,0,1
59591,-117.647058823529,4,2,0,70,0,1
59829,-86.9565217391304,4,2,0,70,0,1
60067,-117.647058823529,4,2,0,70,0,1
60305,-86.9565217391304,4,2,0,70,0,1
60543,-117.647058823529,4,2,0,70,0,1
60782,-86.9565217391304,4,2,0,70,0,1
61020,-117.647058823529,4,2,0,70,0,1
61258,-86.9565217391304,4,2,0,70,0,1
61496,-333.333333333333,4,2,0,70,0,0
65305,-250,4,2,0,70,0,0
67210,-133.333333333333,4,2,0,70,0,0
135782,-200,4,2,0,70,0,1
136020,-200,4,2,0,70,0,0
136734,-200,4,2,0,70,0,1
136972,-200,4,2,0,70,0,0
137686,-200,4,2,0,70,0,1
137924,-200,4,2,0,70,0,0
138163,-200,4,2,0,70,0,1
138401,-200,4,2,0,70,0,0
138639,-200,4,2,0,70,0,1
138877,-200,4,2,0,70,0,0
139115,-200,4,2,0,70,0,1
139353,-200,4,2,0,70,0,0
139591,-200,4,2,0,70,0,1
142924,-200,4,2,0,70,0,0
143401,-200,4,2,0,70,0,1
150543,-200,4,2,0,70,0,0
151020,-200,4,2,0,70,0,1
158639,-200,4,2,0,70,0,0
162448,-200,4,2,0,70,0,1
166258,-200,4,2,0,70,0,0
191258,-200,4,2,0,70,0,1
198163,-200,4,2,0,70,0,0
198639,-200,4,2,0,70,0,1
206258,-200,4,2,0,70,0,0
206496,-200,4,2,0,70,0,1
206734,-200,4,2,0,70,0,0

[Colours]
Combo1 : 251,210,149
Combo2 : 171,176,209
Combo3 : 255,230,140
Combo4 : 167,194,207

[HitObjects]
493,265,8163,6,0,P|450:241|401:247,1,100.000003814697
195,262,8401,2,0,P|251:294|316:288,1,133.333333333333
223,239,8639,2,0,P|264:276|310:281,1,100.000003814697
455,158,8877,1,0,0:0:0:0:
360,365,9036,1,0,0:0:0:0:
371,356,9115,6,0,P|402:302|385:239,1,100
327,81,9353,2,0,P|287:143|311:216,1,133.333333333333
394,251,9591,2,0,P|364:218|297:207,1,100.000003814697
296,371,9829,2,0,P|334:374|379:352,1,66.6666666666667
468,203,9988,1,0,0:0:0:0:
475,190,10067,5,0,0:0:0:0:
213,348,10305,2,0,P|162:294|157:210,1,133.333333333333
256,220,10543,2,0,P|211:246|161:244,1,100.000003814697
271,139,10782,1,0,0:0:0:0:
25,278,10940,1,0,0:0:0:0:
29,265,11020,6,0,P|71:236|156:239,1,133.333333333333
276,348,11258,2,0,P|239:345|203:324,1,66.6666666666667
113,140,11417,1,0,0:0:0:0:
125,146,11496,2,0,P|155:185|163:251,1,110.000001049042
53,357,11734,1,0,0:0:0:0:
249,251,11893,1,0,0:0:0:0:
260,260,11972,6,0,P|315:257|357:226,1,100.000003814697
423,39,12210,2,0,P|370:101|387:177,1,133.333333333333
451,75,12448,2,0,P|400:100|382:153,1,100.000003814697
409,320,12686,1,0,0:0:0:0:
497,117,12845,1,0,0:0:0:0:
485,107,12924,6,0,P|436:104|394:131,1,100.000003814697
301,313,13163,2,0,P|341:237|313:165,1,133.333333333333
314,89,13401,2,0,P|315:171|353:211,1,100.000003814697
377,32,13639,2,0,P|350:12|317:4,1,66.6666666666667
406,154,13797,1,0,0:0:0:0:
421,148,13877,5,0,0:0:0:0:
320,265,14036,1,0,0:0:0:0:
331,275,14115,2,0,P|407:281|463:236,1,133.333333333333
421,148,14353,2,0,P|418:197|441:240,1,100.000003814697
490,101,14591,1,0,0:0:0:0:
374,362,14750,1,0,0:0:0:0:
388,358,14829,6,0,P|432:321|449:229,1,133.333333333333
360,67,15067,1,0,0:0:0:0:
132,215,15226,1,0,0:0:0:0:
144,224,15305,5,0,0:0:0:0:
197,219,15385,1,0,0:0:0:0:
241,190,15464,1,0,0:0:0:0:
281,156,15543,1,0,0:0:0:0:
333,143,15623,1,0,0:0:0:0:
385,148,15702,1,0,0:0:0:0:
374,162,15782,5,0,0:0:0:0:
365,174,16020,2,0,L|372:247,2,69.9999978637696
58,99,16734,5,0,0:0:0:0:
66,111,16972,2,0,L|59:184,2,69.9999978637696
379,58,17686,5,0,0:0:0:0:
366,45,17924,1,0,0:0:0:0:
348,38,18163,1,0,0:0:0:0:
329,34,18401,2,0,P|361:43|386:67,1,57.3333342081706
390,72,18639,6,0,L|380:171,1,70.6666667744954
380,159,18877,1,0,0:0:0:0:
90,124,19115,6,0,L|100:223,1,70.6666667744954
100,210,19353,1,0,0:0:0:0:
137,193,19432,1,0,0:0:0:0:
181,205,19512,1,0,0:0:0:0:
179,220,19591,6,0,L|167:320,1,93.3333304850261
380,159,19829,2,0,P|318:149|254:194,1,119.999996337891
258,284,20067,2,0,L|269:168,1,93.3333304850261
278,54,20305,2,0,L|267:173,1,119.999996337891
468,173,20543,6,0,P|462:128|423:81,1,93.3333304850261
268,174,20782,2,0,L|400:157,1,113.333335494995
420,82,21020,1,0,0:0:0:0:
214,90,21178,1,0,0:0:0:0:
209,105,21258,1,0,0:0:0:0:
407,74,21417,1,0,0:0:0:0:
393,66,21496,6,0,L|291:78,1,93.3333304850261
203,2,21734,2,0,P|260:15|298:60,1,119.999996337891
311,169,21972,2,0,L|297:50,1,93.3333304850261
408,242,22210,2,0,P|350:228|312:183,1,119.999996337891
488,180,22448,6,0,P|456:225|399:239,1,93.3333304850261
402,157,22686,1,0,0:0:0:0:
431,321,22845,1,0,0:0:0:0:
417,331,22924,5,0,0:0:0:0:
366,327,23003,1,0,0:0:0:0:
317,309,23083,1,0,0:0:0:0:
275,278,23162,1,0,0:0:0:0:
226,261,23241,1,0,0:0:0:0:
174,263,23321,1,0,0:0:0:0:
183,276,23401,5,0,0:0:0:0:
263,250,23639,1,0,0:0:0:0:
238,170,23877,1,0,0:0:0:0:
158,194,24115,1,0,0:0:0:0:
444,199,24353,5,0,0:0:0:0:
364,173,24591,1,0,0:0:0:0:
389,93,24829,1,0,0:0:0:0:
469,117,25067,1,0,0:0:0:0:
70,133,25305,5,0,0:0:0:0:
150,107,25543,1,0,0:0:0:0:
125,27,25781,1,0,0:0:0:0:
45,51,26020,2,0,L|139:25,1,66.6666666666667
125,27,26258,5,0,0:0:0:0:
27,208,26496,1,0,0:0:0:0:
288,143,26655,1,0,0:0:0:0:
270,138,26734,5,0,0:0:0:0:
225,158,26813,1,0,0:0:0:0:
205,203,26893,1,0,0:0:0:0:
219,250,26972,1,0,0:0:0:0:
261,275,27051,1,0,0:0:0:0:
309,267,27131,1,0,0:0:0:0:
298,256,27210,6,0,P|216:283|206:301,1,93.3333304850261
122,376,27448,2,0,P|62:377|1:321,1,119.999996337891
6,238,27686,2,0,L|13:332,1,93.3333304850261
6,221,27924,2,0,P|47:181|112:172,1,119.999996337891
205,203,28163,6,0,P|161:205|109:174,1,93.3333304850261
192,85,28401,2,0,P|225:156|209:210,1,119.999996337891
177,287,28639,2,0,P|179:241|204:202,1,93.3333304850261
311,181,28877,1,0,0:0:0:0:
208,368,29036,1,0,0:0:0:0:
223,366,29115,6,0,L|329:357,1,93.3333304850261
422,304,29353,2,0,P|355:308|314:370,1,119.999996337891
505,300,29591,2,0,P|497:265|449:227,1,93.3333304850261
319,212,29829,2,0,L|442:227,1,119.999996337891
380,120,30067,6,0,L|287:127,1,93.3333304850261
246,255,30305,1,0,0:0:0:0:
315,38,30464,1,0,0:0:0:0:
311,21,30543,1,0,0:0:0:0:
92,72,30702,1,0,0:0:0:0:
88,87,30782,5,0,0:0:0:0:
140,97,30861,1,0,0:0:0:0:
181,63,30940,1,0,0:0:0:0:
171,52,31020,6,0,L|162:149,1,89.999997253418
162,142,31734,1,0,0:0:0:0:
266,56,31972,5,0,0:0:0:0:
266,56,32210,2,0,L|267:80,3,14.9999995422363
266,70,32448,2,0,L|260:6,1,59.9999981689454
161,142,32924,6,0,L|152:239,1,89.999997253418
151,232,33638,1,0,0:0:0:0:
267,159,33877,5,0,0:0:0:0:
267,159,34115,2,0,L|240:164,3,20
247,162,34353,2,0,P|245:119|221:78,1,80
94,314,34829,6,0,L|183:322,1,89.999997253418
183,322,35543,1,0,0:0:0:0:
101,227,35782,5,0,0:0:0:0:
101,227,36020,2,0,L|115:226,3,14.9999995422363
115,226,36258,2,0,L|51:232,1,59.9999981689454
183,322,36734,6,0,L|272:330,1,89.999997253418
272,330,37448,1,0,0:0:0:0:
115,226,37686,5,0,0:0:0:0:
115,226,37924,2,0,L|142:223,3,20
153,222,38163,1,0,0:0:0:0:
49,30,38401,5,0,0:0:0:0:
28,75,38480,1,0,0:0:0:0:
30,125,38559,1,0,0:0:0:0:
40,135,38639,6,0,L|147:125,1,93.3333304850261
238,196,38877,2,0,P|187:186|140:139,1,119.999996337891
156,40,39115,2,0,P|153:93|124:134,1,93.3333304850261
29,18,39353,2,0,L|178:30,1,119.999996337891
288,129,39591,6,0,P|352:107|377:75,1,93.3333304850261
296,10,39829,2,0,P|268:68|291:148,1,119.999996337891
390,188,40067,2,0,P|396:155|372:97,1,93.3333304850261
263,213,40305,2,0,L|421:197,1,119.999996337891
472,163,40543,5,0,0:0:0:0:
421,370,40702,1,0,0:0:0:0:
435,365,40782,2,0,P|470:325|454:223,1,119.999996337891
382,200,41020,2,0,P|377:257|403:301,1,93.3333304850261
459,152,41258,2,0,P|424:123|348:117,1,119.999996337891
210,230,41496,6,0,P|144:231|78:172,1,119.999996337891
47,134,41734,1,0,0:0:0:0:
254,86,41893,1,0,0:0:0:0:
249,102,41972,2,0,P|202:141|137:149,1,93.3333304850261
7,57,42210,2,0,P|71:51|134:107,1,119.999996337891
223,223,42448,6,0,L|327:233,1,93.3333304850261
394,192,42686,1,0,0:0:0:0:
297,314,42845,1,0,0:0:0:0:
313,319,42924,2,0,P|366:304|400:264,1,93.3333304850261
351,115,43163,2,0,P|312:159|307:218,1,119.999996337891
423,384,43401,6,0,P|424:336|394:280,1,100.000003814697
169,222,43639,2,0,L|319:235,1,133.333333333333
483,131,43877,2,0,P|425:153|392:210,1,100.000003814697
490,220,44115,2,0,P|454:193|398:191,1,86.6666626993817
296,248,44353,5,0,0:0:0:0:
401,181,44512,1,0,0:0:0:0:
407,305,44670,1,0,0:0:0:0:
282,251,44829,5,0,0:0:0:0:
406,169,44988,1,0,0:0:0:0:
413,318,45146,1,0,0:0:0:0:
266,256,45305,5,0,0:0:0:0:
266,256,45782,2,0,L|237:264,10,19.9999993896485
247,261,46258,6,0,P|212:313|227:382,1,113.333335494995
407,286,46496,2,0,B|340:246|340:246|205:263,1,153.333336257935
145,280,46734,2,0,P|157:334|201:368,1,113.333335494995
315,336,46972,1,0,0:0:0:0:
153,193,47131,1,0,0:0:0:0:
152,208,47210,6,0,L|145:283,1,56.6666677474976
226,153,47369,2,0,P|184:116|89:133,1,113.333335494995
14,221,47607,2,0,B|93:235|93:235|181:172,1,153.333336257935
88,34,47845,1,0,0:0:0:0:
74,41,47924,2,0,P|43:126|54:154,1,76.6666681289673
45,315,48083,1,0,0:0:0:0:
54,304,48163,6,0,P|107:278|190:313,1,113.333335494995
312,255,48401,2,0,B|248:303|248:303|151:289,1,153.333336257935
14,221,48639,1,0,0:0:0:0:
292,157,48797,1,0,0:0:0:0:
296,174,48877,1,0,0:0:0:0:
129,62,49036,1,0,0:0:0:0:
140,51,49115,6,0,P|221:66|256:119,1,113.333335494995
108,165,49353,2,0,B|155:106|155:106|267:96,1,153.333336257935
217,225,49591,2,0,P|136:210|101:157,1,126.666663284302
213,8,49829,1,0,0:0:0:0:
147,280,49988,1,0,0:0:0:0:
133,270,50067,6,0,P|106:217|121:132,1,113.333335494995
345,176,50305,2,0,B|293:232|293:232|181:221,1,153.333336257935
261,104,50543,2,0,P|341:145|350:201,1,113.333335494995
253,315,50782,1,0,0:0:0:0:
159,97,50940,1,0,0:0:0:0:
173,92,51020,5,0,0:0:0:0:
39,284,51178,1,0,0:0:0:0:
25,276,51258,2,0,B|-21:221|-21:221|-10:122,1,153.333336257935
142,254,51496,2,0,P|110:277|28:280,1,113.333335494995
0,127,51734,2,0,P|41:109|122:128,1,76.6666681289673
192,182,51893,1,0,0:0:0:0:
206,189,51972,6,0,P|285:176|326:121,1,113.333335494995
340,1,52210,2,0,B|298:54|298:54|318:171,1,153.333336257935
418,83,52448,2,0,P|348:100|317:145,1,113.333335494995
290,261,52686,1,0,0:0:0:0:
462,161,52845,1,0,0:0:0:0:
450,148,52924,6,0,P|397:117|311:141,1,126.666663284302
255,174,53163,1,0,0:0:0:0:
202,165,53242,1,0,0:0:0:0:
162,129,53321,1,0,0:0:0:0:
173,117,53401,5,0,0:0:0:0:
186,164,53480,1,0,0:0:0:0:
168,210,53559,1,0,0:0:0:0:
142,253,53639,1,0,0:0:0:0:
142,302,53718,1,0,0:0:0:0:
164,346,53797,1,0,0:0:0:0:
178,353,53877,6,0,P|230:355|294:309,1,113.333335494995
332,180,54115,2,0,B|282:233|282:233|295:350,1,153.333336257935
448,200,54353,2,0,P|400:171|344:172,1,113.333335494995
208,275,54591,1,0,0:0:0:0:
457,284,54750,1,0,0:0:0:0:
454,270,54829,6,0,L|444:183,1,56.6666677474976
358,76,54988,2,0,P|335:106|341:198,1,113.333335494995
444,40,55226,2,0,B|384:-8|384:-8|255:8,1,153.333336257935
234,132,55464,1,0,0:0:0:0:
225,144,55543,2,0,P|189:158|151:158,1,76.6666681289673
4,71,55702,1,0,0:0:0:0:
16,63,55782,6,0,P|69:52|135:94,1,113.333335494995
136,257,56020,2,0,B|69:214|69:214|58:117,1,153.333336257935
78,5,56258,1,0,0:0:0:0:
166,153,56417,1,0,0:0:0:0:
151,158,56496,1,0,0:0:0:0:
247,12,56655,1,0,0:0:0:0:
262,18,56734,6,0,P|305:70|298:149,1,113.333335494995
351,263,56972,2,0,B|300:207|300:207|311:89,1,153.333336257935
468,237,57210,2,0,P|403:272|343:258,1,113.333335494995
394,110,57448,2,0,P|427:121|466:183,1,76.6666681289673
453,381,57607,1,0,0:0:0:0:
455,365,57686,6,0,L|469:227,1,113.333335494995
382,121,57924,2,0,B|329:173|329:173|345:290,1,153.333336257935
492,151,58163,2,0,P|429:109|370:117,1,113.333335494995
248,149,58401,1,0,0:0:0:0:
468,237,58559,1,0,0:0:0:0:
458,225,58639,6,0,P|370:226|326:275,1,113.333335494995
219,339,58877,2,0,B|143:351|143:351|55:293,1,153.333336257935
190,225,59115,2,0,P|228:285|213:357,1,113.333335494995
70,294,59353,2,0,P|99:226|122:211,1,76.6666681289673
248,149,59512,1,0,0:0:0:0:
257,163,59591,6,0,P|346:192|395:175,1,113.333335494995
285,16,59829,2,0,B|233:78|233:78|253:177,1,153.333336257935
402,33,60067,2,0,P|313:4|264:21,1,113.333335494995
127,63,60305,1,0,0:0:0:0:
431,128,60463,1,0,0:0:0:0:
435,111,60543,5,0,0:0:0:0:
239,268,60702,1,0,0:0:0:0:
255,271,60782,1,0,0:0:0:0:
302,18,60940,1,0,0:0:0:0:
285,16,61020,5,0,0:0:0:0:
268,62,61099,1,0,0:0:0:0:
275,111,61178,1,0,0:0:0:0:
318,142,61258,1,0,0:0:0:0:
341,189,61337,1,0,0:0:0:0:
347,242,61417,1,0,0:0:0:0:
334,252,61496,6,0,L|436:237,1,89.9999972534181
423,238,62210,1,0,0:0:0:0:
220,313,62448,6,0,L|315:325,1,89.9999972534181
203,311,62924,2,0,L|143:303,1,59.9999981689454
307,133,63401,6,0,L|409:118,1,89.9999972534181
396,119,64115,1,0,0:0:0:0:
196,195,64353,5,0,0:0:0:0:
125,155,64591,1,0,0:0:0:0:
207,202,64829,1,0,0:0:0:0:
112,148,65067,1,0,0:0:0:0:
344,258,65305,5,0,0:0:0:0:
388,27,65543,1,0,0:0:0:0:
346,37,65623,1,0,0:0:0:0:
311,60,65702,1,0,0:0:0:0:
296,55,65782,5,0,0:0:0:0:
349,52,65861,1,0,0:0:0:0:
396,75,65940,1,0,0:0:0:0:
430,116,66020,1,0,0:0:0:0:
442,167,66099,1,0,0:0:0:0:
439,220,66178,1,0,0:0:0:0:
424,215,66258,5,0,0:0:0:0:
424,215,67210,6,0,P|388:175|332:208,1,100.000003814697
315,268,67448,1,0,0:0:0:0:
345,86,67607,1,0,0:0:0:0:
333,77,67686,2,0,P|283:108|312:158,1,100.000003814697
