osu file format v14

[General]
AudioFilename: pin pon.mp3
AudioLeadIn: 0
PreviewTime: 135226
Countdown: 1
SampleSet: None
StackLeniency: 0.3
Mode: 0
LetterboxInBreaks: 0
WidescreenStoryboard: 1

[Editor]
DistanceSpacing: 0.6
BeatDivisor: 6
GridSize: 32
TimelineZoom: 2

[Metadata]
Title:Hajimete Girls!
TitleUnicode:初めてガールズ!
Artist:Ray
ArtistUnicode:Ray
Creator:pishifat
Version:Extra
Source:わかば*ガール
Tags:
BeatmapID:1113731
BeatmapSetID:524742

[Difficulty]
HPDrainRate:5
CircleSize:4
OverallDifficulty:8.6
ApproachRate:9.2
SliderMultiplier:2
SliderTickRate:1

[Events]
//Background and Video events
0,0,"horriblesubs-wakaba-girl-07-720p-mkv_snapshot_06-22_2015-08-15_01-18-29.jpg",0,0
//Break Periods
2,175782,182831
//Storyboard Layer 0 (Background)
//Storyboard Layer 1 (Fail)
//Storyboard Layer 2 (Pass)
//Storyboard Layer 3 (Foreground)
//Storyboard Sound Samples

[TimingPoints]
544,238.095238095238,4,2,0,70,1,0
544,-200,4,2,0,70,0,0
7686,-300.3003003003,4,2,0,70,0,0
8163,-100,4,2,0,70,0,1
8401,-100,4,2,0,70,0,1
8639,-133.333333333333,4,2,0,70,0,1
8877,-100,4,2,0,70,0,1
9115,-100,4,2,0,70,0,1
9353,-133.333333333333,4,2,0,70,0,1
9591,-114.942528735632,4,2,0,70,0,1
9829,-100,4,2,0,70,0,1
10067,-133.333333333333,4,2,0,70,0,1
10305,-100,4,2,0,70,0,1
10543,-114.942528735632,4,2,0,70,0,1
10782,-100,4,2,0,70,0,1
11020,-100,4,2,0,70,0,1
11258,-100,4,2,0,70,0,1
11496,-100,4,2,0,70,0,1
11734,-100,4,2,0,70,0,1
11972,-111.111111111111,4,2,0,70,0,1
12210,-100,4,2,0,70,0,1
12448,-133.333333333333,4,2,0,70,0,1
12686,-100,4,2,0,70,0,1
12924,-100,4,2,0,70,0,1
13163,-133.333333333333,4,2,0,70,0,1
13401,-114.942528735632,4,2,0,70,0,1
13639,-100,4,2,0,70,0,1
13877,-100,4,2,0,70,0,1
14115,-100,4,2,0,70,0,1
14353,-114.942528735632,4,2,0,70,0,1
14591,-100,4,2,0,70,0,1
14829,-100,4,2,0,70,0,1
15782,-133.333333333333,4,2,0,70,0,0
16020,-285.714285714284,4,2,0,70,0,0
18401,-232.558139534884,4,2,0,70,0,0
18559,-188.679245283019,4,2,0,5,0,0
18639,-188.679245283019,4,2,0,70,0,0
18797,-188.679245283019,4,2,0,5,0,0
18877,-188.679245283019,4,2,0,70,0,0
19115,-188.679245283019,4,2,0,70,0,0
19274,-188.679245283019,4,2,0,5,0,0
19353,-188.679245283019,4,2,0,70,0,0
19591,-111.111111111111,4,2,0,70,0,0
19829,-111.111111111111,4,2,0,70,0,0
20067,-142.857142857143,4,2,0,70,0,0
20543,-111.111111111111,4,2,0,70,0,0
20782,-142.857142857143,4,2,0,70,0,0
21020,-142.857142857143,4,2,0,70,0,0
21258,-111.111111111111,4,2,0,70,0,0
21496,-111.111111111111,4,2,0,70,0,0
21734,-142.857142857143,4,2,0,70,0,0
21972,-142.857142857143,4,2,0,70,0,0
22210,-142.857142857143,4,2,0,70,0,0
22448,-111.111111111111,4,2,0,70,0,0
26020,-200,4,2,0,70,0,0
27210,-111.111111111111,4,2,0,70,0,0
27448,-111.111111111111,4,2,0,70,0,0
27686,-142.857142857143,4,2,0,70,0,0
27924,-142.857142857143,4,2,0,70,0,0
28163,-111.111111111111,4,2,0,70,0,0
28401,-142.857142857143,4,2,0,70,0,0
28639,-142.857142857143,4,2,0,70,0,0
28877,-111.111111111111,4,2,0,70,0,0
29115,-111.111111111111,4,2,0,70,0,0
29353,-142.857142857143,4,2,0,70,0,0
29591,-142.857142857143,4,2,0,70,0,0
29829,-142.857142857143,4,2,0,70,0,0
30067,-111.111111111111,4,2,0,70,0,0
30305,-111.111111111111,4,2,0,70,0,0
30543,-142.857142857143,4,2,0,70,0,0
30782,-111.111111111111,4,2,0,70,0,0
31020,-333.333333333333,4,2,0,70,0,0
34115,-250,4,2,0,70,0,0
34829,-333.333333333333,4,2,0,70,0,0
37924,-250,4,2,0,70,0,0
38639,-111.111111111111,4,2,0,70,0,0
38877,-142.857142857143,4,2,0,70,0,0
39115,-142.857142857143,4,2,0,70,0,0
39353,-142.857142857143,4,2,0,70,0,0
39591,-111.111111111111,4,2,0,70,0,0
39829,-142.857142857143,4,2,0,70,0,0
40067,-142.857142857143,4,2,0,70,0,0
40305,-142.857142857143,4,2,0,70,0,0
40543,-111.111111111111,4,2,0,70,0,0
40782,-142.857142857143,4,2,0,70,0,0
41020,-142.857142857143,4,2,0,70,0,0
41258,-142.857142857143,4,2,0,70,0,0
41496,-111.111111111111,4,2,0,70,0,0
41734,-142.857142857143,4,2,0,70,0,0
41972,-125,4,2,0,70,0,0
42210,-142.857142857143,4,2,0,70,0,0
42448,-105.263157894737,4,2,0,70,0,0
42686,-142.857142857143,4,2,0,70,0,0
42924,-142.857142857143,4,2,0,70,0,0
43163,-142.857142857143,4,2,0,70,0,0
43401,-100,4,2,0,70,0,0
43639,-133.333333333333,4,2,0,70,0,0
43877,-133.333333333333,4,2,0,70,0,0
44115,-133.333333333333,4,2,0,70,0,0
44353,-142.857142857143,4,2,0,70,0,0
45782,-166.666666666667,4,2,0,30,0,0
45821,-142.857142857143,4,2,0,30,0,0
46258,-86.9565217391304,4,2,0,70,0,1
46496,-86.9565217391304,4,2,0,70,0,1
46734,-117.647058823529,4,2,0,70,0,1
46972,-86.9565217391304,4,2,0,70,0,1
47210,-86.9565217391304,4,2,0,70,0,1
47448,-80,4,2,0,70,0,1
47924,-86.9565217391304,4,2,0,70,0,1
48163,-86.9565217391302,4,2,0,70,0,1
48401,-86.9565217391304,4,2,0,70,0,1
48639,-86.9565217391302,4,2,0,70,0,1
48877,-86.9565217391304,4,2,0,70,0,1
49115,-117.647058823529,4,2,0,70,0,1
49353,-95.2380952380952,4,2,0,70,0,1
49591,-83.3333333333333,4,2,0,70,0,1
49829,-74.0740740740741,4,2,0,70,0,1
50067,-86.9565217391302,4,2,0,70,0,1
50305,-86.9565217391302,4,2,0,70,0,1
50543,-117.647058823529,4,2,0,70,0,1
50782,-86.9565217391302,4,2,0,70,0,1
51020,-117.647058823529,4,2,0,70,0,1
51258,-86.9565217391302,4,2,0,70,0,1
51496,-117.647058823529,4,2,0,70,0,1
51734,-86.9565217391302,4,2,0,70,0,1
51972,-117.647058823529,4,2,0,70,0,1
52210,-117.647058823529,4,2,0,70,0,1
52448,-117.647058823529,4,2,0,70,0,1
52686,-86.9565217391302,4,2,0,70,0,1
52924,-86.9565217391306,4,2,0,70,0,1
53163,-86.9565217391302,4,2,0,70,0,1
53401,-200,4,2,0,70,0,0
53877,-86.9565217391302,4,2,0,70,0,1
54115,-86.9565217391304,4,2,0,70,0,1
54353,-117.647058823529,4,2,0,70,0,1
54591,-86.9565217391304,4,2,0,70,0,1
54829,-86.9565217391302,4,2,0,70,0,1
55067,-80,4,2,0,70,0,1
55305,-117.647058823529,4,2,0,70,0,1
55543,-86.9565217391304,4,2,0,70,0,1
55782,-117.647058823529,4,2,0,70,0,1
56020,-86.9565217391304,4,2,0,70,0,1
56258,-86.9565217391302,4,2,0,70,0,1
56496,-86.9565217391304,4,2,0,70,0,1
56734,-117.647058823529,4,2,0,70,0,1
56972,-95.2380952380952,4,2,0,70,0,1
57210,-83.3333333333333,4,2,0,70,0,1
57448,-68.9655172413793,4,2,0,70,0,1
57686,-86.9565217391302,4,2,0,70,0,1
57924,-86.9565217391304,4,2,0,70,0,1
58163,-117.647058823529,4,2,0,70,0,1
58401,-86.9565217391304,4,2,0,70,0,1
58639,-117.647058823529,4,2,0,70,0,1
58877,-86.9565217391304,4,2,0,70,0,1
59115,-117.647058823529,4,2,0,70,0,1
59353,-86.9565217391304,4,2,0,70,0,1
59591,-117.647058823529,4,2,0,70,0,1
59829,-117.647058823529,4,2,0,70,0,1
60067,-117.647058823529,4,2,0,70,0,1
60305,-117.647058823529,4,2,0,70,0,1
60543,-117.647058823529,4,2,0,70,0,1
60782,-86.9565217391304,4,2,0,70,0,1
61020,-117.647058823529,4,2,0,70,0,1
61258,-86.9565217391304,4,2,0,70,0,1
61496,-333.333333333333,4,2,0,70,0,0
65305,-250,4,2,0,70,0,0
67210,-111.111111111111,4,2,0,70,0,0
74829,-227.272727272727,4,2,0,70,0,0
75543,-227.272727272727,4,2,0,30,0,0
75782,-178.571428571429,4,2,0,70,0,0
76496,-178.571428571429,4,2,0,30,0,0
76734,-149.253731343284,4,2,0,70,0,0
77448,-133.333333333333,4,2,0,30,0,0
77686,-153.846153846154,4,2,0,70,0,0
77845,-153.846153846154,4,2,0,30,0,0
77924,-153.846153846154,4,2,0,70,0,0
78083,-153.846153846154,4,2,0,30,0,0
78163,-153.846153846154,4,2,0,70,0,0
78321,-153.846153846154,4,2,0,30,0,0
78401,-153.846153846154,4,2,0,70,0,0
78559,-153.846153846154,4,2,0,30,0,0
78639,-111.111111111111,4,2,0,70,0,0
78877,-111.111111111111,4,2,0,70,0,0
79115,-142.857142857143,4,2,0,70,0,0
79591,-111.111111111111,4,2,0,70,0,0
79829,-142.857142857143,4,2,0,70,0,0
80305,-111.111111111111,4,2,0,70,0,0
80782,-142.857142857143,4,2,0,70,0,0
81496,-111.111111111111,4,2,0,70,0,0
82448,-333.333333333333,4,2,0,70,0,0
83401,-166.666666666666,4,2,0,70,0,0
84353,-125,4,2,0,70,0,0
86258,-111.111111111111,4,2,0,70,0,0
86734,-142.857142857143,4,2,0,70,0,0
87210,-111.111111111111,4,2,0,70,0,0
87448,-142.857142857143,4,2,0,70,0,0
87924,-111.111111111111,4,2,0,70,0,0
88401,-142.857142857143,4,2,0,70,0,0
89115,-111.111111111111,4,2,0,70,0,0
90067,-333.333333333332,4,2,0,70,0,0
93163,-249.999999999999,4,2,0,70,0,0
93837,-333.333333333332,4,2,0,70,0,0
96932,-249.999999999999,4,2,0,70,0,0
97686,-111.111111111111,4,2,0,70,0,0
97924,-142.857142857142,4,2,0,70,0,0
98639,-111.111111111111,4,2,0,70,0,0
98877,-142.857142857142,4,2,0,70,0,0
99591,-111.111111111111,4,2,0,70,0,0
99829,-142.857142857142,4,2,0,70,0,0
100543,-111.111111111111,4,2,0,70,0,0
101020,-125,4,2,0,70,0,0
101258,-142.857142857142,4,2,0,70,0,0
101496,-111.111111111111,4,2,0,70,0,0
101734,-142.857142857142,4,2,0,70,0,0
102448,-105.263157894737,4,2,0,70,0,0
102686,-133.333333333333,4,2,0,70,0,0
104591,-181.818181818181,4,2,0,70,0,0
105305,-153.846153846153,4,2,0,70,0,0
112924,-142.857142857143,4,2,0,70,0,0
118877,-200,4,2,0,70,0,0
119115,-181.818181818182,4,2,0,70,0,0
119353,-166.666666666667,4,2,0,70,0,0
119591,-142.857142857143,4,2,0,70,0,0
119829,-125,4,2,0,70,0,0
120067,-111.111111111111,4,2,0,70,0,0
120543,-100,4,2,0,70,0,0
128163,-83.3333333333333,4,2,0,70,0,0
135782,-200,4,2,0,70,0,0
136020,-200,4,2,0,70,0,0
136734,-200,4,2,0,70,0,0
136972,-200,4,2,0,70,0,0
137686,-133.333333333333,4,2,0,70,0,0
137924,-133.333333333333,4,2,0,70,0,0
138163,-133.333333333333,4,2,0,70,0,0
138401,-133.333333333333,4,2,0,70,0,0
138639,-117.647058823529,4,2,0,70,0,0
138877,-117.647058823529,4,2,0,70,0,0
139115,-117.647058823529,4,2,0,70,0,0
139353,-133.333333333333,4,2,0,70,0,0
139591,-95.2380952380952,4,2,0,70,0,1
139829,-86.9565217391304,4,2,0,70,0,1
140067,-117.647058823529,4,2,0,70,0,1
140782,-86.9565217391302,4,2,0,70,0,1
141020,-117.647058823529,4,2,0,70,0,1
141258,-86.9565217391302,4,2,0,70,0,1
141496,-117.647058823529,4,2,0,70,0,1
141734,-117.647058823529,4,2,0,70,0,1
142448,-86.9565217391304,4,2,0,70,0,1
142924,-200,4,2,0,70,0,0
143401,-86.9565217391304,4,2,0,70,0,1
143877,-117.647058823529,4,2,0,70,0,1
144353,-86.9565217391304,4,2,0,70,0,1
144750,-80,4,2,0,70,0,1
145067,-86.9565217391304,4,2,0,70,0,1
145305,-86.9565217391304,4,2,0,70,0,1
146258,-117.647058823529,4,2,0,70,0,1
146496,-95.2380952380952,4,2,0,70,0,1
146734,-83.3333333333333,4,2,0,70,0,1
146972,-74.0740740740741,4,2,0,70,0,1
147210,-86.9565217391304,4,2,0,70,0,1
147686,-117.647058823529,4,2,0,70,0,1
147924,-86.9565217391304,4,2,0,70,0,1
148163,-117.647058823529,4,2,0,70,0,1
148401,-86.9565217391304,4,2,0,70,0,1
148639,-117.647058823529,4,2,0,70,0,1
148877,-86.9565217391304,4,2,0,70,0,1
149115,-117.647058823529,4,2,0,70,0,1
150067,-86.9565217391304,4,2,0,70,0,1
150543,-200,4,2,0,70,0,0
151020,-142.857142857143,4,2,0,70,0,0
151258,-86.9565217391304,4,2,0,70,0,1
151496,-117.647058823529,4,2,0,70,0,1
151972,-86.9565217391304,4,2,0,70,0,1
152369,-68.9655172413793,4,2,0,70,0,1
152686,-86.9565217391304,4,2,0,70,0,1
153877,-117.647058823529,4,2,0,70,0,1
154115,-95.2380952380952,4,2,0,70,0,1
154353,-83.3333333333333,4,2,0,70,0,1
154591,-74.0740740740741,4,2,0,70,0,1
154829,-86.9565217391304,4,2,0,70,0,1
155305,-117.647058823529,4,2,0,70,0,1
155543,-86.9565217391304,4,2,0,70,0,1
155782,-117.647058823529,4,2,0,70,0,1
156020,-86.9565217391304,4,2,0,70,0,1
156258,-117.647058823529,4,2,0,70,0,1
156496,-86.9565217391304,4,2,0,70,0,1
156734,-117.647058823529,4,2,0,70,0,1
157686,-86.9565217391304,4,2,0,70,0,1
158639,-333.333333333333,4,2,0,70,0,0
159591,-166.666666666667,4,2,0,70,0,0
160543,-125,4,2,0,70,0,0
162448,-86.9565217391304,4,2,0,70,0,1
162924,-117.647058823529,4,2,0,70,0,1
163163,-86.9565217391304,4,2,0,70,0,1
163401,-117.647058823529,4,2,0,70,0,1
163639,-86.9565217391304,4,2,0,70,0,1
163877,-117.647058823529,4,2,0,70,0,1
164115,-86.9565217391304,4,2,0,70,0,1
164274,-117.647058823529,4,2,0,70,0,1
164591,-117.647058823529,4,2,0,70,0,1
166258,-333.333333333333,4,2,0,70,0,0
167270,-250,4,2,0,70,0,0
170067,-333.333333333333,4,2,0,70,0,0
171020,-250,4,2,0,70,0,0
183401,-166.666666666667,4,2,0,70,0,0
191258,-100,4,2,0,70,0,1
191496,-133.333333333333,4,2,0,70,0,1
191972,-100,4,2,0,70,0,1
192210,-133.333333333333,4,2,0,70,0,1
192448,-114.942528735632,4,2,0,70,0,1
192686,-100,4,2,0,70,0,1
193163,-100,4,2,0,70,0,1
193401,-114.942528735632,4,2,0,70,0,1
193877,-100,4,2,0,70,0,1
195305,-133.333333333333,4,2,0,70,0,1
195782,-100,4,2,0,70,0,1
196020,-133.333333333333,4,2,0,70,0,1
196258,-114.942528735632,4,2,0,70,0,1
196496,-100,4,2,0,70,0,1
197210,-114.942528735632,4,2,0,70,0,1
197686,-80,4,2,0,70,0,1
198163,-100,4,2,0,70,0,0
198639,-90.9090909090909,4,2,0,70,0,1
206258,-200,4,2,0,70,0,0
206496,-200,4,2,0,70,0,1
206734,-200,4,2,0,70,0,0

[Colours]
Combo1 : 251,210,149
Combo2 : 171,176,209
Combo3 : 255,230,140
Combo4 : 167,194,207

[HitObjects]
109,203,544,6,0,P|92:233|98:293,1,66.6666666666667
230,347,782,2,0,B|137:334|137:334|105:353|68:345,1,166.666666666667
12,292,1258,2,0,P|24:318|74:344,1,66.6666666666667
240,265,1496,6,0,L|156:254,1,66.6666666666667
173,256,1853,2,0,P|244:245|275:206,1,116.666666666667
283,136,2210,2,0,P|285:171|275:211,1,66.6666666666667
158,249,2448,6,0,P|131:228|116:184,1,66.6666666666667
200,10,2686,2,0,B|196:52|187:103|187:103|206:135|195:179,1,166.666666666667
138,117,3163,2,0,P|167:131|188:158,1,66.6666666666667
310,294,3401,6,0,L|345:298,5,25
335,297,3758,2,0,L|209:309,1,116.666666666667
158,249,4115,1,0,0:0:0:0:
342,146,4274,1,0,0:0:0:0:
342,146,4353,6,0,P|345:189|334:220,1,66.6666666666667
180,98,4591,2,0,B|273:86|273:86|299:59|336:58,1,166.666666666667
410,95,5067,2,0,P|371:66|344:60,1,66.6666666666667
209,208,5305,6,0,P|252:189|264:171,1,66.6666666666667
262,173,5663,2,0,L|252:296,1,116.666666666667
246,371,6020,2,0,L|251:304,1,66.6666666666667
84,186,6258,6,0,P|47:202|28:231,1,66.6666666666667
167,310,6496,2,0,B|74:296|74:296|39:313|-2:296,1,166.666666666667
54,354,6972,2,0,P|16:328|1:305,1,66.6666666666667
27,156,7210,6,0,L|33:229,1,66.6666666666667
32,222,7686,6,0,L|27:156,1,66.6666666666667
27,156,8163,6,0,P|87:190|153:182,1,133.333333333333
359,178,8401,2,0,P|303:146|238:152,1,133.333333333333
332,206,8639,2,0,P|291:169|245:164,1,100.000003814697
75,230,8877,1,0,0:0:0:0:
225,306,9036,1,0,0:0:0:0:
236,297,9115,6,0,P|266:245|252:159,1,133.333333333333
275,72,9353,2,0,P|245:129|269:202,1,100.000003814697
349,107,9591,2,0,P|305:117|259:177,1,119.999996337891
399,170,9829,2,0,P|367:148|317:146,1,66.6666666666667
164,217,9988,1,0,0:0:0:0:
176,227,10067,5,0,0:0:0:0:
176,227,10305,2,0,P|105:229|49:178,1,133.333333333333
187,119,10543,2,0,P|129:150|99:151,1,58.0000004867554
93,80,10702,2,0,B|149:73|149:73|217:125,1,116.000000973511
259,173,10940,1,0,0:0:0:0:
271,185,11020,6,0,P|353:182|406:123,1,133.333333333333
384,65,11258,2,0,P|347:73|315:100,1,66.6666666666667
332,274,11417,1,0,0:0:0:0:
346,271,11496,2,0,P|390:230|402:159,1,133.333333333333
313,106,11734,1,0,0:0:0:0:
261,321,11893,1,0,0:0:0:0:
247,330,11972,6,0,P|194:334|131:286,1,119.999996337891
159,139,12210,2,0,P|212:201|195:277,1,133.333333333333
139,171,12448,2,0,P|186:197|202:252,1,100.000003814697
178,383,12686,1,0,0:0:0:0:
63,260,12845,1,0,0:0:0:0:
67,245,12924,6,0,P|109:221|210:242,1,133.333333333333
338,359,13163,2,0,P|416:352|454:312,1,100.000003814697
323,288,13401,2,0,P|397:334|445:320,1,116.000000973511
352,221,13639,2,0,P|360:253|382:280,1,66.6666666666667
501,296,13797,1,0,0:0:0:0:
511,284,13877,5,0,0:0:0:0:
435,111,14036,1,0,0:0:0:0:
419,107,14115,2,0,P|354:163|359:241,1,133.333333333333
506,64,14353,2,0,P|477:40|423:28,1,58.0000004867554
329,127,14512,2,0,B|270:132|270:132|196:82,1,116.000000973511
277,1,14750,1,0,0:0:0:0:
292,4,14829,6,0,P|336:52|314:169,1,133.333333333333
250,217,15067,1,0,0:0:0:0:
99,67,15226,1,0,0:0:0:0:
111,58,15305,5,0,0:0:0:0:
164,63,15385,1,0,0:0:0:0:
208,92,15464,1,0,0:0:0:0:
248,126,15543,1,0,0:0:0:0:
300,139,15623,1,0,0:0:0:0:
352,134,15702,1,0,0:0:0:0:
341,120,15782,5,0,0:0:0:0:
341,120,16020,2,0,L|348:193,2,69.9999978637696
10,88,16734,5,0,0:0:0:0:
10,88,16972,2,0,L|3:161,2,69.9999978637696
379,58,17686,5,0,0:0:0:0:
366,45,17924,1,0,0:0:0:0:
348,38,18163,1,0,0:0:0:0:
329,34,18401,2,0,P|361:43|386:67,1,57.3333342081706
390,72,18639,6,0,L|380:171,1,70.6666667744954
380,159,18877,1,0,0:0:0:0:
98,79,19115,6,0,L|108:178,1,70.6666667744954
108,165,19353,1,0,0:0:0:0:
145,148,19432,1,0,0:0:0:0:
189,160,19512,1,0,0:0:0:0:
181,173,19591,6,0,P|127:180|80:240,1,119.999996337891
148,368,19829,2,0,P|177:310|157:236,1,119.999996337891
109,340,20067,2,0,P|145:307|159:259,1,93.3333304850261
69,313,20305,2,0,P|100:311|154:264,1,93.3333304850261
202,62,20543,6,0,P|173:114|180:172,1,119.999996337891
243,90,20782,2,0,P|204:119|188:167,1,93.3333304850261
233,246,21020,1,0,0:0:0:0:
400,199,21178,1,0,0:0:0:0:
389,185,21258,2,0,P|335:160|276:170,1,119.999996337891
219,257,21496,6,0,P|155:258|103:227,1,119.999996337891
209,217,21734,2,0,P|165:232|119:225,1,93.3333304850261
204,177,21972,2,0,P|168:206|122:215,1,93.3333304850261
179,136,22210,2,0,P|158:177|121:205,1,93.3333304850261
136,63,22448,6,0,P|190:54|265:113,1,119.999996337891
313,181,22686,1,0,0:0:0:0:
494,38,22845,1,0,0:0:0:0:
480,28,22924,5,0,0:0:0:0:
429,32,23003,1,0,0:0:0:0:
380,50,23083,1,0,0:0:0:0:
338,81,23162,1,0,0:0:0:0:
289,98,23241,1,0,0:0:0:0:
237,96,23321,1,0,0:0:0:0:
246,83,23401,5,0,0:0:0:0:
267,163,23639,1,0,0:0:0:0:
162,107,23877,1,0,0:0:0:0:
187,187,24115,1,0,0:0:0:0:
365,149,24353,5,0,0:0:0:0:
386,229,24591,1,0,0:0:0:0:
281,173,24829,1,0,0:0:0:0:
306,253,25067,1,0,0:0:0:0:
483,214,25305,5,0,0:0:0:0:
504,294,25543,1,0,0:0:0:0:
399,238,25781,1,0,0:0:0:0:
424,318,26020,2,0,L|405:254,1,66.6666666666667
399,238,26258,5,0,0:0:0:0:
108,301,26496,1,0,0:0:0:0:
300,154,26655,1,0,0:0:0:0:
306,169,26734,5,0,0:0:0:0:
266,198,26813,1,0,0:0:0:0:
215,197,26893,1,0,0:0:0:0:
170,174,26972,1,0,0:0:0:0:
120,166,27051,1,0,0:0:0:0:
71,179,27131,1,0,0:0:0:0:
75,194,27210,6,0,P|112:202|191:138,1,119.999996337891
332,55,27448,2,0,P|295:47|216:111,1,119.999996337891
330,96,27686,2,0,P|263:80|225:96,1,93.3333304850261
329,137,27924,2,0,P|275:94|233:92,1,93.3333304850261
225,296,28163,6,0,P|267:305|343:259,1,119.999996337891
233,258,28401,2,0,P|288:280|336:267,1,93.3333304850261
405,223,28639,1,0,0:0:0:0:
271,78,28797,1,0,0:0:0:0:
260,89,28877,2,0,P|257:147|293:197,1,119.999996337891
451,154,29115,6,0,P|399:123|337:124,1,119.999996337891
425,189,29353,2,0,P|392:145|328:127,1,93.3333304850261
405,223,29591,2,0,P|393:169|343:125,1,93.3333304850261
371,241,29829,2,0,P|383:187|356:126,1,93.3333304850261
184,167,30067,6,0,P|215:193|306:186,1,119.999996337891
253,120,30305,1,0,0:0:0:0:
201,279,30464,1,0,0:0:0:0:
206,294,30543,1,0,0:0:0:0:
95,158,30702,1,0,0:0:0:0:
91,143,30782,5,0,0:0:0:0:
143,133,30861,1,0,0:0:0:0:
184,167,30940,1,0,0:0:0:0:
174,178,31020,6,0,L|165:81,1,89.999997253418
165,88,31734,1,0,0:0:0:0:
262,136,31972,5,0,0:0:0:0:
262,136,32210,2,0,L|264:150,3,14.9999995422363
264,150,32448,2,0,L|256:87,1,59.9999981689454
353,147,32924,6,0,L|344:50,1,89.999997253418
344,57,33638,1,0,0:0:0:0:
441,124,33877,5,0,0:0:0:0:
441,124,34115,2,0,L|438:95,3,20
438,104,34353,2,0,P|472:81|519:82,1,80
389,328,34829,6,0,L|398:231,1,89.999997253418
398,238,35543,1,0,0:0:0:0:
300,286,35781,5,0,0:0:0:0:
300,286,36019,2,0,L|298:309,3,14.9999995422363
298,300,36257,2,0,L|305:236,1,59.9999981689454
210,297,36733,6,0,L|219:200,1,89.999997253418
219,207,37447,1,0,0:0:0:0:
125,265,37686,5,0,0:0:0:0:
125,265,37924,2,0,L|128:238,3,20
129,227,38163,1,0,0:0:0:0:
41,22,38401,5,0,0:0:0:0:
20,67,38480,1,0,0:0:0:0:
22,117,38559,1,0,0:0:0:0:
32,126,38639,6,0,P|109:123|156:78,1,119.999996337891
281,7,38877,2,0,P|222:13|181:49,1,93.3333304850261
295,52,39115,2,0,P|238:32|186:47,1,93.3333304850261
290,95,39353,2,0,P|247:53|193:45,1,93.3333304850261
141,246,39591,6,0,P|197:278|272:271,1,119.999996337891
281,109,39829,2,0,P|290:167|319:195,1,93.3333304850261
412,199,40067,2,0,P|356:177|317:189,1,93.3333304850261
263,272,40305,2,0,P|309:234|318:195,1,93.3333304850261
290,95,40543,6,0,P|218:107|182:166,1,119.999996337891
177,269,40782,2,0,P|124:296|65:291,1,93.3333304850261
167,226,41020,2,0,P|130:272|74:293,1,93.3333304850261
78,206,41258,1,0,0:0:0:0:
74,380,41417,1,0,0:0:0:0:
58,376,41496,6,0,P|16:335|8:274,1,119.999996337891
63,209,41734,1,0,0:0:0:0:
202,319,41893,1,0,0:0:0:0:
189,324,41972,2,0,P|144:325|76:277,1,106.666666666667
231,187,42210,2,0,P|193:231|137:240,1,93.3333304850261
94,66,42448,6,0,P|166:62|222:130,1,126.666663284302
312,155,42686,2,0,P|365:146|404:112,1,93.3333304850261
295,113,42924,2,0,P|346:127|396:112,1,93.3333304850261
294,68,43163,2,0,P|334:102|386:110,1,93.3333304850261
500,5,43401,6,0,P|435:-5|344:71,1,133.333333333333
312,155,43639,2,0,P|241:144|199:95,1,100.000003814697
186,22,43877,2,0,P|211:88|190:149,1,100.000003814697
133,196,44115,2,0,P|178:140|241:128,1,100.000003814697
322,147,44353,5,0,0:0:0:0:
172,16,44512,1,0,0:0:0:0:
136,211,44670,1,0,0:0:0:0:
334,141,44829,5,0,0:0:0:0:
160,9,44988,1,0,0:0:0:0:
137,227,45147,1,0,0:0:0:0:
346,135,45305,5,0,0:0:0:0:
346,135,45782,2,0,L|348:168,10,19.9999993896485
347,154,46258,6,0,P|284:156|223:234,1,153.333336257935
355,347,46496,2,0,P|405:301|394:179,1,153.333336257935
317,285,46734,2,0,P|356:278|404:205,1,113.333335494995
403,74,46972,1,0,0:0:0:0:
277,202,47131,1,0,0:0:0:0:
287,215,47210,6,0,P|319:234|357:238,1,76.6666681289673
327,128,47369,2,0,B|249:114|249:114|179:168,1,153.333336257935
161,356,47607,2,0,B|184:203|184:203|147:143|61:166,1,250
19,140,47924,2,0,P|60:162|122:154,1,76.6666681289673
237,82,48083,1,0,0:0:0:0:
224,74,48163,5,0,0:0:0:0:
224,74,48401,2,0,P|288:23|389:57,1,153.333336257935
292,179,48639,2,0,P|293:140|316:100,1,76.6666681289673
432,69,48797,2,0,B|495:107|495:107|475:278,1,230.000004386902
419,336,49115,6,0,P|338:321|303:268,1,113.333335494995
212,175,49353,2,0,P|146:176|84:246,1,139.999995727539
241,269,49591,2,0,P|179:215|73:237,1,159.999995117188
213,364,49829,2,0,P|194:262|177:248,1,90.0000003433228
9,274,49988,1,0,0:0:0:0:
1,288,50067,6,0,P|46:328|153:315,1,153.333336257935
206,277,50305,2,0,P|268:242|381:284,1,153.333336257935
398,368,50543,2,0,P|357:322|363:242,1,113.333335494995
391,138,50782,1,0,0:0:0:0:
470,312,50940,1,0,0:0:0:0:
458,321,51020,6,0,P|388:313|348:262,1,113.333335494995
310,181,51258,2,0,P|248:143|142:162,1,153.333336257935
54,179,51496,2,0,P|113:182|160:153,1,113.333335494995
116,30,51734,2,0,P|96:63|95:119,1,76.6666681289673
169,262,51893,1,0,0:0:0:0:
182,254,51972,6,0,P|191:203|157:134,1,113.333335494995
3,166,52210,2,0,P|45:202|146:183,1,113.333335494995
185,141,52448,2,0,P|257:139|302:184,1,113.333335494995
326,241,52686,1,0,0:0:0:0:
84,117,52845,1,0,0:0:0:0:
91,102,52924,6,0,P|132:62|240:37,1,153.333336257935
338,90,53163,1,0,0:0:0:0:
391,81,53242,1,0,0:0:0:0:
431,45,53321,1,0,0:0:0:0:
420,33,53401,5,0,0:0:0:0:
407,80,53480,1,0,0:0:0:0:
425,126,53559,1,0,0:0:0:0:
451,169,53639,1,0,0:0:0:0:
451,218,53718,1,0,0:0:0:0:
429,262,53797,1,0,0:0:0:0:
414,269,53877,6,0,P|356:276|266:213,1,153.333336257935
128,178,54115,2,0,P|203:174|265:217,1,153.333336257935
156,254,54353,2,0,P|200:214|256:210,1,113.333335494995
360,191,54591,1,0,0:0:0:0:
184,340,54750,1,0,0:0:0:0:
181,326,54829,6,0,P|187:273|227:235,1,76.6666681289673
403,342,54988,2,0,B|325:354|325:354|235:292,1,153.333336257935
19,206,55226,2,0,B|76:241|147:197|130:183|184:132|303:203,1,250
344,176,55543,2,0,P|306:186|269:183,1,76.6666681289673
117,82,55702,1,0,0:0:0:0:
111,66,55782,5,0,0:0:0:0:
111,66,56020,2,0,P|169:76|255:10,1,153.333336257935
363,68,56258,2,0,P|293:108|279:132,1,76.6666681289673
254,321,56417,2,0,B|304:282|304:282|290:108,1,230.000004386902
221,166,56734,6,0,P|249:188|349:178,1,113.333335494995
485,25,56972,2,0,P|393:36|352:91,1,139.999995727539
512,112,57210,2,0,P|439:65|365:85,1,159.999995117188
494,207,57448,2,0,P|451:112|409:96,1,96.6666696166993
270,148,57607,1,0,0:0:0:0:
256,158,57686,6,0,P|181:170|93:93,1,153.333336257935
137,14,57924,2,0,P|211:1|276:38,1,153.333336257935
162,236,58163,2,0,P|126:209|110:125,1,113.333335494995
195,87,58401,1,0,0:0:0:0:
215,301,58559,1,0,0:0:0:0:
204,310,58639,6,0,P|116:309|72:260,1,113.333335494995
172,228,58877,2,0,P|259:227|309:297,1,153.333336257935
88,285,59115,2,0,P|68:220|89:159,1,113.333335494995
279,191,59353,2,0,P|301:221|308:259,1,76.6666681289673
277,381,59512,1,0,0:0:0:0:
263,373,59591,6,0,P|349:345|401:365,1,113.333335494995
488,331,59829,2,0,P|402:359|349:338,1,113.333335494995
471,214,60067,2,0,P|500:303|483:352,1,113.333335494995
407,274,60305,1,0,0:0:0:0:
484,130,60463,1,0,0:0:0:0:
500,126,60543,5,0,0:0:0:0:
328,345,60702,1,0,0:0:0:0:
312,342,60782,1,0,0:0:0:0:
371,25,60940,1,0,0:0:0:0:
388,23,61020,5,0,0:0:0:0:
406,70,61099,1,0,0:0:0:0:
400,120,61178,1,0,0:0:0:0:
364,161,61258,1,0,0:0:0:0:
349,212,61337,1,0,0:0:0:0:
360,264,61417,1,0,0:0:0:0:
373,271,61496,6,0,L|271:256,1,89.9999972534181
283,257,62210,1,0,0:0:0:0:
431,193,62448,6,0,L|341:181,1,89.9999972534181
266,171,62924,2,0,L|326:179,1,59.9999981689454
399,105,63401,6,0,L|297:90,1,89.9999972534181
309,91,64115,1,0,0:0:0:0:
409,20,64353,5,0,0:0:0:0:
328,7,64591,1,0,0:0:0:0:
420,22,64829,1,0,0:0:0:0:
313,5,65067,1,0,0:0:0:0:
470,99,65305,5,0,0:0:0:0:
233,62,65543,1,0,0:0:0:0:
191,72,65623,1,0,0:0:0:0:
156,95,65702,1,0,0:0:0:0:
141,90,65782,5,0,0:0:0:0:
194,87,65861,1,0,0:0:0:0:
241,110,65940,1,0,0:0:0:0:
275,151,66020,1,0,0:0:0:0:
287,202,66099,1,0,0:0:0:0:
284,255,66178,1,0,0:0:0:0:
269,250,66258,5,0,0:0:0:0:
230,348,67210,6,0,L|240:228,1,119.999996337891
191,163,67448,2,0,P|168:190|157:234,1,59.9999981689454
323,241,67607,2,0,P|289:161|204:153,1,179.999994506836
158,229,67924,1,0,0:0:0:0:
306,322,68083,1,0,0:0:0:0:
322,326,68163,6,0,P|390:294|406:237,1,119.999996337891
419,121,68401,2,0,L|404:280,1,119.999996337891
323,241,68639,2,0,L|330:155,1,59.9999981689454
334,85,68797,1,0,0:0:0:0:
336,70,68877,1,0,0:0:0:0:
107,167,69036,1,0,0:0:0:0:
112,180,69115,6,0,P|171:223|238:210,1,119.999996337891
330,169,69353,2,0,P|271:171|226:209,1,119.999996337891
312,312,69591,2,0,L|304:226,1,59.9999981689454
253,132,69750,1,0,0:0:0:0:
242,123,69829,1,0,0:0:0:0:
394,270,69988,1,0,0:0:0:0:
407,262,70067,6,0,L|420:123,1,119.999996337891
438,252,70305,2,0,L|426:112,1,119.999996337891
463,235,70543,2,0,L|427:99,1,119.999996337891
484,214,70782,2,0,L|425:87,1,119.999996337891
224,96,71020,6,0,P|304:133|367:114,1,119.999996337891
231,50,71258,2,0,P|293:112|359:115,1,119.999996337891,0|0,2:0|2:0,2:0:0:0:
256,13,71496,2,0,P|293:92|353:118,1,119.999996337891,0|0,2:0|2:0,2:0:0:0:
347,26,71734,1,0,0:0:0:0:
260,224,71893,1,0,0:0:0:0:
275,229,71972,5,0,0:0:0:0:
141,47,72131,1,0,0:0:0:0:
127,53,72210,2,0,P|90:139|110:186,1,119.999996337891
177,192,72448,2,0,P|214:278|194:325,1,119.999996337891
145,340,72686,2,0,P|212:308|238:317,1,59.9999981689454
281,338,72845,1,0,0:0:0:0:
295,343,72924,6,0,P|379:327|411:276,1,119.999996337891
412,142,73163,1,0,0:0:0:0:
410,158,73242,2,0,L|403:253,1,59.9999981689454
486,103,73401,2,0,P|406:58|351:81,1,119.999996337891
307,107,73639,1,0,0:0:0:0:
479,266,73797,1,0,0:0:0:0:
488,254,73877,6,0,L|494:202,4,29.9999990844727
494,209,74115,2,0,P|465:186|423:181,1,59.9999981689454
265,168,74274,1,0,0:0:0:0:
279,174,74353,5,0,0:0:0:0:
276,137,74432,1,0,0:0:0:0:
248,115,74511,1,0,0:0:0:0:
213,119,74591,1,0,0:0:0:0:
191,146,74670,1,0,0:0:0:0:
193,181,74749,1,0,0:0:0:0:
184,196,74829,6,0,P|181:131|285:198,1,264.000008056641
302,202,75782,6,0,P|231:85|177:210,1,336.000004101563
163,219,76734,6,0,P|229:66|315:208,1,401.999980984498
328,215,77686,6,0,P|340:153|336:135,1,64.9999970245363
311,76,77924,2,0,P|282:61|244:57,1,64.9999970245363
171,73,78163,2,0,P|140:104|131:138,1,64.9999970245363
135,204,78401,2,0,P|160:246|185:266,1,64.9999970245363
171,256,78639,6,0,P|222:227|280:235,1,119.999996337891
459,310,78877,2,0,P|400:318|343:282,1,119.999996337891
450,259,79115,2,0,P|408:283|360:284,1,93.3333304850261
443,213,79353,2,0,P|416:253|374:276,1,93.3333304850261
204,169,79591,6,0,P|203:119|253:45,1,119.999996337891
254,163,79829,2,0,P|233:109|240:69,1,93.3333304850261
314,21,80067,1,0,0:0:0:0:
443,124,80226,1,0,0:0:0:0:
431,135,80305,2,0,P|377:140|305:89,1,119.999996337891
235,58,80543,6,0,P|181:52|109:103,1,119.999996337891
224,105,80782,2,0,P|181:84|131:89,1,93.3333304850261
215,151,81020,2,0,P|184:113|137:97,1,93.3333304850261
190,190,81258,2,0,P|178:143|142:108,1,93.3333304850261
120,239,81496,6,0,P|176:274|242:260,1,119.999996337891
285,205,81734,1,0,0:0:0:0:
40,268,81893,1,0,0:0:0:0:
45,284,81972,5,0,0:0:0:0:
82,324,82051,1,0,0:0:0:0:
128,351,82130,1,0,0:0:0:0:
181,362,82210,1,0,0:0:0:0:
234,358,82289,1,0,0:0:0:0:
284,337,82368,1,0,0:0:0:0:
292,322,82448,6,0,L|387:311,1,89.999997253418
484,299,82924,2,0,L|394:309,1,89.999997253418
306,175,83401,6,0,L|312:250,1,59.9999981689454
432,219,83639,2,0,L|427:159,1,59.9999981689454
297,229,83877,6,0,L|303:304,1,59.9999981689454
439,168,84115,2,0,L|434:108,1,59.9999981689454
168,141,84353,6,0,P|189:152|234:153,1,53.3333333333333
278,92,84512,2,0,P|277:68|255:28,1,53.3333333333333
184,19,84670,2,0,P|163:31|140:70,1,53.3333333333333
159,155,84829,6,0,P|184:168|213:173,1,53.3333333333333
290,95,84988,2,0,P|288:66|278:38,1,53.3333333333333
177,7,85146,2,0,P|152:22|134:44,1,53.3333333333333
175,303,85305,5,0,0:0:0:0:
235,247,85424,1,0,0:0:0:0:
309,285,85543,1,0,0:0:0:0:
376,233,85663,1,0,0:0:0:0:
446,279,85782,5,0,0:0:0:0:
461,234,85861,1,0,0:0:0:0:
450,186,85940,1,0,0:0:0:0:
411,157,86020,1,0,0:0:0:0:
403,109,86099,1,0,0:0:0:0:
421,65,86178,1,0,0:0:0:0:
436,72,86258,6,0,P|359:107|307:92,1,119.999996337891
133,100,86496,2,0,P|210:65|262:80,1,119.999996337891
163,133,86734,2,0,P|198:88|240:79,1,93.3333304850261
189,169,86972,2,0,P|201:113|235:87,1,93.3333304850261
366,200,87210,6,0,P|304:241|234:230,1,119.999996337891
336,168,87448,2,0,P|309:212|268:234,1,93.3333304850261
197,186,87686,1,0,0:0:0:0:
281,320,87845,1,0,0:0:0:0:
266,327,87924,2,0,P|210:312|163:249,1,119.999996337891
189,169,88163,6,0,P|177:94|128:52,1,119.999996337891
143,167,88401,2,0,P|160:124|153:73,1,93.3333304850261
102,166,88639,2,0,P|135:134|150:85,1,93.3333304850261
65,148,88877,2,0,P|108:133|143:95,1,93.3333304850261
214,13,89115,6,0,P|272:17|322:64,1,119.999996337891
345,138,89353,1,0,0:0:0:0:
220,218,89512,1,0,0:0:0:0:
205,213,89591,1,0,0:0:0:0:
402,73,89750,1,0,0:0:0:0:
415,81,89829,5,0,0:0:0:0:
435,126,89909,1,0,0:0:0:0:
427,176,89988,1,0,0:0:0:0:
410,183,90067,6,0,L|506:194,1,89.999997253418,0|0,2:0|2:0,2:0:0:0:
499,192,90781,1,0,2:0:0:0:
349,259,91019,5,0,2:0:0:0:
349,259,91257,2,0,L|334:258,3,14.9999995422363,0|0|0|0,2:0|2:0|2:0|2:0,2:0:0:0:
334,258,91495,2,0,L|397:263,1,59.9999981689454,0|0,2:0|2:0,2:0:0:0:
184,176,91971,6,0,L|280:187,1,89.999997253418,0|0,2:0|2:0,2:0:0:0:
273,185,92685,1,0,2:0:0:0:
85,224,92924,5,0,2:0:0:0:
85,224,93163,2,0,L|113:227,3,20,0|0|0|0,2:0|2:0|2:0|2:0,2:0:0:0:
105,225,93400,2,0,P|85:268|88:306,1,80,0|0,2:0|2:0,2:0:0:0:
95,130,93876,6,0,L|-1:144,1,89.999997253418,0|0,2:0|2:0,2:0:0:0:
6,143,94590,1,0,2:0:0:0:
178,40,94828,5,0,2:0:0:0:
178,40,95067,2,0,L|200:36,3,14.9999995422363,0|0|0|0,2:0|2:0|2:0|2:0,2:0:0:0:
192,38,95304,2,0,L|128:46,1,59.9999981689454,0|0,2:0|2:0,2:0:0:0:
254,111,95782,6,0,L|308:104,2,44.999998626709
315,102,96258,2,0,L|359:95,2,44.999998626709
418,34,96733,5,0,2:0:0:0:
418,34,96972,2,0,L|444:30,3,20,0|0|0|0,2:0|2:0|2:0|2:0,2:0:0:0:
455,28,97210,1,0,2:0:0:0:
423,250,97448,5,0,0:0:0:0:
379,271,97528,1,0,0:0:0:0:
331,270,97607,1,0,0:0:0:0:
321,256,97686,6,0,P|272:226|166:253,1,119.999996337891
43,230,97924,2,0,P|87:264|137:270,1,93.3333304850261
42,282,98163,2,0,P|97:294|144:278,1,93.3333304850261
55,332,98401,2,0,P|110:320|146:285,1,93.3333304850261
134,59,98639,6,0,P|94:59|24:130,1,119.999996337891
210,226,98877,2,0,P|230:159|222:126,1,93.3333304850261
146,70,99115,2,0,P|194:120|226:130,1,93.3333304850261
318,94,99353,2,0,P|249:110|225:133,1,93.3333304850261
143,284,99591,6,0,P|196:308|255:301,1,119.999996337891
328,236,99829,2,0,P|364:233|420:265,1,93.3333304850261
358,196,100067,2,0,P|391:208|429:261,1,93.3333304850261
442,338,100305,1,0,0:0:0:0:
210,226,100464,1,0,0:0:0:0:
201,213,100543,6,0,P|205:141|278:88,1,119.999996337891
311,69,100782,1,0,0:0:0:0:
130,16,100940,1,0,0:0:0:0:
141,5,101020,2,0,P|210:0|251:29,1,106.666666666667
412,83,101258,2,0,P|345:87|302:59,1,93.3333304850261
455,11,101496,6,0,P|490:52|477:139,1,119.999996337891
421,164,101734,1,0,0:0:0:0:
482,326,101893,1,0,0:0:0:0:
496,317,101972,2,0,P|444:282|387:289,1,93.3333304850261
318,246,102210,2,0,P|370:281|427:274,1,93.3333304850261
331,162,102448,6,0,P|251:192|235:233,1,126.666663284302
94,356,102686,2,0,P|99:294|131:255,1,100.000003814697
231,238,102924,2,0,P|174:264|125:255,1,100.000003814697
57,179,103163,2,0,P|107:214|125:261,1,100.000003814697
189,355,103401,5,0,0:0:0:0:
404,313,103559,1,0,0:0:0:0:
174,358,103718,1,0,0:0:0:0:
426,230,103877,5,0,0:0:0:0:
222,187,104035,1,0,0:0:0:0:
441,233,104194,1,0,0:0:0:0:
257,33,104353,5,0,0:0:0:0:
257,33,104591,2,0,L|306:29,2,36.6666677856446
176,45,104829,6,0,B|298:24|243:98|383:71,1,192.500005874634
376,73,105305,5,0,0:0:0:0:
376,73,105543,2,0,P|373:122|366:145,1,64.9999970245363
455,245,105782,1,0,0:0:0:0:
455,245,105901,2,0,P|443:202|443:171,1,64.9999970245363
289,333,106139,6,0,P|330:279|340:196,1,129.999994049073
169,203,106496,1,0,0:0:0:0:
207,284,106615,2,0,P|249:244|263:210,1,64.9999970245363
38,176,106853,2,0,B|87:213|87:213|168:203,1,129.999994049073
244,152,107210,5,0,0:0:0:0:
244,152,107329,1,0,0:0:0:0:
244,152,107448,2,0,P|289:160|313:176,1,64.9999970245363
508,132,107686,1,0,0:0:0:0:
434,91,107805,2,0,P|389:99|365:115,1,64.9999970245363
512,227,108043,6,0,P|450:200|374:198,1,129.999994049073
286,295,108401,2,0,P|235:303|203:298,1,64.9999970245363
212,123,108639,1,0,0:0:0:0:
242,210,108758,2,0,B|176:204|176:204|119:150,1,129.999994049073
81,49,109115,5,0,0:0:0:0:
81,49,109234,2,0,P|24:87|-2:160,1,129.999994049073
143,242,109591,1,0,0:0:0:0:
129,160,109710,2,0,P|82:180|60:210,1,64.9999970245363
208,351,109948,6,0,P|225:299|222:203,1,129.999994049073
295,91,110305,2,0,P|280:159|284:182,1,64.9999970245363
474,204,110543,2,0,B|434:154|434:154|352:143,1,129.999994049073
316,276,110901,1,0,0:0:0:0:
400,293,111020,6,0,P|397:254|381:216,1,64.9999970245363
279,153,111258,1,0,0:0:0:0:
279,153,111377,1,0,0:0:0:0:
279,153,111496,2,0,P|226:144|200:128,1,64.9999970245363
163,72,111734,2,0,L|160:28,2,43.3333313496908
109,134,111972,5,0,0:0:0:0:
60,195,112091,1,0,0:0:0:0:
48,272,112210,1,0,0:0:0:0:
65,347,112329,1,0,0:0:0:0:
144,364,112448,5,0,0:0:0:0:
193,303,112567,1,0,0:0:0:0:
205,226,112686,1,0,0:0:0:0:
188,151,112805,1,0,0:0:0:0:
219,232,112924,6,0,P|277:224|317:201,1,69.9999978637696
237,79,113163,2,0,P|203:68|168:66,1,69.9999978637696
40,149,113401,1,0,0:0:0:0:
40,149,113520,2,0,P|83:136|117:116,1,69.9999978637696
3,230,113758,6,0,P|78:246|148:295,1,139.999995727539
294,224,114115,1,0,0:0:0:0:
226,275,114234,2,0,P|212:317|213:383,1,69.9999978637696
377,189,114472,2,0,B|328:139|328:139|232:146,1,139.999995727539
186,194,114829,6,0,P|123:167|100:145,1,69.9999978637696
0,127,115067,2,0,P|63:100|86:78,1,69.9999978637696
146,12,115305,1,0,0:0:0:0:
146,12,115424,2,0,P|195:17|284:66,1,139.999995727539
335,148,115782,5,0,0:0:0:0:
417,172,115901,1,0,0:0:0:0:
470,101,116020,2,0,P|387:86|365:91,1,69.9999978637696
379,268,116258,5,0,0:0:0:0:
426,185,116377,2,0,P|356:188|292:215,1,139.999995727539
229,275,116734,5,0,0:0:0:0:
229,275,116853,1,0,0:0:0:0:
229,275,116972,2,0,P|148:257|134:247,1,69.9999978637696
57,70,117210,2,0,P|94:152|97:234,1,139.999995727539
222,4,117567,6,0,P|185:86|182:168,1,139.999995727539
325,26,117924,2,0,P|273:88|263:117,1,69.9999978637696
397,229,118163,2,0,B|410:161|410:161|362:102,1,139.999995727539
274,94,118520,1,0,0:0:0:0:
310,269,118639,5,0,0:0:0:0:
310,269,118877,2,0,L|245:258,1,50
409,183,119115,2,0,L|345:193,1,55.0000016784668
501,81,119353,2,0,L|435:108,1,59.9999981689454
200,118,119591,5,0,0:0:0:0:
273,72,119710,1,0,0:0:0:0:
278,157,119829,1,0,0:0:0:0:
186,119,119948,1,0,0:0:0:0:
276,58,120067,6,0,P|358:63|386:83,1,89.9999972534181
204,219,120305,2,0,P|122:214|94:194,1,89.9999972534181
62,33,120543,5,0,0:0:0:0:
62,33,120663,1,0,0:0:0:0:
62,33,120782,2,0,P|74:85|73:167,1,100
136,332,121020,1,0,0:0:0:0:
136,332,121139,2,0,P|140:238|173:124,1,200
336,78,121496,5,0,0:0:0:0:
295,165,121615,2,0,P|263:125|239:36,1,100
412,2,121853,2,0,P|416:101|395:200,1,200
321,329,122210,1,0,0:0:0:0:
318,245,122329,1,0,0:0:0:0:
395,285,122448,6,0,P|445:295|501:295,1,100
231,222,122686,2,0,P|197:259|172:302,1,100
377,115,122924,1,0,0:0:0:0:
377,115,123043,1,0,0:0:0:0:
377,115,123163,2,0,P|361:67|336:24,1,100
181,146,123401,5,0,0:0:0:0:
245,212,123520,2,0,P|265:136|264:87,1,100
5,0,123758,2,0,P|120:53|222:60,1,200
418,42,124115,1,0,0:0:0:0:
336,24,124234,1,0,0:0:0:0:
427,130,124353,6,0,P|481:104|525:60,1,100
354,218,124591,2,0,P|349:277|365:337,1,100
311,112,124829,2,0,P|261:78|201:62,1,100
81,177,125067,1,0,0:0:0:0:
139,240,125186,1,0,0:0:0:0:
208,192,125305,6,0,P|196:95|149:-15,1,200
0,62,125663,1,0,0:0:0:0:
0,62,125782,2,0,P|77:83|127:83,1,100
389,105,126020,2,0,P|339:111|292:127,1,100
157,284,126258,6,0,P|141:323|142:383,2,66.6666666666667
208,192,126496,2,0,P|202:124|185:64,1,100
225,342,126734,2,0,P|293:336|353:319,1,100
123,155,126972,2,0,P|55:161|-5:178,1,100
406,301,127210,5,0,0:0:0:0:
318,242,127329,1,0,0:0:0:0:
311,228,127389,1,0,0:0:0:0:
304,214,127448,2,0,P|303:164|348:110,1,100
480,166,127686,2,0,P|437:191|367:179,1,100
349,40,127924,2,0,P|392:64|417:130,1,100
319,335,128163,5,0,0:0:0:0:
319,335,128282,1,0,0:0:0:0:
319,335,128401,2,0,B|369:367|369:367|463:353,1,119.999996337891
218,238,128639,5,0,0:0:0:0:
218,238,128758,1,0,0:0:0:0:
218,238,128877,2,0,B|204:295|204:295|247:380,1,119.999996337891
255,121,129115,5,0,0:0:0:0:
255,121,129234,1,0,0:0:0:0:
255,121,129353,2,0,B|196:127|196:127|131:197,1,119.999996337891
384,124,129591,5,0,0:0:0:0:
384,124,129710,1,0,0:0:0:0:
384,124,129829,2,0,B|357:70|357:70|301:47,1,119.999996337891
193,335,130067,5,0,0:0:0:0:
193,335,130186,1,0,0:0:0:0:
193,335,130305,2,0,B|143:367|143:367|49:353,1,119.999996337891
294,238,130543,5,0,0:0:0:0:
294,238,130662,1,0,0:0:0:0:
294,238,130781,2,0,B|308:295|308:295|265:380,1,119.999996337891
257,121,131019,5,0,0:0:0:0:
257,121,131138,1,0,0:0:0:0:
257,121,131257,2,0,B|316:127|316:127|381:197,1,119.999996337891
128,124,131495,5,0,0:0:0:0:
128,124,131614,1,0,0:0:0:0:
128,124,131733,2,0,B|155:70|155:70|211:47,1,119.999996337891
434,254,131972,5,0,0:0:0:0:
494,192,132091,1,0,0:0:0:0:
411,170,132210,2,0,B|351:163|351:163|278:210,1,119.999996337891
231,382,132448,5,0,0:0:0:0:
231,382,132567,1,0,0:0:0:0:
231,382,132686,2,0,L|244:251,1,119.999996337891
63,131,132924,5,0,0:0:0:0:
3,193,133043,1,0,0:0:0:0:
86,215,133162,2,0,B|146:222|146:222|219:175,1,119.999996337891
268,1,133401,5,0,0:0:0:0:
268,1,133520,1,0,0:0:0:0:
268,1,133639,2,0,L|255:132,1,119.999996337891
311,344,133877,6,0,B|369:352|369:352|450:306,1,119.999996337891
367,98,134115,2,0,B|309:90|309:90|228:136,1,119.999996337891
460,245,134353,6,0,B|478:187|478:187|416:110,1,119.999996337891
213,192,134591,2,0,B|197:251|197:251|259:327,1,119.999996337891
398,6,134829,5,0,0:0:0:0:
342,0,134908,1,0,0:0:0:0:
289,16,134987,1,0,0:0:0:0:
244,50,135067,1,0,0:0:0:0:
192,67,135146,1,0,0:0:0:0:
136,64,135225,1,0,0:0:0:0:
125,53,135305,5,0,0:0:0:0:
127,108,135384,1,0,0:0:0:0:
110,161,135463,1,0,0:0:0:0:
76,206,135543,1,0,0:0:0:0:
60,259,135622,1,0,0:0:0:0:
66,314,135701,1,0,0:0:0:0:
77,322,135782,6,0,P|124:228|168:350,1,300
179,358,136734,6,0,P|206:258|131:217,1,200
135,216,137686,6,0,L|239:204,1,75.0000028610231
400,175,137924,2,0,L|296:187,1,75.0000028610231
215,291,138163,6,0,P|260:278|299:232,1,75.0000028610231
324,96,138401,2,0,P|279:109|240:155,1,75.0000028610231
344,342,138639,6,0,P|363:311|369:246,1,85.0000016212464
196,47,138877,2,0,P|177:78|171:143,1,85.0000016212464
457,190,139115,5,0,0:0:0:0:
408,173,139194,1,0,0:0:0:0:
358,168,139273,1,0,0:0:0:0:
310,184,139353,1,0,0:0:0:0:
265,209,139432,1,0,0:0:0:0:
212,212,139511,1,0,0:0:0:0:
197,202,139591,6,0,P|159:145|179:54,1,139.999995727539
307,28,139829,2,0,P|232:19|171:62,1,153.333336257935
125,155,140067,2,0,P|57:180|3:170,1,113.333335494995
52,30,140305,1,0,0:0:0:0:
131,280,140464,1,0,0:0:0:0:
116,272,140543,6,0,P|115:193|158:147,1,113.333335494995
287,193,140782,2,0,P|190:199|124:124,1,153.333336257935
272,144,141020,2,0,P|214:173|158:164,1,113.333335494995
138,47,141258,2,0,P|205:95|212:119,1,76.6666681289673
236,252,141417,1,0,0:0:0:0:
245,263,141496,6,0,P|291:293|387:271,1,113.333335494995
287,193,141734,2,0,P|298:246|381:299,1,113.333335494995
366,182,141972,2,0,P|332:225|345:322,1,113.333335494995
355,380,142210,1,0,0:0:0:0:
460,161,142369,1,0,0:0:0:0:
455,146,142448,6,0,P|392:102|282:110,1,153.333336257935
129,150,142686,2,0,P|64:119|37:71,1,76.6666681289673
199,9,142845,1,0,0:0:0:0:
213,15,142924,5,0,0:0:0:0:
227,62,143003,1,0,0:0:0:0:
228,112,143082,1,0,0:0:0:0:
210,158,143162,1,0,0:0:0:0:
206,208,143241,1,0,0:0:0:0:
213,257,143320,1,0,0:0:0:0:
226,266,143401,6,0,P|297:276|369:222,1,153.333336257935
395,83,143639,2,0,P|350:139|361:228,1,153.333336257935
445,142,143877,2,0,P|368:186|356:237,1,113.333335494995
343,345,144115,1,0,0:0:0:0:
487,227,144274,1,0,0:0:0:0:
480,211,144353,6,0,P|411:199|367:218,1,76.6666681289673
253,262,144512,2,0,B|175:273|175:273|104:215,1,153.333336257935
342,38,144750,2,0,B|319:203|319:203|271:154|174:191,1,250
100,224,145067,2,0,P|74:317|85:341,1,76.6666681289673
283,358,145226,1,0,0:0:0:0:
285,344,145305,5,0,0:0:0:0:
285,344,145543,2,0,P|234:293|139:296,1,153.333336257935
38,375,145782,2,0,P|125:360|151:332,1,76.6666681289673
152,108,145940,2,0,B|87:132|87:132|69:295,1,230.000004386902
112,367,146258,6,0,P|159:338|181:275,1,113.333335494995
235,131,146496,2,0,P|233:194|289:264,1,139.999995727539
327,102,146734,2,0,P|276:183|292:261,1,159.999995117188
404,141,146972,2,0,P|315:174|304:201,1,90.0000003433228
298,343,147131,1,0,0:0:0:0:
313,341,147210,6,0,P|370:299|385:222,1,153.333336257935
312,56,147448,2,0,P|207:30|129:102,1,153.333336257935
283,93,147686,2,0,P|197:55|147:75,1,113.333335494995
35,124,147924,1,0,0:0:0:0:
216,262,148083,1,0,0:0:0:0:
226,250,148163,6,0,P|228:177|195:127,1,113.333335494995
8,271,148401,2,0,P|76:316|175:283,1,153.333336257935
43,239,148639,2,0,P|98:294|183:291,1,113.333335494995
276,187,148877,2,0,P|323:194|363:221,1,76.6666681289673
413,330,149036,1,0,0:0:0:0:
395,324,149115,6,0,P|355:244|369:181,1,113.333335494995
508,104,149353,2,0,P|459:147|388:150,1,113.333335494995
288,103,149591,2,0,P|233:114|193:153,1,113.333335494995
169,237,149829,1,0,0:0:0:0:
371,85,149988,1,0,0:0:0:0:
375,70,150067,6,0,P|315:22|209:37,1,153.333336257935
145,75,150305,1,0,0:0:0:0:
101,91,150385,1,0,0:0:0:0:
55,94,150464,1,0,0:0:0:0:
46,80,150543,5,0,0:0:0:0:
89,98,150623,1,0,0:0:0:0:
112,137,150702,1,0,0:0:0:0:
129,180,150782,1,0,0:0:0:0:
168,204,150861,1,0,0:0:0:0:
214,209,150940,1,0,0:0:0:0:
223,198,151020,5,0,0:0:0:0:
223,198,151258,2,0,P|172:269|208:369,1,153.333336257935
290,291,151496,2,0,P|200:305|172:349,1,113.333335494995
259,369,151734,1,0,0:0:0:0:
453,148,151893,1,0,0:0:0:0:
438,140,151972,6,0,P|343:175|327:205,1,76.6666681289673
395,364,152131,2,0,B|434:298|434:298|413:198,1,153.333336257935
303,87,152369,2,0,B|231:154|251:280|251:280|304:245|331:166,1,290.000008850098
362,24,152686,2,0,P|269:4|242:12,1,76.6666681289673
95,93,152845,1,0,0:0:0:0:
81,97,152924,5,0,0:0:0:0:
81,97,153163,2,0,P|145:48|232:64,1,153.333336257935
95,181,153401,2,0,P|15:157|-14:118,1,76.6666681289673
226,63,153559,2,0,B|276:113|276:113|249:317,1,230.000004386902
287,352,153877,6,0,P|350:385|431:357,1,113.333335494995
430,148,154115,2,0,P|356:205|356:291,1,139.999995727539
497,213,154353,2,0,P|398:203|354:293,1,159.999995117188
499,304,154591,2,0,P|434:236|374:242,1,90.0000003433228
216,284,154750,1,0,0:0:0:0:
219,296,154829,6,0,P|286:301|351:197,1,153.333336257935
303,139,155067,2,0,P|235:133|170:237,1,153.333336257935
132,269,155305,2,0,P|99:233|91:149,1,113.333335494995
188,59,155543,1,0,0:0:0:0:
4,145,155702,1,0,0:0:0:0:
8,131,155782,6,0,P|67:86|139:100,1,113.333335494995
175,188,156020,2,0,P|269:182|308:106,1,153.333336257935
324,21,156258,2,0,P|291:91|308:146,1,113.333335494995
450,72,156496,2,0,P|376:88|347:118,1,76.6666681289673
342,272,156655,1,0,0:0:0:0:
354,278,156734,6,0,P|424:268|473:210,1,113.333335494995
290,213,156972,2,0,P|263:278|289:350,1,113.333335494995
378,193,157210,2,0,P|334:137|259:123,1,113.333335494995
216,162,157448,1,0,0:0:0:0:
455,153,157607,1,0,0:0:0:0:
461,141,157686,6,0,P|420:60|347:21,1,153.333336257935
221,75,157924,2,0,P|210:156|227:188,1,76.6666681289673
361,318,158083,1,0,0:0:0:0:
368,304,158163,5,0,0:0:0:0:
314,297,158242,1,0,0:0:0:0:
262,305,158321,1,0,0:0:0:0:
215,331,158401,1,0,0:0:0:0:
166,353,158480,1,0,0:0:0:0:
113,354,158559,1,0,0:0:0:0:
107,341,158639,6,0,L|101:241,1,89.9999972534181
96,146,159115,2,0,L|101:235,1,89.9999972534181
226,69,159591,6,0,P|160:43|146:43,1,59.9999981689454
310,75,159829,2,0,P|287:7|278:-2,1,59.9999981689454
357,144,160067,2,0,P|394:83|396:69,1,59.9999981689454
336,225,160305,2,0,P|406:214|418:207,1,59.9999981689454
272,279,160543,6,0,P|321:307|350:309,1,53.3333333333333
357,144,160702,2,0,P|394:83|396:69,1,53.3333333333333
226,69,160861,2,0,P|160:43|146:43,1,53.3333333333333
267,289,161020,6,0,P|316:317|345:319,1,53.3333333333333
368,154,161179,2,0,P|405:93|407:79,1,53.3333333333333
232,58,161338,2,0,P|166:32|152:32,1,53.3333333333333
212,222,161496,5,0,0:0:0:0:
287,133,161615,1,0,0:0:0:0:
203,141,161734,1,0,0:0:0:0:
295,212,161853,1,0,0:0:0:0:
232,58,161972,5,0,0:0:0:0:
189,28,162051,1,0,0:0:0:0:
136,29,162130,1,0,0:0:0:0:
94,61,162210,1,0,0:0:0:0:
79,111,162289,1,0,0:0:0:0:
95,161,162368,1,0,0:0:0:0:
108,173,162448,6,0,P|186:202|224:268,1,153.333336257935
339,361,162686,2,0,P|261:332|223:266,1,153.333336257935
338,307,162924,2,0,P|241:297|208:266,1,113.333335494995
190,183,163163,1,0,0:0:0:0:
386,152,163321,1,0,0:0:0:0:
385,168,163401,6,0,P|334:219|253:217,1,113.333335494995
132,118,163639,2,0,P|209:103|277:170,1,153.333336257935
189,267,163877,2,0,P|136:247|107:200,1,113.333335494995
281,153,164115,2,0,P|294:187|293:241,1,76.6666681289673
248,360,164274,1,0,0:0:0:0:
234,353,164353,6,0,P|296:316|372:340,1,113.333335494995
418,346,164591,2,0,P|473:344|518:311,1,113.333335494995
405,270,164829,2,0,P|465:309|526:306,1,113.333335494995
473,177,165067,2,0,P|407:194|393:209,1,56.6666677474976
334,318,165226,1,0,0:0:0:0:
324,332,165305,6,0,P|241:322|199:263,1,113.333335494995
199,220,165543,1,0,0:0:0:0:
203,168,165623,1,0,0:0:0:0:
232,126,165702,1,0,0:0:0:0:
244,137,165782,5,0,0:0:0:0:
198,158,165861,1,0,0:0:0:0:
147,152,165940,1,0,0:0:0:0:
108,120,166020,1,0,0:0:0:0:
94,73,166099,1,0,0:0:0:0:
107,24,166178,1,0,0:0:0:0:
120,17,166258,6,0,L|216:7,1,89.9999972534181
209,7,166972,1,0,0:0:0:0:
394,72,167210,5,0,0:0:0:0:
394,72,167448,2,0,L|361:69,3,20
374,70,167686,2,0,P|347:116|348:147,1,80
457,309,168163,6,0,L|366:298,1,80
297,335,168520,2,0,L|217:325,1,80
137,354,168877,1,0,0:0:0:0:
119,104,169115,5,0,0:0:0:0:
119,104,169353,2,0,L|125:135,3,20
122,123,169591,2,0,P|179:108|208:86,1,80
11,230,170067,6,0,L|112:243,1,89.9999972534181
100,242,170782,1,0,0:0:0:0:
316,122,171020,5,0,0:0:0:0:
316,122,171258,2,0,L|346:117,3,20
335,118,171496,2,0,P|362:177|355:207,1,80
219,294,171972,5,0,0:0:0:0:
219,294,172210,2,0,L|305:284,1,80
380,309,172567,1,0,0:0:0:0:
380,309,172686,2,0,L|427:304,1,40
492,262,172924,5,0,0:0:0:0:
235,204,173163,2,0,L|271:200,3,20
254,201,173401,2,0,P|275:148|267:111,1,80
66,35,173877,5,0,0:0:0:0:
66,35,174115,1,0,0:0:0:0:
90,48,174194,1,0,0:0:0:0:
117,55,174273,1,0,0:0:0:0:
144,55,174352,1,0,0:0:0:0:
171,50,174432,1,0,0:0:0:0:
197,39,174511,1,0,0:0:0:0:
224,33,174590,1,0,0:0:0:0:
252,32,174670,1,0,0:0:0:0:
277,39,174750,1,0,0:0:0:0:
299,52,174829,1,0,0:0:0:0:
46,64,183401,5,0,0:0:0:0:
46,64,183639,2,0,L|128:52,1,80
141,50,183877,1,0,0:0:0:0:
63,153,184115,2,0,L|145:141,1,80
158,139,184353,6,0,P|214:158|235:184,1,79.9999975585938
227,172,184710,2,0,P|160:177|141:294,1,179.999994506836
466,64,185305,5,0,0:0:0:0:
466,64,185543,2,0,L|384:52,1,80
371,50,185781,1,0,0:0:0:0:
449,153,186019,2,0,L|367:141,1,80
352,139,186258,6,0,L|306:134,5,29.9999990844727
322,135,186615,2,0,P|367:188|352:265,1,139.999995727539
350,270,186972,1,0,0:0:0:0:
209,199,187131,1,0,0:0:0:0:
209,199,187210,6,0,P|252:198|297:221,1,79.9999975585938
232,278,187448,2,0,P|189:278|151:260,1,79.9999975585938
121,183,187686,1,0,0:0:0:0:
121,183,187924,2,0,L|129:100,1,79.9999975585938
131,88,188163,6,0,P|122:53|85:17,1,79.9999975585938
92,21,188520,2,0,P|142:82|247:61,1,179.999994506836
115,275,189036,1,0,0:0:0:0:
115,275,189115,5,0,0:0:0:0:
185,308,189353,1,0,0:0:0:0:
256,344,189591,1,0,0:0:0:0:
324,384,189829,1,0,0:0:0:0:
467,124,190067,6,0,P|419:136|396:170,1,79.9999975585938
404,171,190305,1,0,0:0:0:0:
418,183,190385,1,0,0:0:0:0:
442,182,190464,1,0,0:0:0:0:
467,160,190543,1,0,0:0:0:0:
465,129,190623,1,0,0:0:0:0:
433,101,190702,1,0,0:0:0:0:
391,105,190782,1,0,0:0:0:0:
363,140,190862,1,0,0:0:0:0:
365,190,190940,1,0,0:0:0:0:
300,243,191258,6,0,P|235:252|178:220,1,133.333333333333
284,187,191496,2,0,P|242:215|173:213,1,100.000003814697
119,159,191734,1,0,0:0:0:0:
229,5,191893,1,0,0:0:0:0:
241,14,191972,6,0,P|247:89|201:141,1,133.333333333333
45,114,192210,2,0,P|91:79|153:80,1,100.000003814697
74,182,192448,2,0,P|99:101|143:78,1,116.000000973511
132,233,192686,2,0,P|100:180|103:130,1,66.6666666666667
277,83,192845,1,0,0:0:0:0:
287,94,192924,5,0,0:0:0:0:
287,94,193163,2,0,P|206:127|183:196,1,133.333333333333
323,212,193401,2,0,P|296:187|241:181,1,58.0000004867554
224,259,193559,2,0,B|281:268|281:268|335:217,1,116.000000973511
492,116,193797,1,0,0:0:0:0:
480,104,193877,6,0,P|418:93|341:162,1,133.333333333333
411,241,194115,2,0,P|478:226|494:214,1,66.6666666666667
403,1,194274,1,0,0:0:0:0:
389,5,194353,2,0,P|347:60|355:144,1,133.333333333333
396,235,194591,1,0,0:0:0:0:
311,39,194750,1,0,0:0:0:0:
297,32,194829,6,0,P|230:42|173:132,1,133.333333333333
154,171,195067,2,0,P|106:216|41:225,1,133.333333333333
109,138,195305,2,0,P|68:207|16:227,1,100.000003814697
19,136,195543,1,0,0:0:0:0:
232,205,195702,1,0,0:0:0:0:
243,195,195782,6,0,P|228:123|157:77,1,133.333333333333
140,331,196020,2,0,P|212:324|246:287,1,100.000003814697
118,261,196258,2,0,P|161:298|218:308,1,116.000000973511
148,189,196496,2,0,P|175:271|190:286,1,66.6666666666667
299,362,196655,1,0,0:0:0:0:
314,356,196734,5,0,0:0:0:0:
248,188,196893,1,0,0:0:0:0:
234,196,196972,2,0,P|312:238|389:214,1,133.333333333333
463,142,197210,2,0,P|425:157|394:195,1,58.0000004867554
439,260,197369,2,0,B|473:216|473:216|463:125,1,116.000000973511
364,78,197607,1,0,0:0:0:0:
350,87,197686,6,0,B|284:95|284:95|259:82|259:82|119:98,1,166.666666666667
103,116,197924,2,0,P|78:215|95:245,1,83.3333333333333
326,253,198083,1,0,0:0:0:0:
337,242,198163,5,0,0:0:0:0:
319,195,198242,1,0,0:0:0:0:
277,171,198321,1,0,0:0:0:0:
226,174,198401,2,0,L|140:183,2,66.6666666666667
402,152,198639,6,0,P|425:92|425:26,1,110.000003356934
59,154,198877,2,0,P|63:208|84:259,1,110.000003356934
257,92,199115,2,0,P|207:68|153:61,1,110.000003356934
225,295,199353,2,0,P|269:263|303:220,1,110.000003356934
331,20,199591,5,0,0:0:0:0:
331,20,199710,1,0,0:0:0:0:
331,20,199829,2,0,P|335:74|356:125,1,110.000003356934
512,252,200067,1,0,0:0:0:0:
512,252,200186,1,0,0:0:0:0:
512,252,200305,2,0,P|462:228|408:221,1,110.000003356934
195,378,200543,5,0,0:0:0:0:
195,378,200662,1,0,0:0:0:0:
195,378,200781,2,0,P|249:370|298:347,1,110.000003356934
112,217,201020,2,0,B|80:263|80:263|97:350,1,110.000003356934
307,336,201258,2,0,B|335:281|335:281|310:174,1,146.666671142578
282,88,201496,5,0,0:0:0:0:
302,41,201575,1,0,0:0:0:0:
346,13,201655,1,0,0:0:0:0:
397,11,201734,2,0,L|486:19,2,73.3333355712891
199,108,201972,5,0,0:0:0:0:
147,105,202051,1,0,0:0:0:0:
95,102,202131,1,0,0:0:0:0:
43,99,202210,2,0,P|-21:60|-36:35,2,73.3333355712891
279,109,202448,5,0,0:0:0:0:
319,140,202528,1,0,0:0:0:0:
335,188,202607,1,0,0:0:0:0:
328,238,202686,2,0,P|267:298|243:302,2,73.3333355712891
236,35,202924,5,0,0:0:0:0:
200,72,203004,1,0,0:0:0:0:
192,122,203083,1,0,0:0:0:0:
209,170,203163,1,0,0:0:0:0:
252,196,203242,1,0,0:0:0:0:
303,194,203321,1,0,0:0:0:0:
348,170,203401,1,0,0:0:0:0:
398,163,203480,1,0,0:0:0:0:
448,172,203559,1,0,0:0:0:0:
487,204,203639,2,0,P|504:275|501:298,2,73.3333355712891
275,111,203877,5,0,0:0:0:0:
224,121,203956,1,0,0:0:0:0:
173,130,204036,1,0,0:0:0:0:
123,143,204115,2,0,P|115:224|123:249,2,73.3333355712891
314,35,204353,5,0,0:0:0:0:
350,71,204432,1,0,0:0:0:0:
361,121,204512,1,0,0:0:0:0:
348,170,204591,2,0,P|280:204|240:200,2,73.3333355712891
480,75,204829,5,0,0:0:0:0:
428,84,204909,1,0,0:0:0:0:
377,93,204988,1,0,0:0:0:0:
326,102,205067,1,0,0:0:0:0:
275,111,205147,1,0,0:0:0:0:
224,119,205226,1,0,0:0:0:0:
173,128,205305,6,0,P|117:120|48:96,1,110.000003356934
292,0,205543,2,0,P|330:4|388:27,1,73.3333355712891
284,203,205702,1,0,0:0:0:0:
271,192,205782,5,0,0:0:0:0:
284,144,205861,1,0,0:0:0:0:
325,115,205940,1,0,0:0:0:0:
375,121,206020,1,0,0:0:0:0:
409,159,206099,1,0,0:0:0:0:
409,209,206178,1,0,0:0:0:0:
392,221,206258,5,0,0:0:0:0:
256,192,206496,12,0,211853,0:0:0:0:
