osu file format v14

[General]
AudioFilename: Ray - Hajimete Girls!.mp3
AudioLeadIn: 0
PreviewTime: 46391
Countdown: 0
SampleSet: Soft
StackLeniency: 0.7
Mode: 0
LetterboxInBreaks: 0
WidescreenStoryboard: 1

[Editor]
Bookmarks: 757,8376,15995,23614,31233,38852,46471,61709,67423,75280,82899,88376
DistanceSpacing: 0.8
BeatDivisor: 3
GridSize: 8
TimelineZoom: 3.599999

[Metadata]
Title:Hajimete Girls!
TitleUnicode:初めてガールズ!
Artist:Ray
ArtistUnicode:Ray
Creator:Meyrink
Version:Skystar's Pin Pon~
Source:わかば*ガール
Tags:wakaba*girl 畑 亜貴 ミト Aki Hata mito OP テーマ Opening Theme TV Size 7th Single yf_bmp IamKwaN Kwan Pho Skystar Amamiya Yuko
BeatmapID:776752
BeatmapSetID:330566

[Difficulty]
HPDrainRate:6
CircleSize:4
OverallDifficulty:8
ApproachRate:9.3
SliderMultiplier:1.6
SliderTickRate:1

[Events]
//Background and Video events
0,0,"BGEdit.jpg",0,0
Video,60,"Opening.flv"
//Break Periods
//Storyboard Layer 0 (Background)
//Storyboard Layer 1 (Fail)
//Storyboard Layer 2 (Pass)
//Storyboard Layer 3 (Foreground)
//Storyboard Sound Samples

[TimingPoints]
757,238.095238095238,4,2,88,50,1,0
757,-100,4,2,88,50,0,0
995,-133.333333333333,4,2,88,50,0,0
1709,-100,4,2,88,50,0,0
2661,-133.333333333333,4,2,88,50,0,0
3614,-100,4,2,88,50,0,0
4804,-133.333333333333,4,2,88,50,0,0
5518,-100,4,2,88,50,0,0
6471,-133.333333333333,4,2,88,50,0,0
7423,-76.9230769230769,4,2,88,50,0,0
7780,-133.333333333333,4,2,88,50,0,0
8376,-100,4,2,88,80,0,0
9328,-83.3333333333333,4,2,88,80,0,0
10280,-100,4,2,88,80,0,0
11233,-83.3333333333333,4,2,88,80,0,0
12185,-83.3333333333333,4,2,88,80,0,0
15042,-71.4285714285714,4,2,88,80,0,0
15518,-100,4,2,88,80,0,0
15995,-200,4,2,88,60,0,0
16709,-83.3333333333333,4,2,88,60,0,0
17344,-200,4,2,88,60,0,0
17899,-100,4,2,88,60,0,0
19090,-133.333333333333,4,2,88,60,0,0
19328,-100,4,2,88,60,0,0
19804,-83.3333333333333,4,2,88,60,0,0
23058,-100,4,2,88,60,0,0
23614,-100,4,2,88,70,0,0
24566,-66.6666666666667,4,2,88,70,0,0
24804,-100,4,2,88,70,0,0
25518,-66.6666666666667,4,2,88,70,0,0
25756,-100,4,2,88,70,0,0
27423,-83.3333333333333,4,2,88,70,0,0
29566,-76.9230769230769,4,2,88,70,0,0
29804,-71.4285714285714,4,2,88,70,0,0
30042,-66.6666666666667,4,2,88,70,0,0
30518,-83.3333333333333,4,2,88,70,0,0
30756,-100,4,2,88,70,0,0
31233,-200,4,2,88,60,0,0
36947,-125,4,2,88,60,0,0
38614,-83.3333333333333,4,2,88,60,0,0
44566,-100,4,2,88,80,0,0
46024,-100,4,2,88,30,0,0
46471,-90.9090909090909,4,2,88,80,0,1
50518,-71.4285714285714,4,2,88,80,0,1
50995,-90.9090909090909,4,2,88,80,0,1
58137,-71.4285714285714,4,2,88,80,0,1
58614,-90.9090909090909,4,2,88,80,0,1
61709,-133.333333333333,4,2,88,75,0,0
65518,-100,4,2,88,75,0,0
67423,-111.111111111111,4,2,88,60,0,0
74090,-83.3333333333333,4,2,88,60,0,0
75042,-200,4,2,88,60,0,0
75280,-100,4,2,88,80,0,0
75995,-83.3333333333333,4,2,88,80,0,0
76947,-100,4,2,88,80,0,0
77899,-83.3333333333333,4,2,88,80,0,0
78852,-100,4,2,88,80,0,0
79804,-83.3333333333333,4,2,88,80,0,0
80756,-100,4,2,88,80,0,0
81709,-83.3333333333333,4,2,88,80,0,0
82661,-200,4,2,88,80,0,0
82899,-100,4,2,88,70,0,0
84566,-100,4,2,88,50,0,0
86471,-100,4,2,88,30,0,0
88376,-100,4,2,88,10,0,0

[Colours]
Combo1 : 255,165,43
Combo2 : 5,203,245
Combo3 : 252,129,172
Combo4 : 191,128,213

[HitObjects]
150,27,757,6,0,B|168:61|168:61|150:150,1,106.666666666667,2|0,0:1|0:0,0:0:0:0:
154,127,995,2,0,L|11:142,1,120.000004577637,4|0,3:0|0:0,0:0:0:0:
152,215,1391,1,0,0:0:0:0:
135,210,1471,2,0,L|56:218,1,80.0000030517579,4|0,3:0|0:0,0:0:0:0:
0,276,1709,6,0,P|39:297|108:284,1,106.666666666667,4|0,3:0|0:0,0:0:0:0:
198,302,1947,2,0,P|146:311|98:288,1,106.666666666667,4|0,0:3|0:0,0:0:0:0:
198,302,2185,6,0,P|237:323|306:310,1,106.666666666667,4|0,3:0|0:0,0:0:0:0:
396,328,2423,2,0,P|344:337|296:314,1,106.666666666667,4|0,3:0|0:0,0:0:0:0:
396,328,2661,6,0,L|410:229,1,80.0000030517579,4|0,0:3|0:0,0:0:0:0:
418,169,2899,1,4,3:0:0:0:
449,22,3058,1,0,0:0:0:0:
467,36,3137,6,0,P|482:66|467:118,1,80.0000030517579,4|0,0:3|0:0,0:0:0:0:
411,243,3376,2,0,P|426:213|411:161,1,80.0000030517579,4|0,3:0|0:0,0:0:0:0:
352,95,3614,6,0,B|309:88|309:88|293:91|293:91|245:81,1,106.666666666667,4|0,3:0|0:0,0:0:0:0:
142,67,3852,2,0,B|188:77|188:77|204:74|204:74|247:81,1,106.666666666667,4|0,0:3|0:0,0:0:0:0:
243,164,4090,6,0,B|200:157|200:157|184:160|184:160|138:150,1,106.666666666667,4|0,3:0|0:0,0:0:0:0:
33,136,4328,2,0,B|79:146|79:146|95:143|95:143|138:150,1,106.666666666667,4|0,3:0|0:0,0:0:0:0:
247,81,4566,6,0,B|213:63|213:63|124:81,1,106.666666666667,2|0,0:1|0:0,0:0:0:0:
146,76,4804,2,0,L|131:219,1,120.000004577637,4|0,3:0|0:0,0:0:0:0:
243,177,5200,1,0,0:0:0:0:
238,160,5280,2,0,L|246:81,1,80.0000030517579,4|0,3:0|0:0,0:0:0:0:
137,232,5518,6,0,B|179:232|161:266|218:278|231:264,1,106.666666666667,4|0,3:0|0:0,0:0:0:0:
324,297,5756,2,0,B|281:296|299:262|242:250|229:264,1,106.666666666667,4|0,3:0|0:0,0:0:0:0:
324,297,5995,6,0,B|366:296|348:262|405:250|418:264,1,106.666666666667,4|0,3:0|0:0,0:0:0:0:
511,232,6233,2,0,B|468:232|486:266|429:278|416:264,1,106.666666666667,4|0,3:0|0:0,0:0:0:0:
511,232,6471,6,0,L|501:140,1,80.0000030517579,4|0,0:3|0:0,0:0:0:0:
490,75,6709,1,4,3:0:0:0:
326,162,6868,1,0,0:0:0:0:
349,168,6947,6,0,P|381:169|437:118,1,80.0000030517579,4|0,0:3|0:0,0:0:0:0:
490,75,7185,2,0,P|456:53|417:52,1,80.0000030517579,4|0,3:0|0:0,0:0:0:0:
349,168,7423,6,0,B|204:185|204:185|218:155|263:174,1,207.999990478516,4|0,3:0|0:0,0:0:0:0:
257,171,7780,2,0,P|277:202|274:246,1,60.0000022888184,2|0,0:3|0:0,0:0:0:0:
279,224,8376,6,0,L|144:234,1,106.666666666667,4|0,0:0|0:0,0:0:0:0:
85,229,8614,2,0,B|37:239|37:239|56:259|95:251,1,106.666666666667,8|0,0:0|0:0,0:0:0:0:
160,186,8852,2,0,P|129:154|42:152,1,106.666666666667,4|0,0:3|0:0,0:0:0:0:
85,229,9090,1,8,0:0:0:0:
312,333,9249,1,8,0:0:0:0:
312,333,9328,6,0,B|413:348|413:348|422:338|407:324,1,127.99999609375,4|0,0:3|0:0,0:0:0:0:
411,170,9566,2,0,B|347:249|347:249|351:262|371:256,1,127.99999609375,8|0,0:0|0:0,0:0:0:0:
502,338,9804,2,0,B|464:243|464:243|451:240|446:260,1,127.99999609375,4|0,0:3|0:0,0:0:0:0:
312,333,10042,1,8,0:0:0:0:
474,88,10201,1,8,0:0:0:0:
474,88,10280,6,0,P|431:112|368:98,1,106.666666666667,4|0,0:3|0:0,0:0:0:0:
335,39,10518,2,0,P|292:15|229:29,1,106.666666666667,8|0,0:0|0:0,0:0:0:0:
189,90,10756,1,4,0:3:0:0:
52,102,10915,1,0,0:0:0:0:
82,98,10995,2,0,L|208:88,1,106.666666666667,8|8,0:0|0:0,0:0:0:0:
212,164,11233,6,0,L|200:298,1,127.99999609375,4|0,0:3|0:0,0:0:0:0:
215,370,11471,2,0,P|175:369|122:289,1,127.99999609375,8|0,0:0|0:0,0:0:0:0:
260,239,11709,2,0,P|279:274|236:360,1,127.99999609375,4|0,0:3|0:0,0:0:0:0:
200,291,11947,1,8,0:0:0:0:
475,213,12106,1,8,0:0:0:0:
475,213,12185,6,0,L|306:187,1,127.99999609375,4|0,0:0|0:0,0:0:0:0:
329,77,12423,2,0,P|386:68|394:126,1,127.99999609375,8|0,0:0|0:0,0:0:0:0:
348,193,12661,2,0,P|291:201|283:144,1,127.99999609375,4|0,0:3|0:0,0:0:0:0:
329,77,12899,1,8,0:0:0:0:
311,298,13058,1,8,0:0:0:0:
287,270,13137,6,0,B|238:256|192:278|192:278|181:319,1,127.99999609375,4|0,0:3|0:0,0:0:0:0:
70,383,13376,2,0,B|105:347|110:296|110:296|80:266,1,127.99999609375,8|0,0:0|0:0,0:0:0:0:
80,138,13614,2,0,B|92:186|134:216|134:216|175:205,1,127.99999609375,4|0,0:3|0:0,0:0:0:0:
287,270,13852,1,8,0:0:0:0:
408,107,14010,1,8,0:0:0:0:
408,107,14090,6,0,B|430:144|430:144|415:229,1,127.99999609375,4|0,0:3|0:0,0:0:0:0:
372,306,14328,2,0,P|426:279|469:321,1,127.99999609375,8|0,0:0|0:0,0:0:0:0:
372,305,14566,2,0,P|328:264|275:291,1,127.99999609375,4|0,0:3|0:0,0:0:0:0:
178,276,14804,2,0,P|231:249|274:290,1,127.99999609375,8|8,0:0|0:0,0:0:0:0:
178,276,15042,6,0,B|96:262|111:308|30:294,1,149.333328776042,4|0,0:3|0:0,0:0:0:0:
53,143,15280,2,0,B|68:108|68:108|82:175|63:217,1,149.333328776042,8|8,0:0|0:3,0:0:0:0:
150,353,15518,5,8,0:0:0:0:
202,353,15597,1,8,0:0:0:0:
244,322,15676,1,8,0:0:0:0:
258,272,15756,1,8,0:0:0:0:
285,227,15835,1,8,0:0:0:0:
335,211,15914,1,8,0:0:0:0:
383,232,15994,5,12,0:0:0:0:
351,378,16233,2,0,L|336:290,1,80,2|2,0:3|0:3,0:0:0:0:
347,47,16709,6,0,P|304:72|322:77,1,127.99999609375,2|0,0:3|0:0,0:0:0:0:
400,126,16947,2,0,B|301:101|323:165|213:133,1,191.999994140625,4|2,1:2|0:3,0:0:0:0:
212,132,17344,6,0,P|220:186|229:252,1,106.666666666667,0|2,0:0|0:3,0:0:0:0:
205,341,17899,6,0,P|215:287|230:222,1,106.666666666667,4|0,1:2|0:0,0:0:0:0:
226,236,18137,1,2,0:3:0:0:
119,360,18376,1,2,0:3:0:0:
317,309,18614,1,0,0:0:0:0:
164,47,18852,6,0,P|170:104|177:174,1,106.666666666667,4|0,1:2|0:0,0:0:0:0:
174,153,19090,2,0,L|272:135,1,80.0000030517579,2|0,1:3|0:0,0:0:0:0:
327,202,19328,2,0,P|321:259|314:329,1,106.666666666667,4|0,1:2|0:0,0:0:0:0:
249,359,19566,1,8,0:0:0:0:
219,371,19645,1,8,0:0:0:0:
188,367,19724,1,8,0:0:0:0:
161,349,19804,6,0,P|242:328|329:357,1,127.99999609375,4|0,0:0|0:0,0:0:0:0:
381,373,20042,2,0,P|441:369|473:286,1,127.99999609375,8|0,0:0|0:0,0:0:0:0:
448,193,20280,2,0,P|399:157|321:200,1,127.99999609375,4|0,0:3|0:0,0:0:0:0:
288,244,20518,1,8,0:0:0:0:
502,248,20677,1,0,0:0:0:0:
502,248,20756,6,0,L|363:246,1,127.99999609375,4|0,0:3|0:0,0:0:0:0:
288,244,20995,2,0,P|281:275|306:351,1,63.9999980468751,8|0,0:0|0:0,0:0:0:0:
204,383,21153,1,8,0:0:0:0:
207,369,21233,2,0,P|169:321|90:339,1,127.99999609375,0|0,0:0|0:0,0:0:0:0:
54,372,21471,1,8,0:0:0:0:
90,358,21551,1,0,0:0:0:0:
107,324,21630,1,0,0:0:0:0:
109,249,21709,6,0,P|87:197|111:109,1,127.99999609375,4|0,0:3|0:0,0:0:0:0:
197,58,21947,2,0,P|143:74|91:149,1,127.99999609375,8|0,0:0|0:0,0:0:0:0:
199,282,22185,6,0,P|196:225|248:151,1,127.99999609375,4|0,0:3|0:0,0:0:0:0:
347,133,22423,2,0,P|290:130|216:182,1,127.99999609375,8|0,0:0|0:0,0:0:0:0:
302,288,22661,6,0,P|299:217|354:264,1,127.99999609375,4|0,0:3|0:0,0:0:0:0:
382,280,22899,1,8,0:0:0:0:
427,102,23058,1,0,0:0:0:0:
397,59,23137,1,8,0:0:0:0:
347,43,23216,1,8,0:0:0:0:
297,61,23296,1,8,0:0:0:0:
270,105,23376,1,8,0:0:0:0:
224,130,23455,1,8,0:0:0:0:
172,122,23534,1,8,0:0:0:0:
138,82,23614,6,0,P|76:74|-11:77,1,106.666666666667,4|0,1:2|0:0,0:0:0:0:
4,75,23852,1,8,0:0:0:0:
214,50,24090,1,4,0:3:0:0:
95,279,24328,2,0,P|90:226|95:173,1,106.666666666667,8|0,0:0|0:0,0:0:0:0:
95,172,24566,6,0,P|44:215|-21:155,1,160.000006103516,4|0,1:2|0:0,0:0:0:0:
95,279,24804,2,0,P|151:271|222:282,1,106.666666666667,8|0,0:0|0:0,0:0:0:0:
306,273,25042,2,0,P|253:267|200:275,1,106.666666666667,4|0,0:3|0:0,0:0:0:0:
306,273,25280,2,0,P|362:265|433:276,1,106.666666666667,8|0,0:0|0:0,0:0:0:0:
484,259,25518,6,0,P|456:320|411:270,1,160.000006103516,4|0,1:2|0:0,0:0:0:0:
435,189,25756,2,0,L|456:77,1,106.666666666667,8|0,0:0|0:0,0:0:0:0:
411,270,25995,2,0,L|497:344,1,106.666666666667,4|0,0:3|0:0,0:0:0:0:
353,209,26233,2,0,L|245:246,1,106.666666666667,8|0,0:0|0:0,0:0:0:0:
206,303,26471,6,0,P|180:262|204:183,1,106.666666666667,4|0,1:2|0:0,0:0:0:0:
223,138,26709,1,8,0:0:0:0:
10,135,26868,1,0,0:0:0:0:
47,171,26947,1,8,0:0:0:0:
99,175,27026,1,8,0:0:0:0:
142,144,27106,1,8,0:0:0:0:
154,93,27185,1,8,0:0:0:0:
195,61,27264,1,8,0:0:0:0:
247,62,27344,1,8,0:0:0:0:
287,95,27423,6,0,P|327:120|413:79,1,127.99999609375,4|0,0:0|0:0,0:0:0:0:
375,165,27661,2,0,P|346:109|286:94,1,127.99999609375,8|0,0:0|0:0,0:0:0:0:
154,93,27899,2,0,P|129:133|170:219,1,127.99999609375,4|0,0:3|0:0,0:0:0:0:
228,231,28137,1,8,0:0:0:0:
125,15,28296,1,0,0:0:0:0:
125,15,28376,6,0,B|71:46|71:46|140:60,1,127.99999609375,4|0,0:3|0:0,0:0:0:0:
222,139,28614,2,0,L|305:151,1,63.9999980468751,8|0,0:0|0:0,0:0:0:0:
120,258,28772,1,8,0:0:0:0:
105,243,28852,2,0,B|162:220|162:220|228:231,1,127.99999609375,0|8,0:0|0:0,0:0:0:0:
300,295,29090,2,0,B|242:317|242:317|177:307,1,127.99999609375,8|0,0:0|0:0,0:0:0:0:
298,198,29328,6,0,P|297:178|303:204,1,127.99999609375,4|0,0:3|0:0,0:0:0:0:
302,198,29566,6,0,P|301:176|307:205,1,138.666660319011,8|0,0:0|0:0,0:0:0:0:
306,199,29804,6,0,P|305:175|312:206,1,149.333328776042,4|0,0:3|0:0,0:0:0:0:
310,199,30042,6,0,P|309:173|317:207,1,160.000006103516,8|0,0:0|0:0,0:0:0:0:
443,194,30280,6,0,P|406:268|287:285,1,160.000006103516,4|0,0:0|0:0,0:0:0:0:
219,223,30518,2,0,P|159:203|81:231,1,127.99999609375,8|8,0:0|0:0,0:0:0:0:
18,307,30756,2,0,P|78:313|144:278,1,106.666666666667,4|0,0:3|0:0,0:0:0:0:
97,218,30995,5,8,0:0:0:0:
73,172,31074,1,8,0:0:0:0:
85,122,31153,1,8,0:0:0:0:
129,93,31233,6,0,P|136:49|133:9,1,80,4|0,0:0|0:0,0:0:0:0:
155,165,31590,2,0,L|245:173,1,80,0|0,0:0|0:0,0:0:0:0:
97,218,31947,1,8,0:0:0:0:
234,264,32185,6,0,L|155:272,2,80,2|0|10,0:3|0:0|0:0,0:0:0:0:
301,145,32899,1,0,0:0:0:0:
312,321,33137,5,2,0:3:0:0:
200,63,33495,1,0,0:0:0:0:
211,239,33852,1,8,0:3:0:0:
301,145,34090,5,2,0:3:0:0:
140,186,34328,2,0,L|132:203,8,10,8|0|0|0|0|0|0|0|2,0:3|0:0|0:0|0:0|0:0|0:0|0:0|0:0|0:0,0:0:0:0:
372,198,34804,1,0,0:0:0:0:
234,86,35042,6,0,P|279:60|351:68,2,120,4|0|8,0:0|0:0|0:0,0:0:0:0:
109,166,35995,2,0,L|25:170,1,80,0|0,0:0|0:0,0:0:0:0:
180,219,36352,1,0,0:0:0:0:
180,219,36471,2,0,L|259:215,1,80,8|8,0:0|0:3,0:0:0:0:
92,382,36947,6,0,P|75:332|116:264,1,128,4|0,0:0|0:0,0:0:0:0:
180,219,37304,2,0,P|197:269|156:337,1,128,0|0,0:0|0:0,0:0:0:0:
108,268,37661,1,8,0:0:0:0:
265,141,37899,6,0,L|353:137,1,64,8|0,0:3|0:0,0:0:0:0:
192,91,38137,2,0,L|176:91,8,16,8|0|0|0|0|0|0|0|8,0:3|0:0|0:0|0:0|0:0|0:0|0:0|0:0|0:0,0:0:0:0:
339,349,38614,5,8,0:3:0:0:
339,349,38693,1,0,0:0:0:0:
339,349,38772,1,0,0:0:0:0:
339,349,38852,6,0,B|385:342|385:342|422:348|422:348|469:343,1,127.99999609375,4|0,0:0|0:0,0:0:0:0:
330,264,39090,2,0,B|280:270|258:322|258:322|247:276,1,127.99999609375,8|0,0:0|0:0,0:0:0:0:
226,219,39328,6,0,P|273:186|389:187,1,127.99999609375,4|0,0:3|0:0,0:0:0:0:
330,264,39566,2,0,B|280:270|258:322|258:322|254:364,1,127.99999609375,8|0,0:0|0:0,0:0:0:0:
163,370,39804,6,0,B|51:378|51:378|76:340,1,127.99999609375,4|0,0:3|0:0,0:0:0:0:
36,269,40042,2,0,B|148:277|148:277|139:263,1,127.99999609375,8|0,0:0|0:0,0:0:0:0:
163,168,40280,6,0,B|51:176|51:176|76:138,1,127.99999609375,0|0,0:0|0:0,0:0:0:0:
36,67,40518,2,0,B|148:75|148:75|139:61,1,127.99999609375,8|0,0:0|0:0,0:0:0:0:
228,46,40756,6,0,B|219:32|219:32|331:40,1,127.99999609375,4|0,0:3|0:0,0:0:0:0:
402,87,40995,2,0,B|449:91|449:91|431:60,2,63.9999980468751,8|0|0,0:0|0:0|0:0,0:0:0:0:
335,138,41233,6,0,B|354:162|354:162|344:274,1,127.99999609375,4|0,0:3|0:0,0:0:0:0:
355,380,41471,2,0,B|336:356|336:356|346:244,1,127.99999609375,8|0,0:0|0:0,0:0:0:0:
460,246,41709,5,6,0:3:0:0:
408,253,41788,2,0,L|320:261,1,63.9999980468751,0|0,0:0|0:0,0:0:0:0:
217,249,41947,2,0,L|363:260,1,127.99999609375,8|0,0:0|0:0,0:0:0:0:
276,157,42185,6,0,B|230:171|230:171|217:249,1,127.99999609375,4|0,0:3|0:0,0:0:0:0:
189,327,42423,2,0,B|142:313|142:313|129:235,1,127.99999609375,8|0,0:0|0:0,0:0:0:0:
141,155,42661,6,0,P|81:147|54:200,1,127.99999609375,6|0,0:0|0:0,0:0:0:0:
129,235,42899,1,8,0:0:0:0:
204,136,43058,6,0,B|141:155|141:155|108:126|54:143|54:200,1,191.999994140625,2|0,0:3|0:0,0:0:0:0:
129,235,43376,2,0,P|154:280|96:369,1,127.99999609375,8|0,0:0|0:0,0:0:0:0:
29,290,43614,6,0,P|67:240|128:235,1,127.99999609375,4|0,0:3|0:0,0:0:0:0:
204,280,43852,2,0,P|242:329|303:334,1,127.99999609375,8|0,0:0|0:0,0:0:0:0:
399,347,44090,2,0,L|418:129,1,191.999994140625,4|8,0:3|0:0,0:0:0:0:
450,25,44566,5,8,0:0:0:0:
152,188,44725,1,8,0:0:0:0:
399,347,44883,1,8,0:0:0:0:
113,347,45042,5,8,0:0:0:0:
360,188,45200,1,8,0:0:0:0:
62,25,45359,1,8,0:0:0:0:
256,48,45518,5,8,0:0:0:0:
256,48,45995,2,0,L|256:72,12,20,2|0|0|0|0|0|0|0|0|0|0|0|0,0:0|0:0|0:0|0:0|0:0|0:0|0:0|0:0|0:0|0:0|0:0|0:0|0:0,0:0:0:0:
237,229,46471,6,0,P|201:258|109:260,1,117.333336914063,4|0,0:0|0:0,0:0:0:0:
166,67,46709,2,0,P|199:114|253:138,1,117.333336914063,8|0,3:2|0:0,0:0:0:0:
503,202,46947,2,0,P|447:217|392:201,1,117.333336914063,4|0,0:3|0:0,0:0:0:0:
345,122,47185,2,0,P|388:82|402:26,1,117.333336914063,8|8,0:0|0:0,0:0:0:0:
391,200,47423,6,0,B|424:232|424:232|433:328,1,117.333336914063,4|0,0:3|0:0,0:0:0:0:
389,377,47661,2,0,B|356:345|356:345|347:249,1,117.333336914063,8|0,0:0|0:0,0:0:0:0:
391,200,47899,5,4,0:3:0:0:
230,290,48058,1,0,0:0:0:0:
224,267,48137,1,8,0:0:0:0:
71,230,48296,1,8,0:0:0:0:
80,195,48376,6,0,P|123:173|201:195,1,117.333336914063,6|0,0:3|0:0,0:0:0:0:
224,267,48614,2,0,L|241:413,1,117.333336914063,10|0,0:0|0:0,0:0:0:0:
115,276,48852,6,0,P|158:254|236:276,1,117.333336914063,4|0,0:3|0:0,0:0:0:0:
315,264,49090,2,0,L|332:410,1,117.333336914063,8|0,0:0|0:0,0:0:0:0:
418,366,49328,5,4,0:3:0:0:
377,181,49487,1,0,0:0:0:0:
382,203,49566,5,8,0:0:0:0:
413,68,49725,1,0,0:0:0:0:
429,52,49804,5,4,0:3:0:0:
296,92,49963,1,0,0:0:0:0:
274,86,50042,5,8,0:0:0:0:
466,142,50201,1,0,0:0:0:0:
466,142,50280,6,0,B|481:213|481:213|454:290,1,117.333336914063,4|0,0:0|0:0,0:0:0:0:
344,300,50518,6,0,P|318:273|361:298,1,149.333328776042,8|0,0:0|0:0,0:0:0:0:
344,300,50756,2,0,P|370:327|327:302,1,149.333328776042,4|0,0:3|0:0,0:0:0:0:
199,279,50995,6,0,L|55:292,1,117.333336914063,8|8,0:0|0:0,0:0:0:0:
40,207,51233,2,0,P|52:156|180:154,1,176.000005371094,6|8,0:3|0:0,0:0:0:0:
279,354,51630,1,2,0:3:0:0:
279,354,51709,2,0,L|423:367,1,117.333336914063,0|0,0:0|0:0,0:0:0:0:
426,290,51947,2,0,L|309:279,1,117.333336914063,8|0,0:0|0:0,0:0:0:0:
252,177,52185,6,0,P|276:128|357:116,1,117.333336914063,6|0,0:3|0:0,0:0:0:0:
328,187,52423,1,8,0:0:0:0:
186,108,52582,1,0,0:0:0:0:
198,88,52661,5,4,0:3:0:0:
328,187,52820,1,0,0:0:0:0:
342,218,52899,5,8,0:0:0:0:
192,290,53058,1,8,0:0:0:0:
164,328,53137,6,0,L|16:336,1,117.333336914063,4|0,0:3|0:0,0:0:0:0:
25,243,53376,1,8,0:3:0:0:
65,200,53455,1,8,0:3:0:0:
65,141,53534,1,8,0:3:0:0:
34,93,53613,1,4,0:3:0:0:
54,40,53692,1,0,0:0:0:0:
108,23,53772,1,8,0:3:0:0:
154,56,53851,1,8,0:3:0:0:
156,112,53930,1,8,0:3:0:0:
196,155,54010,1,8,0:3:0:0:
252,139,54090,6,0,P|306:149|362:224,1,117.333336914063,4|0,0:0|0:0,0:0:0:0:
512,356,54328,2,0,P|501:301|426:245,1,117.333336914063,8|0,0:0|0:0,0:0:0:0:
398,44,54566,2,0,P|424:93|403:183,1,117.333336914063,4|0,0:3|0:0,0:0:0:0:
339,379,54804,2,0,P|374:335|368:242,1,117.333336914063,8|8,0:0|0:0,0:0:0:0:
341,113,55042,6,0,B|300:137|300:137|213:129,1,117.333336914063,4|0,0:3|0:0,0:0:0:0:
169,72,55280,2,0,B|210:48|210:48|297:56,1,117.333336914063,8|0,0:0|0:0,0:0:0:0:
341,113,55518,1,4,0:3:0:0:
206,232,55677,1,0,0:0:0:0:
200,254,55756,1,8,0:0:0:0:
71,113,55915,1,8,0:0:0:0:
61,79,55995,6,0,P|115:62|187:110,1,117.333336914063,6|0,0:3|0:0,0:0:0:0:
290,177,56233,2,0,P|344:194|416:146,1,117.333336914063,8|0,0:0|0:0,0:0:0:0:
335,5,56471,6,0,P|318:59|366:131,1,117.333336914063,4|0,0:3|0:0,0:0:0:0:
433,234,56709,2,0,P|450:288|402:360,1,117.333336914063,8|0,0:0|0:0,0:0:0:0:
331,362,56947,5,4,0:3:0:0:
389,139,57106,1,0,0:0:0:0:
409,151,57186,5,8,0:0:0:0:
246,271,57344,1,0,0:0:0:0:
246,247,57424,5,4,0:3:0:0:
431,328,57582,1,0,0:0:0:0:
411,340,57662,5,8,0:0:0:0:
295,168,57820,1,8,0:0:0:0:
295,168,57899,6,0,L|288:28,1,117.333336914063,4|0,0:0|0:0,0:0:0:0:
193,37,58137,6,0,B|135:35|104:16|104:16|133:32|141:61,1,149.333328776042,8|0,0:0|0:0,0:0:0:0:
10,108,58376,2,0,B|68:110|99:129|99:129|70:113|62:84,1,149.333328776042,4|0,0:3|0:0,0:0:0:0:
178,127,58614,6,0,P|158:182|76:203,1,117.333336914063,8|8,0:0|0:0,0:0:0:0:
35,247,58852,2,0,B|135:227|103:303|217:278,1,176.000005371094,6|8,0:3|0:0,0:0:0:0:
233,111,59249,1,2,0:3:0:0:
233,111,59328,2,0,P|187:146|172:202,1,117.333336914063,0|0,0:0|0:0,0:0:0:0:
204,299,59566,2,0,P|252:329|310:324,1,117.333336914063,8|8,0:0|0:0,0:0:0:0:
400,336,59804,6,0,L|414:207,1,117.333336914063,6|0,0:3|0:0,0:0:0:0:
422,140,60042,1,8,0:0:0:0:
272,230,60201,1,0,0:0:0:0:
277,252,60280,5,4,0:3:0:0:
171,201,60439,1,0,0:0:0:0:
172,234,60518,5,8,0:0:0:0:
76,154,60677,1,8,0:0:0:0:
70,198,60756,6,0,P|39:163|72:78,1,117.333336914063,4|0,0:3|0:0,0:0:0:0:
136,50,60995,2,0,P|181:60|204:148,1,117.333336914063,8|8,0:0|0:0,0:0:0:0:
171,201,61233,5,8,0:0:0:0:
239,207,61312,1,8,0:0:0:0:
292,163,61391,1,8,0:0:0:0:
300,95,61471,1,8,0:0:0:0:
332,35,61550,1,8,0:0:0:0:
399,19,61629,1,4,0:3:0:0:
455,57,61709,6,0,B|487:145|423:142|461:233,1,180.000006866455,6|0,0:0|0:0,0:0:0:0:
385,104,62185,1,2,0:0:0:0:
451,319,62423,1,8,0:0:0:0:
292,163,62661,6,0,P|231:130|116:164,1,180.000006866455,6|0,0:0|0:0,0:0:0:0:
76,227,63137,1,8,0:0:0:0:
301,66,63376,1,8,0:3:0:0:
220,355,63614,6,0,P|215:295|208:222,1,120.000004577637,6|0,0:0|0:0,0:0:0:0:
301,66,63971,2,0,P|295:125|290:185,1,120.000004577637,0|0,0:0|0:0,0:0:0:0:
343,256,64328,1,8,0:0:0:0:
174,29,64566,5,6,0:0:0:0:
428,85,64804,2,0,P|432:112|410:158,1,60.0000022888184,0|0,0:0|0:0,0:0:0:0:
403,216,65042,2,0,P|377:205|348:163,1,60.0000022888184,8|0,0:0|0:0,0:0:0:0:
302,128,65280,2,0,P|323:111|374:107,1,60.0000022888184,8|0,0:3|0:0,0:0:0:0:
428,85,65518,5,4,0:0:0:0:
451,324,65756,5,8,0:0:0:0:
402,342,65835,1,8,0:0:0:0:
352,326,65914,1,8,0:0:0:0:
323,282,65995,5,8,0:3:0:0:
300,247,66074,1,0,0:0:0:0:
262,230,66153,1,8,0:3:0:0:
220,237,66233,5,4,0:3:0:0:
195,257,66312,1,8,0:3:0:0:
181,286,66392,1,4,0:3:0:0:
255,307,66471,6,0,L|260:239,1,53.3333333333333,4|0,0:0|0:0,0:0:0:0:
303,63,67423,6,0,L|178:56,1,95.9999970703126,4|0,0:0|0:0,0:0:0:0:
127,56,67661,1,8,0:0:0:0:
312,150,67820,6,0,B|379:124|384:181|455:159,1,143.999995605469,4|0,0:3|0:0,0:0:0:0:
489,152,68137,1,8,0:0:0:0:
330,347,68296,6,0,P|306:282|345:225,1,143.999995605469,4|0,0:3|0:0,0:0:0:0:
381,291,68614,1,8,0:0:0:0:
212,327,68772,6,0,B|156:326|156:326|129:336|129:336|51:335,1,143.999995605469,4|0,0:3|0:0,0:0:0:0:
31,334,69090,1,8,0:0:0:0:
70,108,69249,6,0,P|140:105|181:161,1,143.999995605469,4|0,0:3|0:0,0:0:0:0:
181,242,69566,1,8,0:0:0:0:
138,32,69725,6,0,L|110:174,1,143.999995605469,4|0,0:3|0:0,0:0:0:0:
101,212,70042,1,8,0:0:0:0:
253,101,70201,1,4,0:3:0:0:
253,101,70280,6,0,L|264:215,1,95.9999970703126,4|0,0:3|0:0,0:0:0:0:
337,206,70518,2,0,L|328:111,1,95.9999970703126,8|4,0:0|0:3,0:0:0:0:
403,121,70756,6,0,L|414:235,1,95.9999970703126,4|0,0:3|0:0,0:0:0:0:
487,226,70995,2,0,L|478:131,1,95.9999970703126,8|4,0:0|0:3,0:0:0:0:
403,121,71233,6,0,L|414:235,1,95.9999970703126,4|0,0:0|0:0,0:0:0:0:
424,296,71471,1,8,0:0:0:0:
427,40,71630,6,0,B|350:25|357:73|279:58,1,143.999995605469,4|0,0:3|0:0,0:0:0:0:
249,58,71947,1,8,0:0:0:0:
81,49,72106,1,4,0:3:0:0:
81,49,72185,6,0,P|105:92|95:169,1,95.9999970703126,4|0,0:3|0:0,0:0:0:0:
46,192,72423,1,8,0:0:0:0:
197,140,72582,1,4,0:3:0:0:
197,140,72661,6,0,P|179:186|114:227,1,95.9999970703126,4|0,0:3|0:0,0:0:0:0:
64,205,72899,1,8,0:0:0:0:
200,287,73058,1,4,0:3:0:0:
200,287,73137,6,0,P|153:303|79:279,1,95.9999970703126,0|0,0:0|0:0,0:0:0:0:
65,227,73375,1,8,0:0:0:0:
279,327,73534,1,4,0:3:0:0:
279,327,73614,6,0,L|399:335,1,95.9999970703126,2|0,0:3|0:0,0:0:0:0:
455,339,73852,2,0,P|455:291|435:206,1,95.9999970703126,8|8,0:0|0:0,0:0:0:0:
406,171,74090,6,0,P|394:84|494:107,1,191.999994140625,2|2,0:3|0:3,0:0:0:0:
447,243,74487,1,8,0:3:0:0:
397,253,74566,1,8,0:3:0:0:
351,232,74645,1,8,0:3:0:0:
326,188,74725,1,8,0:3:0:0:
314,139,74804,1,8,0:3:0:0:
278,104,74883,1,8,0:3:0:0:
229,94,74963,1,8,0:3:0:0:
181,112,75042,6,0,L|82:109,1,80,0|4,0:0|0:0,0:0:0:0:
406,171,75518,1,8,0:0:0:0:
238,179,75756,1,4,0:3:0:0:
336,109,75915,1,8,0:0:0:0:
336,109,75995,6,0,B|316:158|316:158|335:243,1,127.99999609375,6|0,0:3|0:0,0:0:0:0:
224,289,76233,2,0,B|276:281|276:281|340:222,1,127.99999609375,8|0,0:0|0:0,0:0:0:0:
435,295,76471,2,0,B|402:253|402:253|319:227,1,127.99999609375,4|0,0:3|0:0,0:0:0:0:
330,230,76709,1,8,0:0:0:0:
141,314,76868,1,0,0:0:0:0:
141,314,76947,6,0,L|15:305,1,106.666666666667,4|0,0:3|0:0,0:0:0:0:
54,178,77185,2,0,P|93:135|166:139,1,106.666666666667,8|0,0:0|0:0,0:0:0:0:
216,170,77423,2,0,P|233:225|193:286,1,106.666666666667,4|0,0:3|0:0,0:0:0:0:
141,314,77661,2,0,P|84:301|51:236,1,106.666666666667,8|8,0:0|0:0,0:0:0:0:
131,163,77899,6,0,B|190:124|258:147|241:180|190:168,1,127.99999609375,4|0,0:3|0:0,0:0:0:0:
131,163,78137,2,0,B|72:202|4:179|21:146|72:158,1,127.99999609375,8|0,0:0|0:0,0:0:0:0:
131,163,78376,2,0,B|170:222|147:290|114:273|126:222,1,127.99999609375,4|0,0:3|0:0,0:0:0:0:
131,163,78614,2,0,B|92:104|115:36|148:53|136:104,1,127.99999609375,8|0,0:0|0:0,0:0:0:0:
216,118,78852,6,0,L|341:127,1,106.666666666667,4|0,0:0|0:0,0:0:0:0:
428,133,79090,2,0,L|321:125,1,106.666666666667,8|0,0:0|0:0,0:0:0:0:
275,208,79328,2,0,L|290:371,1,160,4|8,0:3|0:0,0:0:0:0:
448,276,79725,1,8,0:0:0:0:
448,276,79804,6,0,B|409:248|388:259|388:259|377:289|330:295,1,127.99999609375,6|0,0:3|0:0,0:0:0:0:
231,311,80042,2,0,B|268:306|279:276|279:276|300:265|339:293,1,127.99999609375,8|0,0:0|0:0,0:0:0:0:
231,311,80280,2,0,B|192:283|171:294|171:294|160:324|113:330,1,127.99999609375,4|0,0:3|0:0,0:0:0:0:
14,346,80518,2,0,B|51:341|62:311|62:311|83:300|122:328,1,127.99999609375,8|0,0:0|0:0,0:0:0:0:
192,241,80756,6,0,L|200:135,1,106.666666666667,4|0,0:3|0:0,0:0:0:0:
152,43,80995,2,0,P|108:30|34:66,1,106.666666666667,8|0,0:0|0:0,0:0:0:0:
58,139,81233,2,0,P|102:152|176:116,1,106.666666666667,4|0,0:3|0:0,0:0:0:0:
255,53,81471,2,0,L|381:65,1,106.666666666667,8|0,0:0|0:0,0:0:0:0:
412,155,81709,6,0,P|366:222|326:148,1,191.999994140625,4|8,0:3|0:0,0:0:0:0:
412,155,82106,5,0,0:0:0:0:
413,186,82185,1,8,0:0:0:0:
396,212,82264,1,8,0:0:0:0:
366,221,82344,1,8,0:0:0:0:
336,211,82423,1,8,0:0:0:0:
320,184,82502,1,8,0:0:0:0:
323,153,82582,1,8,0:0:0:0:
368,91,82661,6,0,L|375:1,1,80,8|4,0:0|0:0,0:0:0:0:
256,192,82979,12,2,88376,0:0:0:0:
