osu file format v14

[General]
AudioFilename: Ray - Hajimete Girls!.mp3
AudioLeadIn: 0
PreviewTime: 46391
Countdown: 0
SampleSet: Soft
StackLeniency: 0.7
Mode: 0
LetterboxInBreaks: 0
WidescreenStoryboard: 0

[Editor]
DistanceSpacing: 2
BeatDivisor: 3
GridSize: 4
TimelineZoom: 2.5

[Metadata]
Title:Hajimete Girls!
TitleUnicode:初めてガールズ!
Artist:Ray
ArtistUnicode:Ray
Creator:Meyrink
Version:Pho's Very Hard
Source:わかば*ガール
Tags:wakaba*girl 畑 亜貴 ミト Aki Hata mito OP テーマ Opening Theme TV Size 7th Single yf_bmp IamKwaN Kwan Pho Skystar Amamiya Yuko
BeatmapID:756285
BeatmapSetID:330566

[Difficulty]
HPDrainRate:6
CircleSize:4
OverallDifficulty:6.5
ApproachRate:8.4
SliderMultiplier:1.1
SliderTickRate:1

[Events]
//Background and Video events
0,0,"BGEdit.jpg",0,0
Video,60,"Opening.flv"
//Break Periods
//Storyboard Layer 0 (Background)
//Storyboard Layer 1 (Fail)
//Storyboard Layer 2 (Pass)
//Storyboard Layer 3 (Foreground)
//Storyboard Sound Samples

[TimingPoints]
757,238.095238095238,4,2,88,40,1,0
757,-133.333333333333,4,2,88,40,0,0
7423,-133.333333333333,4,2,88,60,0,0
7820,-111.111111111111,4,2,88,60,0,0
8137,-133.333333333333,4,2,88,40,0,0
8376,-100,4,2,88,70,0,0
15518,-100,4,2,88,50,0,0
15995,-100,4,2,88,60,0,0
19804,-100,4,2,88,70,0,0
23137,-100,4,2,88,60,0,0
23614,-100,4,2,88,70,0,0
26947,-100,4,2,88,60,0,0
27423,-100,4,2,88,70,0,0
31233,-111.111111111111,4,2,88,50,0,0
38852,-111.111111111111,4,2,88,70,0,0
44566,-111.111111111111,4,2,88,80,0,0
45995,-100,4,2,88,50,0,0
46471,-100,4,2,88,70,0,1
54010,-100,4,2,88,70,0,0
54090,-100,4,2,88,70,0,1
61630,-100,4,2,88,70,0,0
61709,-133.333333333333,4,2,88,60,0,1
61788,-133.333333333333,4,2,88,60,0,0
66947,-133.333333333333,4,2,88,50,0,0
67423,-100,4,2,88,70,0,1
67503,-111.111111111111,4,2,88,60,0,0
74566,-111.111111111111,4,2,88,30,0,0
74645,-111.111111111111,4,2,88,35,0,0
74725,-111.111111111111,4,2,88,40,0,0
74804,-111.111111111111,4,2,88,45,0,0
74883,-111.111111111111,4,2,88,50,0,0
74963,-111.111111111111,4,2,88,55,0,0
75280,-111.111111111111,4,2,88,60,0,1
75360,-111.111111111111,4,2,88,60,0,0
82185,-111.111111111111,4,2,88,50,0,0
82899,-111.111111111111,4,2,88,60,0,0
83614,-111.111111111111,4,2,88,50,0,0
84566,-111.111111111111,4,2,88,40,0,0
85518,-111.111111111111,4,2,88,40,0,0
86947,-111.111111111111,4,2,88,30,0,0
88376,-111.111111111111,4,2,88,20,0,0

[Colours]
Combo1 : 255,165,43
Combo2 : 5,203,245
Combo3 : 252,129,172
Combo4 : 191,128,213

[HitObjects]
98,120,757,6,0,L|102:56,1,55.0000020980836,2|0,0:1|0:0,0:0:0:0:
178,100,995,2,0,L|170:204,1,82.5000031471254,4|0,3:0|0:0,0:0:0:0:
167,301,1391,1,0,0:0:0:0:
167,301,1471,2,0,L|227:293,1,55.0000020980836,4|0,3:0|0:0,0:0:0:0:
265,311,1709,2,0,P|289:331|329:339,1,55.0000020980836,4|0,3:0|0:0,0:0:0:0:
357,279,1947,2,0,P|387:273|419:247,1,55.0000020980836,4|0,0:3|0:0,0:0:0:0:
381,191,2185,2,0,P|396:163|397:123,1,55.0000020980836,4|0,3:0|0:0,0:0:0:0:
333,107,2423,2,0,P|322:77|291:50,1,55.0000020980836,4|0,3:0|0:0,0:0:0:0:
229,31,2661,5,4,0:3:0:0:
162,135,2899,2,0,L|166:219,2,82.5000031471254,4|4|4,3:0|0:3|3:0,0:0:0:0:
56,72,3614,2,0,P|44:116|52:144,1,55.0000020980836,4|0,3:0|0:0,0:0:0:0:
56,164,3852,2,0,P|72:212|56:260,1,82.5000031471254,4|4,0:3|3:0,0:0:0:0:
36,344,4249,1,0,0:0:0:0:
36,344,4328,2,0,L|96:360,1,55.0000020980836,4|0,3:0|0:0,0:0:0:0:
159,287,4566,6,0,L|215:267,1,55.0000020980836,2|0,0:1|0:0,0:0:0:0:
295,299,4804,2,0,P|343:307|391:295,1,82.5000031471254,4|0,3:0|0:0,0:0:0:0:
462,189,5201,1,0,0:0:0:0:
462,189,5280,2,0,L|450:121,1,55.0000020980836,4|0,3:0|0:0,0:0:0:0:
448,92,5518,2,0,P|408:84|388:92,1,55.0000020980836,4|0,3:0|0:0,0:0:0:0:
340,28,5756,2,0,P|308:53|301:73,1,55.0000020980836,4|0,3:0|0:0,0:0:0:0:
220,56,5995,2,0,P|219:96|230:115,1,55.0000020980836,4|0,3:0|0:0,0:0:0:0:
164,164,6233,2,0,P|194:190|215:194,1,55.0000020980836,4|0,3:0|0:0,0:0:0:0:
289,152,6471,5,4,0:3:0:0:
360,306,6709,1,4,3:0:0:0:
455,168,6947,1,4,0:3:0:0:
369,219,7185,1,4,3:0:0:0:
340,84,7423,6,0,P|296:68|248:78,1,82.5000031471254,4|0,3:0|0:0,0:0:0:0:
189,112,7820,2,0,P|153:126|85:106,1,98.9999969787599,2|2,0:3|0:3,0:0:0:0:
60,98,8137,2,0,L|64:175,1,55.0000020980836
70,253,8376,6,0,P|131:256|159:274,1,73.3333333333333,4|0,0:0|0:0,0:0:0:0:
196,309,8614,2,0,P|230:320|266:316,1,73.3333333333333,8|0,0:0|0:0,0:0:0:0:
319,263,8852,2,0,L|315:172,1,73.3333333333333,4|0,0:3|0:0,0:0:0:0:
312,154,9090,1,8,0:0:0:0:
416,76,9249,1,8,0:0:0:0:
416,76,9328,2,0,P|438:127|428:198,2,110,4|8|4,0:3|0:0|0:3,0:0:0:0:
310,24,10042,2,0,L|213:32,1,73.3333333333333,8|8,0:0|0:0,0:0:0:0:
199,32,10280,5,4,0:3:0:0:
67,104,10518,2,0,P|54:147|71:189,1,73.3333333333333,8|0,0:0|0:0,0:0:0:0:
137,192,10756,2,0,L|119:278,1,73.3333333333333,4|0,0:3|0:0,0:0:0:0:
57,305,10995,2,0,P|64:347|83:379,1,73.3333333333333,8|8,0:0|0:0,0:0:0:0:
215,365,11233,2,0,P|269:343|296:349,1,73.3333333333333,4|0,0:3|0:0,0:0:0:0:
355,295,11471,2,0,L|381:174,2,110,8|4|8,0:0|0:3|0:0,0:0:0:0:
224,252,12106,1,8,0:0:0:0:
224,252,12185,6,0,L|209:162,1,73.3333333333333,4|0,0:0|0:0,0:0:0:0:
152,35,12423,2,0,P|92:45|59:98,1,110,8|4,0:0|0:3,0:0:0:0:
139,214,12899,1,8,0:0:0:0:
235,96,13058,1,8,0:0:0:0:
235,96,13137,2,0,P|281:80|321:86,1,73.3333333333333,4|0,0:3|0:0,0:0:0:0:
336,149,13376,2,0,L|328:225,1,73.3333333333333,8|0,0:0|0:0,0:0:0:0:
391,271,13614,2,0,L|469:248,1,73.3333333333333,4|0,0:3|0:0,0:0:0:0:
480,173,13852,2,0,L|414:103,1,73.3333333333333,8|8,0:0|0:0,0:0:0:0:
403,195,14090,5,4,0:3:0:0:
235,96,14328,2,0,P|283:45|350:53,2,110,8|4|8,0:0|0:3|0:0,0:0:0:0:
162,179,14963,1,8,0:0:0:0:
162,179,15042,2,0,L|69:154,1,73.3333333333333,4|0,0:3|0:0,0:0:0:0:
11,102,15280,2,0,L|95:61,1,73.3333333333333,8|8,0:0|0:3,0:0:0:0:
171,39,15518,6,0,L|188:83,5,36.6666666666667,8|8|8|8|8|8,0:0|0:0|0:0|0:0|0:0|0:0,0:0:0:0:
235,96,15995,5,12,0:0:0:0:
354,40,16233,1,2,0:3:0:0:
354,40,16471,1,2,0:3:0:0:
354,40,16709,2,0,L|431:34,1,73.3333333333333,2|0,0:3|0:0,0:0:0:0:
498,165,16947,1,4,1:2:0:0:
498,165,17185,1,2,0:3:0:0:
498,165,17423,1,2,0:3:0:0:
498,165,17661,2,0,L|406:173,1,73.3333333333333,2|0,0:3|0:0,0:0:0:0:
336,257,17899,6,0,L|309:131,1,110,4|2,1:2|0:3,0:0:0:0:
201,310,18376,2,0,L|215:195,1,110,2|0,0:3|0:0,0:0:0:0:
97,45,18852,2,0,P|49:64|28:102,1,73.3333333333333,4|0,1:2|0:0,0:0:0:0:
39,156,19090,2,0,P|65:182|100:192,1,73.3333333333333,2|0,1:3|0:0,0:0:0:0:
168,147,19328,2,0,P|178:111|169:76,1,73.3333333333333,4|0,1:2|0:0,0:0:0:0:
104,113,19566,2,0,L|50:121,2,36.6666666666667,8|8|8,0:0|0:0|0:0,0:0:0:0:
100,192,19804,6,0,L|108:292,1,73.3333333333333,4|0,0:0|0:0,0:0:0:0:
63,327,20042,2,0,P|105:342|149:322,1,73.3333333333333,8|0,0:0|0:0,0:0:0:0:
183,271,20280,2,0,L|261:266,1,73.3333333333333,4|0,0:3|0:0,0:0:0:0:
322,298,20518,2,0,P|360:273|403:284,1,73.3333333333333,8|0,0:0|0:0,0:0:0:0:
432,332,20756,2,0,L|439:196,1,110,4|8,0:3|0:0,0:0:0:0:
467,72,21153,2,0,P|427:107|369:111,1,110
292,82,21471,2,0,P|290:42|269:1,1,73.3333333333333,8|0,0:0|0:0,0:0:0:0:
203,123,21709,6,0,L|138:201,1,73.3333333333333,4|0,0:3|0:0,0:0:0:0:
164,285,21947,2,0,L|107:238,1,73.3333333333333,8|0,0:0|0:0,0:0:0:0:
11,236,22185,2,0,L|57:179,1,73.3333333333333,4|0,0:3|0:0,0:0:0:0:
47,75,22423,2,0,L|125:140,1,73.3333333333333,8|0,0:0|0:0,0:0:0:0:
193,205,22661,2,0,P|222:165|282:140,1,110,4|8,0:3|0:0,0:0:0:0:
372,215,23058,1,0,0:0:0:0:
372,215,23137,2,0,L|359:170,2,36.6666666666667,8|8|8,0:0|0:0|0:0,0:0:0:0:
456,259,23376,2,0,L|473:225,2,36.6666666666667,8|8|8,0:0|0:0|0:0,0:0:0:0:
401,328,23614,5,4,1:2:0:0:
274,349,23852,1,8,0:0:0:0:
274,349,24090,1,4,0:3:0:0:
274,349,24328,2,0,L|262:247,1,73.3333333333333,8|0,0:0|0:0,0:0:0:0:
307,86,24566,1,4,1:2:0:0:
307,86,24804,1,8,0:0:0:0:
307,86,25042,1,4,0:3:0:0:
307,86,25280,2,0,L|317:167,1,73.3333333333333,8|0,0:0|0:0,0:0:0:0:
201,226,25518,5,4,1:2:0:0:
63,116,25756,1,8,0:0:0:0:
238,133,25995,1,4,0:3:0:0:
85,221,26233,2,0,L|89:119,1,73.3333333333333,8|0,0:0|0:0,0:0:0:0:
129,86,26471,2,0,P|194:66|251:98,1,110,4|8,1:2|0:0,0:0:0:0:
321,225,26947,2,0,L|376:213,5,36.6666666666667,8|8|8|8|8|8,0:0|0:0|0:0|0:0|0:0|0:0,0:0:0:0:
389,247,27423,6,0,L|394:109,1,110,4|8,0:0|0:0,0:0:0:0:
485,231,27899,2,0,P|484:288|447:337,1,110,4|8,0:3|0:0,0:0:0:0:
355,378,28297,1,0,0:0:0:0:
355,378,28376,2,0,P|292:341|246:350,1,110,4|8,0:3|0:0,0:0:0:0:
134,369,28772,2,0,P|102:305|104:238,1,110
132,201,29090,2,0,P|176:176|217:185,1,73.3333333333333,8|0,0:0|0:0,0:0:0:0:
82,120,29328,6,0,L|-2:115,1,73.3333333333333,4|0,0:0|0:0,0:0:0:0:
72,36,29566,2,0,L|146:23,1,73.3333333333333,8|0,0:0|0:0,0:0:0:0:
202,106,29804,2,0,P|191:155|202:188,1,73.3333333333333,4|0,0:3|0:0,0:0:0:0:
267,310,30042,2,0,P|272:273|265:238,1,73.3333333333333,8|0,0:0|0:0,0:0:0:0:
286,141,30280,2,0,L|419:96,1,110,4|8,0:0|0:0,0:0:0:0:
257,46,30677,1,8,0:0:0:0:
257,46,30756,2,0,L|170:17,1,73.3333333333333,4|0,0:3|0:0,0:0:0:0:
117,61,30995,2,0,L|69:47,2,36.6666666666667,8|8|8,0:0|0:0|0:0,0:0:0:0:
150,132,31233,6,0,P|161:190|132:286,1,148.49999546814,4|0,0:0|0:0,0:0:0:0:
110,315,31709,1,8,0:0:0:0:
57,207,31947,1,8,0:0:0:0:
187,222,32185,2,0,P|236:190|283:199,1,98.9999969787599,2|0,0:3|0:0,0:0:0:0:
350,291,32661,2,0,P|403:322|493:294,1,148.49999546814,10|0,0:0|0:0,0:0:0:0:
488,253,33137,6,0,L|478:154,1,98.9999969787599,2|0,0:3|0:0,0:0:0:0:
447,74,33495,1,0,0:0:0:0:
377,122,33614,2,0,P|322:150|269:146,1,98.9999969787599,4|8,0:3|0:3,0:0:0:0:
108,71,34090,1,2,0:3:0:0:
208,204,34328,1,8,0:3:0:0:
289,70,34566,2,0,P|251:68|206:88,1,74.2499977340699,2|0,0:0|0:0,0:0:0:0:
204,116,34804,1,0,0:0:0:0:
304,277,35042,6,0,P|308:227|303:174,1,98.9999969787599,4|0,0:0|0:0,0:0:0:0:
390,130,35399,2,0,P|384:187|396:244,1,98.9999969787599,0|0,0:0|0:0,0:0:0:0:
465,292,35756,1,8,0:0:0:0:
336,366,35995,2,0,P|276:365|234:347,1,98.9999969787599,0|0,0:0|0:0,0:0:0:0:
215,275,36352,1,0,0:0:0:0:
151,228,36471,2,0,P|109:221|42:239,1,98.9999969787599,8|8,0:0|0:3,0:0:0:0:
22,104,36947,6,0,P|66:140|106:141,1,98.9999969787599,4|0,0:0|0:0,0:0:0:0:
149,74,37304,2,0,L|248:43,1,98.9999969787599,0|0,0:0|0:0,0:0:0:0:
312,82,37661,2,0,L|331:145,1,49.4999984893799,8|0,0:0|0:0,0:0:0:0:
416,191,37899,1,8,0:3:0:0:
489,50,38137,1,8,0:3:0:0:
330,52,38376,1,8,0:0:0:0:
414,108,38614,2,0,L|463:113,2,32.99999899292,8|0|0,0:3|0:0|0:0,0:0:0:0:
338,150,38852,6,0,P|325:196|339:235,1,65.9999979858399,4|0,0:0|0:0,0:0:0:0:
438,306,39090,2,0,L|365:290,1,65.9999979858399,8|0,0:0|0:0,0:0:0:0:
307,364,39328,2,0,L|234:348,1,65.9999979858399,4|0,0:3|0:0,0:0:0:0:
203,259,39566,2,0,L|130:243,1,65.9999979858399,8|0,0:0|0:0,0:0:0:0:
31,309,39804,2,0,P|73:328|138:308,1,98.9999969787599,4|8,0:3|0:0,0:0:0:0:
138,161,40280,2,0,P|96:142|31:162,1,98.9999969787599,0|8,0:0|0:0,0:0:0:0:
179,252,40756,6,0,L|254:263,1,65.9999979858399,4|0,0:3|0:0,0:0:0:0:
317,219,40995,2,0,L|329:144,1,65.9999979858399,8|0,0:0|0:0,0:0:0:0:
370,295,41233,2,0,L|344:386,1,65.9999979858399,4|0,0:3|0:0,0:0:0:0:
449,264,41471,2,0,L|529:262,1,65.9999979858399,8|0,0:0|0:0,0:0:0:0:
486,134,41709,6,0,L|479:42,1,65.9999979858399,6|0,0:3|0:0,0:0:0:0:
400,24,41947,2,0,L|324:30,1,65.9999979858399,8|0,0:0|0:0,0:0:0:0:
244,151,42185,2,0,L|241:82,1,65.9999979858399,4|0,0:3|0:0,0:0:0:0:
145,8,42423,2,0,L|149:81,1,65.9999979858399,8|0,0:0|0:0,0:0:0:0:
71,206,42661,6,0,L|-6:198,1,65.9999979858399,6|0,0:0|0:0,0:0:0:0:
110,291,42899,2,0,L|33:283,1,65.9999979858399,8|2,0:0|0:3,0:0:0:0:
171,227,43137,2,0,L|267:228,1,65.9999979858399
129,147,43375,2,0,L|205:146,1,65.9999979858399,8|0,0:0|0:0,0:0:0:0:
332,204,43614,6,0,P|368:188|391:152,1,65.9999979858399,4|0,0:3|0:0,0:0:0:0:
473,185,43852,2,0,P|489:221|525:244,1,65.9999979858399,8|0,0:0|0:0,0:0:0:0:
490,322,44090,2,0,P|454:338|431:374,1,65.9999979858399,4|0,0:3|0:0,0:0:0:0:
349,341,44328,2,0,P|333:305|297:282,1,65.9999979858399,8|0,0:0|0:0,0:0:0:0:
205,252,44566,5,8,0:0:0:0:
169,324,44725,1,8,0:0:0:0:
83,324,44883,1,8,0:0:0:0:
38,252,45042,5,8,0:0:0:0:
78,176,45201,1,8,0:0:0:0:
163,176,45360,1,8,0:0:0:0:
127,250,45518,5,8,0:0:0:0:
127,250,45995,2,0,B|123:210|123:210|127:175|127:175|120:139|120:139|127:114|127:114|124:59,1,183.333333333333,2|0,0:0|0:0,0:0:0:0:
180,12,46471,6,0,P|234:12|295:55,1,110,4|8,0:0|3:2,0:0:0:0:
362,145,46868,1,0,0:0:0:0:
362,145,46947,2,0,L|505:129,1,110,4|8,0:3|0:0,0:0:0:0:
349,254,47344,1,8,0:0:0:0:
349,254,47423,2,0,L|247:239,1,73.3333333333333,4|0,0:3|0:0,0:0:0:0:
140,211,47661,2,0,P|177:188|220:192,1,73.3333333333333,8|0,0:0|0:0,0:0:0:0:
198,275,47899,2,0,L|193:349,1,73.3333333333333,4|0,0:3|0:0,0:0:0:0:
83,367,48137,2,0,P|60:327|52:281,1,73.3333333333333,8|8,0:0|0:0,0:0:0:0:
61,166,48376,6,0,L|74:70,1,73.3333333333333,6|0,0:3|0:0,0:0:0:0:
171,21,48614,2,0,L|160:114,1,73.3333333333333,10|0,0:0|0:0,0:0:0:0:
223,235,48852,2,0,L|236:139,1,73.3333333333333,4|0,0:3|0:0,0:0:0:0:
326,28,49090,2,0,L|315:121,1,73.3333333333333,8|0,0:0|0:0,0:0:0:0:
342,278,49328,6,0,P|396:290|435:272,1,73.3333333333333,4|0,0:3|0:0,0:0:0:0:
293,242,49566,2,0,P|239:230|200:248,1,73.3333333333333,8|0,0:0|0:0,0:0:0:0:
337,235,49804,2,0,P|349:181|331:142,1,73.3333333333333,4|0,0:3|0:0,0:0:0:0:
303,281,50042,2,0,P|291:335|309:374,1,73.3333333333333,8|8,0:0|0:0,0:0:0:0:
456,262,50280,5,4,0:0:0:0:
456,262,50518,2,0,L|448:174,1,73.3333333333333,8|0,0:0|0:0,0:0:0:0:
503,45,50756,2,0,L|512:143,1,73.3333333333333,4|0,0:3|0:0,0:0:0:0:
390,113,50995,1,8,0:0:0:0:
312,238,51153,1,8,0:0:0:0:
312,238,51233,2,0,L|231:213,1,73.3333333333333,6|0,0:3|0:0,0:0:0:0:
206,150,51471,1,8,0:0:0:0:
112,253,51630,2,0,P|52:224|33:167,1,110,2|0,0:3|0:0,0:0:0:0:
32,114,51947,1,8,0:0:0:0:
132,40,52106,1,0,0:0:0:0:
132,40,52185,6,0,L|217:66,1,73.3333333333333,6|0,0:3|0:0,0:0:0:0:
268,28,52423,2,0,L|354:20,1,73.3333333333333,8|0,0:0|0:0,0:0:0:0:
375,86,52661,2,0,L|462:94,1,73.3333333333333,4|0,0:3|0:0,0:0:0:0:
491,170,52899,2,0,L|482:260,1,73.3333333333333,8|8,0:0|0:0,0:0:0:0:
343,231,53137,6,0,L|254:226,1,73.3333333333333,4|0,0:3|0:0,0:0:0:0:
147,160,53376,2,0,P|143:139|131:124,2,36.6666666666667,8|8|8,0:3|0:3|0:3,0:0:0:0:
105,221,53614,2,0,L|69:221,2,36.6666666666667,4|0|8,0:3|0:0|0:3,0:0:0:0:
145,291,53852,2,0,P|141:312|129:327,2,36.6666666666667,8|8|8,0:3|0:3|0:3,0:0:0:0:
183,224,54090,6,0,L|288:220,1,73.3333333333333,4|0,0:0|0:0,0:0:0:0:
312,157,54328,2,0,L|336:81,1,73.3333333333333,8|0,0:0|0:0,0:0:0:0:
437,228,54566,2,0,L|423:140,1,73.3333333333333,4|0,0:3|0:0,0:0:0:0:
323,259,54804,2,0,L|347:168,1,73.3333333333333,8|8,0:0|0:0,0:0:0:0:
493,281,55042,2,0,P|457:304|411:301,1,73.3333333333333,4|0,0:3|0:0,0:0:0:0:
355,363,55280,2,0,P|310:332|277:332,1,73.3333333333333,8|0,0:0|0:0,0:0:0:0:
213,352,55518,2,0,L|189:274,1,73.3333333333333,4|0,0:3|0:0,0:0:0:0:
89,302,55756,2,0,L|114:210,1,73.3333333333333,8|8,0:0|0:0,0:0:0:0:
168,140,55995,6,0,L|83:103,1,73.3333333333333,6|0,0:3|0:0,0:0:0:0:
244,68,56233,2,0,L|159:31,1,73.3333333333333,8|0,0:0|0:0,0:0:0:0:
246,156,56471,2,0,P|283:161|338:131,1,73.3333333333333,4|0,0:3|0:0,0:0:0:0:
450,73,56709,2,0,P|422:51|364:56,1,73.3333333333333,8|0,0:0|0:0,0:0:0:0:
389,145,56947,6,0,L|402:253,1,73.3333333333333,4|0,0:3|0:0,0:0:0:0:
497,213,57185,2,0,L|484:321,1,73.3333333333333,8|0,0:0|0:0,0:0:0:0:
478,144,57423,6,0,L|465:252,1,73.3333333333333,4|0,0:3|0:0,0:0:0:0:
368,228,57661,2,0,L|381:336,1,73.3333333333333,8|8,0:0|0:0,0:0:0:0:
215,353,57899,5,4,0:0:0:0:
215,353,58137,2,0,P|193:324|193:269,1,73.3333333333333,8|0,0:0|0:0,0:0:0:0:
252,214,58376,2,0,P|271:183|275:147,1,73.3333333333333,4|0,0:3|0:0,0:0:0:0:
248,19,58614,2,0,L|217:94,1,73.3333333333333,8|8,0:0|0:0,0:0:0:0:
149,29,58852,2,0,L|21:60,1,110,6|8,0:3|0:0,0:0:0:0:
14,180,59249,1,2,0:3:0:0:
14,180,59328,2,0,L|22:262,1,73.3333333333333,0|0,0:0|0:0,0:0:0:0:
85,308,59566,2,0,L|92:358,2,36.6666666666667,8|0|8,0:0|0:0|0:0,0:0:0:0:
126,233,59804,6,0,P|165:215|212:219,1,73.3333333333333,6|0,0:3|0:0,0:0:0:0:
235,305,60042,2,0,P|291:319|321:304,1,73.3333333333333,8|0,0:0|0:0,0:0:0:0:
296,167,60280,2,0,P|336:159|398:182,1,73.3333333333333,4|0,0:3|0:0,0:0:0:0:
401,342,60518,2,0,P|458:349|492:335,1,73.3333333333333,8|8,0:0|0:0,0:0:0:0:
394,251,60756,6,0,L|269:240,1,110,4|8,0:3|0:0,0:0:0:0:
118,215,61153,1,0,0:0:0:0:
66,156,61233,2,0,L|45:111,2,36.6666666666667,4|8|0,0:3|0:0|0:0,0:0:0:0:
167,154,61471,2,0,L|193:101,2,36.6666666666667,0|8|8,0:0|0:3|0:3,0:0:0:0:
118,215,61709,6,0,L|117:64,1,137.500005245209,6|0,0:0|0:0,0:0:0:0:
203,28,62185,2,0,P|248:17|301:35,1,82.5000031471254,2|8,0:0|0:0,0:0:0:0:
457,108,62661,2,0,P|407:119|334:100,1,123.750004720688,6|0,0:0|0:0,0:0:0:0:
337,102,63137,2,0,L|328:199,1,82.5000031471254,8|8,0:0|0:3,0:0:0:0:
331,354,63614,6,0,P|366:326|381:274,1,82.5000031471254,6|0,0:0|0:0,0:0:0:0:
289,272,63971,2,0,L|198:249,1,82.5000031471254,0|0,0:0|0:0,0:0:0:0:
131,313,64328,1,8,0:0:0:0:
38,218,64566,2,0,L|46:122,1,82.5000031471254,6|0,0:0|0:0,0:0:0:0:
61,24,65042,1,8,0:0:0:0:
114,160,65280,1,8,0:3:0:0:
208,49,65518,6,0,P|244:29|271:29,1,55.0000020980836,4|0,0:0|0:0,0:0:0:0:
342,72,65756,2,0,L|378:68,2,27.5000010490418,8|8|8,0:0|0:0|0:0,0:0:0:0:
279,138,65995,2,0,L|243:134,2,27.5000010490418,8|0|8,0:3|0:0|0:3,0:0:0:0:
347,198,66233,2,0,L|383:194,2,27.5000010490418,4|8|4,0:3|0:3|0:3,0:0:0:0:
309,325,66471,1,4,0:0:0:0:
309,325,66947,1,2,0:0:0:0:
309,325,67423,6,0,P|266:333|215:317,1,73.3333333333333,4|0,0:0|0:0,0:0:0:0:
165,291,67661,2,0,L|162:216,1,65.9999979858399,8|0,0:0|0:0,0:0:0:0:
244,48,68058,1,0,0:0:0:0:
244,48,68137,2,0,L|247:123,1,65.9999979858399,8|0,0:0|0:0,0:0:0:0:
262,235,68376,2,0,P|294:254|336:265,1,65.9999979858399,4|0,0:3|0:0,0:0:0:0:
315,140,68614,2,0,P|333:172|364:202,1,65.9999979858399,8|0,0:0|0:0,0:0:0:0:
403,75,68852,2,0,P|402:112|414:154,1,65.9999979858399,4|0,0:3|0:0,0:0:0:0:
511,73,69090,2,0,P|492:104|480:147,1,65.9999979858399,8|0,0:0|0:0,0:0:0:0:
452,232,69328,5,4,0:3:0:0:
315,140,69566,2,0,L|229:136,1,65.9999979858399,8|0,0:0|0:0,0:0:0:0:
215,136,69804,1,4,0:3:0:0:
279,259,70042,1,8,0:0:0:0:
177,288,70201,1,0,0:0:0:0:
177,288,70280,2,0,P|176:320|160:349,1,65.9999979858399,4|0,0:3|0:0,0:0:0:0:
118,234,70518,2,0,P|101:262|73:278,1,65.9999979858399,8|0,0:0|0:0,0:0:0:0:
106,151,70756,2,0,P|77:166|44:167,1,65.9999979858399,4|0,0:3|0:0,0:0:0:0:
121,73,70995,2,0,P|88:72|59:56,1,65.9999979858399,8|0,0:0|0:0,0:0:0:0:
209,27,71233,6,0,L|296:18,1,65.9999979858399,4|0,0:0|0:0,0:0:0:0:
358,74,71471,2,0,L|338:167,1,65.9999979858399,8|0,0:0|0:0,0:0:0:0:
306,332,71868,1,0,0:0:0:0:
306,332,71947,2,0,L|286:239,1,65.9999979858399,8|0,0:0|0:0,0:0:0:0:
415,226,72185,2,0,P|449:233|482:250,1,65.9999979858399,4|0,0:3|0:0,0:0:0:0:
478,135,72423,2,0,P|445:137|415:148,1,65.9999979858399,8|0,0:0|0:0,0:0:0:0:
277,149,72661,2,0,L|280:63,1,65.9999979858399,4|0,0:3|0:0,0:0:0:0:
360,8,72899,2,0,L|357:73,1,65.9999979858399,8|0,0:0|0:0,0:0:0:0:
345,208,73137,5,0,0:0:0:0:
113,279,73376,2,0,L|109:353,1,65.9999979858399,8|0,0:0|0:0,0:0:0:0:
207,274,73614,2,0,L|211:200,1,65.9999979858399,2|0,0:3|0:0,0:0:0:0:
126,118,73852,2,0,L|122:183,1,65.9999979858399,8|0,0:0|0:0,0:0:0:0:
58,81,74090,2,0,P|49:41|65:-3,1,65.9999979858399,2|0,0:3|0:0,0:0:0:0:
207,23,74328,2,0,P|209:63|189:110,1,65.9999979858399,2|8,0:3|0:3,0:0:0:0:
126,118,74566,2,0,L|126:155,2,32.99999899292,8|8|8,0:3|0:3|0:3,0:0:0:0:
52,196,74804,2,0,L|52:229,2,32.99999899292,8|8|8,0:3|0:3|0:3,0:0:0:0:
157,369,75280,6,0,P|190:336|258:318,1,98.9999969787599,4|8,0:0|0:0,0:0:0:0:
365,353,75677,1,0,0:0:0:0:
365,353,75756,2,0,L|433:306,1,65.9999979858399,4|8,0:3|0:0,0:0:0:0:
460,227,75995,2,0,P|458:191|464:145,1,65.9999979858399,6|0,0:3|0:0,0:0:0:0:
369,108,76233,2,0,P|371:148|370:174,1,65.9999979858399,8|0,0:0|0:0,0:0:0:0:
296,245,76471,2,0,L|211:249,1,65.9999979858399,4|0,0:3|0:0,0:0:0:0:
146,166,76709,2,0,L|215:165,1,65.9999979858399,8|0,0:0|0:0,0:0:0:0:
260,78,76947,5,4,0:3:0:0:
94,51,77185,2,0,P|81:89|84:122,1,65.9999979858399,8|0,0:0|0:0,0:0:0:0:
146,166,77423,2,0,P|159:204|156:237,1,65.9999979858399,4|0,0:3|0:0,0:0:0:0:
78,276,77661,2,0,P|65:314|68:347,1,65.9999979858399,8|8,0:0|0:0,0:0:0:0:
156,382,77899,1,4,0:3:0:0:
249,266,78058,1,0,0:0:0:0:
249,266,78137,2,0,L|330:259,1,65.9999979858399,8|0,0:0|0:0,0:0:0:0:
292,168,78376,2,0,L|373:161,1,65.9999979858399,4|0,0:3|0:0,0:0:0:0:
328,80,78614,2,0,L|409:73,1,65.9999979858399,8|0,0:0|0:0,0:0:0:0:
486,68,78852,5,4,0:0:0:0:
473,256,79090,2,0,L|469:354,1,98.9999969787599,8|4,0:0|0:3,0:0:0:0:
343,239,79566,2,0,L|346:161,1,65.9999979858399,8|8,0:0|0:0,0:0:0:0:
286,108,79804,2,0,P|248:99|217:109,1,65.9999979858399,6|0,0:3|0:0,0:0:0:0:
223,200,80042,2,0,P|185:208|138:185,1,65.9999979858399,8|0,0:0|0:0,0:0:0:0:
132,103,80280,2,0,L|56:125,1,65.9999979858399,4|0,0:3|0:0,0:0:0:0:
54,206,80518,2,0,L|58:250,3,32.99999899292,8|0|0|4,0:0|0:0|0:0|0:3,0:0:0:0:
206,306,80995,5,8,0:0:0:0:
343,239,81233,1,4,0:3:0:0:
200,183,81471,1,8,0:0:0:0:
286,108,81630,1,0,0:0:0:0:
286,108,81709,2,0,L|366:111,1,65.9999979858399,4|0,0:3|0:0,0:0:0:0:
425,177,81947,2,0,L|419:252,1,65.9999979858399,8|8,0:0|0:3,0:0:0:0:
364,295,82185,2,0,L|324:321,2,32.99999899292,8|8|8,0:0|0:0|0:0,0:0:0:0:
468,300,82423,2,0,L|508:326,2,32.99999899292,8|8|8,0:0|0:0|0:0,0:0:0:0:
413,348,82661,1,8,0:0:0:0:
256,227,82899,5,4,0:0:0:0:
256,192,83018,12,2,88376,0:0:0:0:
