osu file format v14

[General]
AudioFilename: Ray - Hajimete Girls!.mp3
AudioLeadIn: 0
PreviewTime: 46391
Countdown: 0
SampleSet: Soft
StackLeniency: 0.7
Mode: 0
LetterboxInBreaks: 0
WidescreenStoryboard: 0

[Editor]
Bookmarks: 757,8376,15995,23614,31233,38852,46471,61709,67423,75280,82899,88376
DistanceSpacing: 0.9
BeatDivisor: 2
GridSize: 8
TimelineZoom: 3.599999

[Metadata]
Title:Hajimete Girls!
TitleUnicode:初めてガールズ!
Artist:Ray
ArtistUnicode:Ray
Creator:Meyrink
Version:Normal
Source:わかば*ガール
Tags:wakaba*girl 畑 亜貴 ミト Aki Hata mito OP テーマ Opening Theme TV Size 7th Single yf_bmp IamKwaN Kwan Pho Skystar Amamiya Yuko
BeatmapID:732545
BeatmapSetID:330566

[Difficulty]
HPDrainRate:2
CircleSize:3
OverallDifficulty:2
ApproachRate:4
SliderMultiplier:0.6
SliderTickRate:1

[Events]
//Background and Video events
0,0,"BGEdit.jpg",0,0
Video,60,"Opening.flv"
//Break Periods
2,67623,73960
//Storyboard Layer 0 (Background)
//Storyboard Layer 1 (Fail)
//Storyboard Layer 2 (Pass)
//Storyboard Layer 3 (Foreground)
//Storyboard Sound Samples

[TimingPoints]
757,238.095238095238,4,2,88,50,1,0
8376,-100,4,2,88,80,0,0
15995,-100,4,2,88,60,0,0
23614,-100,4,2,88,70,0,0
31233,-100,4,2,88,60,0,0
38852,-100,4,2,88,70,0,0
44566,-100,4,2,88,80,0,0
46471,-100,4,2,88,80,0,1
61709,-100,4,2,88,75,0,0
67423,-100,4,2,88,60,0,0
75280,-100,4,2,88,80,0,0
82899,-100,4,2,88,70,0,0
84566,-100,4,2,88,50,0,0
86471,-100,4,2,88,30,0,0
88376,-100,4,2,88,10,0,0

[Colours]
Combo1 : 255,165,43
Combo2 : 5,203,245
Combo3 : 252,129,172
Combo4 : 191,128,213

[HitObjects]
502,121,757,5,2,0:1:0:0:
502,121,995,2,0,L|492:253,1,120,4|4,3:0|3:0,0:0:0:0:
471,290,1709,2,0,B|443:312|443:312|398:320|362:292,1,120,4|4,3:0|3:0,0:0:0:0:
277,228,2661,1,4,0:3:0:0:
277,228,2899,2,0,L|147:231,1,120,4|4,3:0|3:0,0:0:0:0:
102,233,3614,1,4,3:0:0:0:
21,162,4090,1,4,3:0:0:0:
97,86,4566,5,2,0:1:0:0:
97,86,4804,2,0,L|216:76,1,120,4|4,3:0|3:0,0:0:0:0:
261,107,5518,2,0,P|321:111|377:70,1,120,4|4,3:0|3:0,0:0:0:0:
475,99,6471,1,4,0:3:0:0:
475,99,6709,2,0,L|465:221,1,120,4|4,3:0|3:0,0:0:0:0:
458,272,7423,1,4,3:0:0:0:
263,366,8376,6,0,B|255:334|221:329|221:329|172:366|101:329,1,180,4|8,0:0|0:0,0:0:0:0:
65,299,9328,2,0,P|45:242|65:184,1,120,4|4,0:3|0:3,0:0:0:0:
151,124,10280,1,4,0:3:0:0:
235,190,10756,2,0,B|272:213|272:213|306:216|353:181,2,120,4|4|4,0:3|0:3|0:3,0:0:0:0:
300,106,12185,6,0,P|383:100|436:174,1,180,4|8,0:0|0:0,0:0:0:0:
446,225,13137,2,0,L|422:350,1,120,4|4,0:3|0:3,0:0:0:0:
326,296,14090,1,4,0:3:0:0:
326,296,14328,2,0,P|269:285|212:310,1,120,8|8,0:0|0:0,0:0:0:0:
166,333,15042,2,0,P|67:352|48:229,1,240,4|12,0:3|0:0,0:0:0:0:
127,173,16471,6,0,L|253:165,1,120,2|4,0:3|1:2,0:0:0:0:
284,63,17423,2,0,L|410:55,1,120,2|4,0:3|1:2,0:0:0:0:
454,75,18137,2,0,B|484:108|484:108|494:144|467:193,1,120,2|0,0:3|0:0,0:0:0:0:
434,218,18852,1,4,1:2:0:0:
500,304,19328,1,4,1:2:0:0:
413,366,19804,6,0,B|354:367|321:323|321:323|293:345|247:340,1,180,4|8,0:0|0:0,0:0:0:0:
206,311,20756,2,0,L|86:308,1,120,4|0,0:3|0:0,0:0:0:0:
36,212,21709,2,0,B|12:132|34:77|34:77|89:102,1,180,4|8,0:3|0:0,0:0:0:0:
123,115,22661,2,0,P|176:128|236:98,1,120,4|8,0:3|0:0,0:0:0:0:
316,30,23614,6,0,L|436:37,1,120,4|4,1:2|0:3,0:0:0:0:
485,133,24566,2,0,L|365:140,1,120,4|4,1:2|0:3,0:0:0:0:
319,237,25518,2,0,L|439:244,1,120,4|4,1:2|0:3,0:0:0:0:
472,347,26471,2,0,B|417:363|379:333|379:333|337:328|290:354,1,180,4|8,1:2|0:0,0:0:0:0:
247,358,27423,6,0,B|202:361|159:347|159:347|138:309|138:257,1,180,4|8,0:0|0:0,0:0:0:0:
135,205,28376,2,0,P|74:216|23:188,1,120,4|0,0:3|0:0,0:0:0:0:
45,83,29328,2,0,P|106:72|157:100,1,120,4|4,0:0|0:3,0:0:0:0:
240,166,30280,2,0,B|328:202|328:130|420:174,1,180,4|8,0:0|0:0,0:0:0:0:
454,209,31233,6,0,B|485:258|465:303|465:303|380:327,1,180,4|8,0:0|0:0,0:0:0:0:
335,336,32185,1,2,0:3:0:0:
236,293,32661,1,10,0:0:0:0:
149,356,33137,2,0,P|60:358|28:267,1,180,2|8,0:3|0:3,0:0:0:0:
43,233,34090,2,0,L|166:217,1,120,2|2,0:3|0:0,0:0:0:0:
270,226,35042,6,0,P|244:138|161:110,1,180,4|8,0:0|0:0,0:0:0:0:
114,120,35995,1,0,0:0:0:0:
162,217,36471,1,8,0:0:0:0:
270,226,36947,2,0,B|378:232|378:232|402:196|447:196,1,180,4|8,0:0|0:0,0:0:0:0:
486,172,37899,2,0,P|502:114|478:58,1,120,8|8,0:3|0:0,0:0:0:0:
376,30,38852,6,0,P|318:15|251:34,1,120,4|8,0:0|0:3,0:0:0:0:
189,109,39804,2,0,L|67:91,1,120,4|0,0:3|0:0,0:0:0:0:
25,189,40756,2,0,B|13:234|29:269|29:269|63:289,2,120,4|4|6,0:3|0:3|0:3,0:0:0:0:
78,95,42185,1,4,0:3:0:0:
160,165,42661,6,0,P|221:177|276:151,1,120,6|0,0:0|0:0,0:0:0:0:
339,69,43614,2,0,P|400:57|455:83,1,120,4|4,0:3|0:3,0:0:0:0:
485,182,44566,2,0,B|496:251|456:291|456:291|400:259|339:291,1,240,8|8,0:0|0:0,0:0:0:0:
134,357,46471,6,0,B|85:359|57:341|57:341|39:303,2,120,4|4|4,0:0|0:3|0:3,0:0:0:0:
226,298,47899,1,4,0:3:0:0:
321,351,48376,2,0,P|381:356|431:322,1,120,6|4,0:3|0:3,0:0:0:0:
485,231,49328,2,0,L|475:106,1,120,4|4,0:3|0:3,0:0:0:0:
382,55,50280,6,0,B|333:51|333:51|307:61|307:61|251:58,2,120,4|4|6,0:0|0:3|0:3,0:0:0:0:
476,111,51709,1,4,0:3:0:0:
468,218,52185,2,0,P|424:207|377:149,1,120,6|4,0:3|0:3,0:0:0:0:
272,133,53137,2,0,L|87:124,1,180,4|8,0:3|0:3,0:0:0:0:
49,92,54090,6,0,P|67:148|47:203,1,120,4|4,0:0|0:3,0:0:0:0:
20,308,55042,2,0,P|81:297|128:332,1,120,4|4,0:3|0:3,0:0:0:0:
230,359,55995,2,0,B|295:325|344:362|344:362|378:357|386:325,1,180,6|8,0:3|0:0,0:0:0:0:
402,274,56947,1,4,0:3:0:0:
336,189,57423,1,4,0:3:0:0:
244,244,57899,6,0,P|187:228|147:184,1,120,4|4,0:0|0:3,0:0:0:0:
57,124,58852,2,0,P|105:84|175:79,1,120,6|4,0:3|0:3,0:0:0:0:
256,25,59804,2,0,P|270:85|243:149,1,120,6|4,0:3|0:3,0:0:0:0:
244,244,60756,2,0,B|307:250|339:200|339:200|368:222|410:218,1,180,4|0,0:3|0:0,0:0:0:0:
459,218,61709,6,0,L|466:341,2,120,6|2|6,0:0|0:0|0:0,0:0:0:0:
451,110,63137,1,8,0:0:0:0:
356,160,63614,2,0,B|313:171|268:165|268:165|240:132|230:81,1,180,6|8,0:0|0:0,0:0:0:0:
191,45,64566,2,0,L|60:42,1,120,6|8,0:0|0:0,0:0:0:0:
43,146,65518,6,0,B|74:203|40:259|40:259|45:293|77:301,1,180,4|4,0:0|0:3,0:0:0:0:
130,317,66471,2,0,L|249:310,2,120,4|2|4,0:0|0:0|0:0,0:0:0:0:
485,263,75280,6,0,P|431:239|373:250,1,120,4|4,0:0|0:3,0:0:0:0:
337,290,75995,2,0,L|207:282,1,120,6|4,0:3|0:3,0:0:0:0:
151,197,76947,1,4,0:3:0:0:
237,131,77423,2,0,B|260:94|260:94|260:51|219:12,2,120,4|4|4,0:3|0:3|0:3,0:0:0:0:
131,111,78852,6,0,P|71:164|84:255,1,180,4|8,0:0|0:0,0:0:0:0:
118,298,79804,2,0,L|244:294,1,120,6|0,0:3|0:0,0:0:0:0:
328,353,80756,1,4,0:3:0:0:
328,353,80994,2,0,P|386:351|436:315,1,120,8|8,0:0|0:0,0:0:0:0:
453,265,81709,2,0,L|468:138,2,120,4|8|8,0:3|0:0|0:0,0:0:0:0:
256,192,82899,12,2,88376,0:0:0:0:
