osu file format v14

[General]
AudioFilename: audio.mp3
AudioLeadIn: 0
PreviewTime: 50384
Countdown: 0
SampleSet: Normal
StackLeniency: 0.7
Mode: 0
LetterboxInBreaks: 0
WidescreenStoryboard: 1

[Editor]
Bookmarks: 27747,52648,70758
DistanceSpacing: 2
BeatDivisor: 4
GridSize: 8
TimelineZoom: 1.7

[Metadata]
Title:Ebb and flow (TV-Size)
TitleUnicode:Ebb and flow (TV-Size)
Artist:Ray
ArtistUnicode:Ray
Creator:ilhamilham
Version:Hard
Source:凪のあすから
Tags:Nagi no Asukara
BeatmapID:1084859
BeatmapSetID:510243

[Difficulty]
HPDrainRate:5
CircleSize:4
OverallDifficulty:7
ApproachRate:7
SliderMultiplier:1.4
SliderTickRate:2

[Events]
//Background and Video events
0,0,"835465-nagi-no-asukara-wallpaper.jpg",0,0
//Break Periods
//Storyboard Layer 0 (Background)
//Storyboard Layer 1 (Fail)
//Storyboard Layer 2 (Pass)
//Storyboard Layer 3 (Foreground)
//Storyboard Sound Samples

[TimingPoints]
583,565.930956423316,4,2,0,20,1,0
8223,-100,4,2,1,23,0,0
8506,-100,4,2,1,26,0,0
8930,-100,4,2,1,29,0,0
9354,-100,4,2,1,32,0,0
9637,-100,4,1,1,35,0,0
26898,-100,4,1,1,40,0,0
36378,-100,4,1,1,30,0,0
36661,-100,4,1,1,40,0,0
50101,-100,4,2,0,5,0,0
50384,-125,4,2,0,20,0,0
52648,-83.3333333333333,4,1,1,65,0,1
52790,-83.3333333333333,4,1,1,15,0,1
53214,-83.3333333333333,4,1,1,65,0,1
54346,-83.3333333333333,4,1,1,65,0,1
68494,-100,4,1,1,65,0,0
70758,-83.3333333333333,4,1,1,65,0,1
86604,-100,4,2,1,75,0,0
87170,-100,4,2,1,65,0,0
87453,-100,4,2,1,55,0,0
87736,-100,4,2,1,45,0,0
88302,-100,4,2,1,35,0,0
88585,-100,4,2,1,25,0,0
88868,-100,4,2,1,15,0,0
89717,-100,4,2,0,5,0,0

[Colours]
Combo1 : 255,159,255
Combo2 : 0,128,255
Combo3 : 128,255,255
Combo4 : 128,128,192
Combo5 : 0,0,255

[HitObjects]
36,222,583,6,0,L|105:228,1,70
163,167,1148,2,0,L|232:160,1,70
302,113,1714,2,0,P|282:161|292:212,2,105
364,169,2846,6,0,P|380:138|382:103,1,70
392,243,3412,2,0,P|421:224|440:195,1,70
386,325,3978,2,0,B|313:312|313:312|282:315,1,105
160,349,4827,1,0,0:0:0:0:
112,279,5110,6,0,L|122:209,1,70
69,143,5676,2,0,L|58:73,1,70
129,28,6242,2,0,P|179:42|231:47,1,105
350,6,7091,6,0,L|339:145,1,140
256,192,7940,12,0,9637,0:0:0:0:
160,296,10062,6,0,P|184:256|184:256,1,35
248,256,10345,2,0,B|256:208|256:208|272:200,1,35
320,192,10628,6,0,B|360:160|360:160|360:104|360:104,1,105
224,144,11335,2,0,L|136:160,1,70
248,264,11901,2,0,L|328:264,1,70
424,176,12467,1,0,0:0:0:0:
312,96,12750,2,0,P|272:80|232:80,1,70
200,152,13316,6,0,P|168:216|200:288,1,140
328,256,14165,2,0,L|416:208,1,70
200,128,14731,5,0,0:0:0:0:
248,176,14872,1,0,0:0:0:0:
200,224,15014,1,0,0:0:0:0:
248,280,15155,1,0,0:0:0:0:
296,336,15297,2,0,B|336:336|344:328|344:328|352:296,1,70
424,192,15863,2,0,P|384:152|360:136,1,70
168,216,16429,6,0,P|176:168|192:152,2,70
288,272,17277,2,0,P|288:200|360:176,1,140
336,72,18126,6,8,L|240:72,1,70
72,64,18692,2,0,P|96:104|96:152,1,70
208,328,19258,1,0,0:0:0:0:
288,240,19541,5,0,0:0:0:0:
256,208,19683,1,0,0:0:0:0:
232,176,19824,2,0,P|208:144|216:96,1,70
288,72,20390,2,0,P|360:152|360:192,1,140
256,336,21239,6,0,L|248:248,1,70
216,168,21805,2,0,P|184:136|144:136,1,70
296,216,22371,5,0,0:0:0:0:
296,216,22654,1,0,0:0:0:0:
296,216,22937,1,0,0:0:0:0:
296,224,23220,2,0,B|272:160|240:144|248:152,1,70
200,96,23786,2,0,P|136:72|112:72,1,70
128,248,24352,5,0,0:0:0:0:
128,248,24635,1,0,0:0:0:0:
128,248,24918,2,0,P|176:288|200:304,1,70
392,296,25483,2,0,L|392:208,2,70
248,264,26332,1,0,0:0:0:0:
264,104,26898,5,0,0:0:0:0:
264,104,27181,2,8,P|224:104|192:128,1,70
120,192,27747,2,0,L|120:280,1,70
224,296,28313,5,0,0:0:0:0:
208,256,28455,1,0,0:0:0:0:
224,208,28596,1,0,0:0:0:0:
264,168,28738,1,0,0:0:0:0:
304,160,28879,2,0,P|320:224|328:248,1,70
232,104,29445,2,0,P|192:96|152:112,1,70
128,168,30011,6,0,B|152:224|152:224|120:312,1,140
264,336,30860,2,0,P|296:288|320:296,1,70
360,232,31426,1,0,0:0:0:0:
360,232,31709,2,0,B|368:176|368:176|408:160,1,70
280,72,32275,2,0,B|264:168|264:168|216:152,1,140
176,264,32982,1,0,0:0:0:0:
144,216,33124,1,0,0:0:0:0:
112,160,33265,1,0,0:0:0:0:
88,112,33406,2,0,P|112:64|144:56,1,70
392,112,33972,2,0,P|344:80|304:72,1,70
176,96,34538,2,0,P|176:144|200:176,1,70
184,272,35104,1,0,0:0:0:0:
336,288,35387,1,0,0:0:0:0:
224,160,35953,6,0,P|176:128|136:128,1,70
256,256,36519,1,0,0:0:0:0:
360,192,36802,1,0,0:0:0:0:
344,104,37085,2,0,P|296:104|264:120,1,70
240,232,37651,6,0,B|168:208|168:200|160:128,1,140
40,160,38500,2,0,B|80:216|96:232|104:232,1,70
176,328,39066,2,0,P|232:296|256:312,2,70
352,256,39915,2,0,B|352:184|368:168|368:96,1,140
128,296,40764,6,0,P|152:240|176:216,1,70
248,224,41330,2,0,B|312:280|328:264|368:216,1,140
400,112,42178,6,0,B|344:96|336:144|248:128,1,140
168,168,43027,5,0,0:0:0:0:
96,280,43593,2,0,B|160:272|160:272|232:312,1,140
336,256,44442,5,0,0:0:0:0:
336,256,44725,2,0,B|312:176|312:160|272:120,1,140
200,144,45574,1,0,0:0:0:0:
200,144,46140,6,0,P|248:184|256:208,1,70
328,264,46706,2,0,B|320:216|336:176|392:296,1,140
256,192,47555,12,0,50101,0:0:0:0:
344,336,50384,5,0,0:0:0:0:
240,312,50950,1,0,0:0:0:0:
128,272,51516,1,0,0:0:0:0:
40,240,52082,1,0,0:0:0:0:
31,149,52648,6,0,P|110:129|179:173,1,167.999994873047
233,258,53497,2,0,P|312:278|380:234,1,167.999994873047
347,138,54346,2,0,L|356:54,1,83.9999974365235
215,147,54912,5,0,0:0:0:0:
227,247,55195,1,0,0:0:0:0:
240,346,55478,1,0,0:0:0:0:
148,303,55761,6,0,B|203:295|203:295|313:315,1,167.999994873047
411,339,56610,1,0,0:0:0:0:
486,272,56893,1,0,0:0:0:0:
486,171,57176,6,0,B|444:160|403:171|403:171|361:181|320:171,1,167.999994873047
213,40,58024,2,0,P|294:33|354:89,1,167.999994873047
442,39,58873,2,0,P|454:78|448:120,1,83.9999974365235
389,202,59439,6,0,P|376:241|382:283,1,83.9999974365235
477,249,60005,1,0,0:0:0:0:
459,348,60288,2,0,B|340:335|340:335|290:343,1,167.999994873047
203,293,61137,2,0,P|167:315|126:320,1,83.9999974365235
88,224,61703,6,0,P|104:160|128:136,1,83.9999974365235
192,72,62269,5,0,0:0:0:0:
192,72,62552,1,0,0:0:0:0:
304,128,63118,1,0,0:0:0:0:
304,128,63401,1,0,0:0:0:0:
448,176,63684,2,0,P|432:240|432:280,1,83.9999974365235
232,320,64250,2,0,B|288:256|304:232|304:176|288:168,1,167.999994873047
192,88,65099,6,0,P|136:56|104:48,1,83.9999974365235
104,208,65665,2,0,B|96:256|112:288|104:312,1,83.9999974365235
272,336,66230,2,0,B|272:264|272:264|376:328,1,167.999994873047
432,184,67079,5,0,0:0:0:0:
432,184,67362,1,0,0:0:0:0:
336,56,67645,2,0,B|272:72|272:72|272:120,2,83.9999974365235
280,184,68494,6,0,B|232:216|200:224|128:208,1,140
136,88,69343,2,0,P|200:80|232:96,1,70
304,296,69909,5,0,0:0:0:0:
304,296,70192,2,0,P|336:224|336:216,1,70
224,88,70758,6,0,B|176:136|184:176|200:280,1,167.999994873047
416,360,71607,2,0,B|408:280|408:272|440:272|448:176,1,167.999994873047
432,96,72456,2,0,P|368:128|360:144,1,83.9999974365235
272,256,73022,1,0,0:0:0:0:
392,232,73305,6,0,P|432:296|448:312,1,83.9999974365235
96,232,73871,1,0,0:0:0:0:
96,224,74154,1,0,0:0:0:0:
160,312,74436,2,0,P|240:288|240:280,1,83.9999974365235
384,296,75002,6,0,B|384:232|376:192|320:128,1,167.999994873047
192,136,75851,1,0,0:0:0:0:
56,128,76134,2,0,P|112:200|120:208,1,83.9999974365235
64,336,76700,2,0,L|176:296,1,83.9999974365235
312,336,77266,2,0,P|264:256|264:256,1,83.9999974365235
200,96,77832,5,0,0:0:0:0:
200,112,78115,2,0,B|200:168|200:208|112:240,1,167.999994873047
328,224,78964,2,0,P|312:160|288:120,1,83.9999974365235
112,80,79530,1,0,0:0:0:0:
200,112,79813,2,0,P|200:176|152:280,1,167.999994873047
320,312,80662,6,0,B|312:240|312:208|368:128,1,167.999994873047
72,72,81511,2,0,P|96:136|144:152,1,83.9999974365235
216,64,82077,1,0,0:0:0:0:
312,112,82360,6,0,P|272:152|240:256,1,167.999994873047
424,280,83208,2,0,L|432:192,1,83.9999974365235
168,72,83774,5,0,0:0:0:0:
112,144,84057,2,0,P|128:216|104:320,1,167.999994873047
400,312,84906,2,0,P|368:248|336:216,1,83.9999974365235
280,232,85472,5,0,0:0:0:0:
280,232,85755,2,0,P|248:296|240:344,1,83.9999974365235
96,216,86321,1,0,0:0:0:0:
256,192,86604,12,0,89717,0:0:0:0:
