osu file format v14

[General]
AudioFilename: audio.mp3
AudioLeadIn: 0
PreviewTime: 63793
Countdown: 0
SampleSet: Soft
StackLeniency: 0.4
Mode: 0
LetterboxInBreaks: 0
WidescreenStoryboard: 0

[Editor]
Bookmarks: 6928,15064,25911,36759,47606,53030,63877,74725
DistanceSpacing: 0.6
BeatDivisor: 4
GridSize: 8
TimelineZoom: 1.9

[Metadata]
Title:BabyLady LOVE
TitleUnicode:Baby→Lady LOVE
Artist:Ray
ArtistUnicode:Ray
Creator:HibikiDesu
Version:Extra: Chocola
Source:Nekopara OVA
Tags:Nekopara TV Size
BeatmapID:1294293
BeatmapSetID:613459

[Difficulty]
HPDrainRate:6.4
CircleSize:4.2
OverallDifficulty:8
ApproachRate:9
SliderMultiplier:1.7
SliderTickRate:1

[Events]
//Background and Video events
0,0,"Chocola.jpg",0,0
//Break Periods
//Storyboard Layer 0 (Background)
//Storyboard Layer 1 (Fail)
//Storyboard Layer 2 (Pass)
//Storyboard Layer 3 (Foreground)
//Storyboard Sound Samples

[TimingPoints]
1505,338.983050847458,4,2,1,67,1,0
6928,-83.3333333333333,4,2,1,67,0,0
12352,-166.666666666667,4,2,1,67,0,0
15064,-83.3333333333333,4,2,1,67,0,0
47606,-100,4,2,1,67,0,0
53030,-166.666666666667,4,2,1,67,0,0
59810,-166.666666666667,4,2,2,67,0,0
61166,-166.666666666667,4,2,1,67,0,0
63877,-83.3333333333333,4,2,1,67,0,1
86928,-83.3333333333333,4,2,1,67,0,0

[HitObjects]
373,82,1505,6,0,P|400:135|348:236,1,170,4|0,0:0|0:0,0:0:0:0:
189,243,2013,2,0,P|224:169|304:149,1,170,4|0,0:0|0:0,0:0:0:0:
432,258,2691,6,0,P|354:285|283:243,1,170,4|0,0:0|0:0,0:0:0:0:
320,98,3199,2,0,B|364:70|364:70|363:196,1,170,4|4,0:0|0:0,0:0:0:0:
363,287,3708,1,8,0:0:0:0:
364,71,3877,1,8,0:0:0:0:
90,274,4216,5,4,0:0:0:0:
150,114,4386,1,0,0:0:0:0:
258,245,4555,1,0,0:0:0:0:
65,128,4725,2,0,P|97:52|176:29,1,170,4|0,0:0|0:0,0:0:0:0:
244,118,5233,1,0,0:0:0:0:
261,211,5403,6,0,P|182:189|150:114,1,170,4|0,0:0|0:0,0:0:0:0:
202,8,5911,1,4,0:0:0:0:
244,118,6081,1,0,0:0:0:0:
121,44,6250,1,4,0:0:0:0:
367,192,6589,1,8,0:0:0:0:
367,192,6928,6,0,P|361:244|308:284,1,101.999996887207,6|0,0:0|0:0,0:0:0:0:
195,259,7267,1,8,0:0:0:0:
317,95,7437,2,0,B|345:137|345:137|286:138,1,101.999996887207,4|2,0:0|0:0,0:0:0:0:
115,111,7776,2,0,B|90:156|90:156|141:153,1,101.999996887207,0|8,0:0|0:0,0:0:0:0:
424,139,8115,6,2,B|427:274|427:274|365:312,1,203.999993774414,6|2,0:0|0:0,0:0:0:0:
339,320,8538,1,0,0:0:0:0:
306,335,8623,2,0,B|305:167|305:167|249:207,1,203.999993774414,12|6,0:0|0:0,0:0:0:0:
170,270,9132,1,8,0:0:0:0:
379,110,9301,1,8,0:0:0:0:
379,110,9640,5,6,0:0:0:0:
170,270,9810,1,0,0:0:0:0:
431,305,9979,1,8,0:0:0:0:
272,96,10149,2,0,P|192:66|107:150,1,203.999993774414,6|2,0:0|0:0,0:0:0:0:
170,270,10657,1,8,0:0:0:0:
272,96,10827,6,0,P|326:30|441:60,1,203.999993774414,6|2,0:0|0:0,0:0:0:0:
202,162,11335,1,8,0:0:0:0:
365,118,11505,1,8,0:0:0:0:
365,118,11589,1,2,0:0:0:0:
365,118,11674,5,10,0:0:0:0:
117,185,11928,1,8,0:0:0:0:
300,367,12182,1,8,0:0:0:0:
260,223,12352,2,0,B|206:18|206:18|173:74,1,254.999992218018,10|0,0:0|0:0,0:0:0:0:
115,183,13369,1,8,0:0:0:0:
489,84,13538,5,10,0:0:0:0:
117,185,13877,1,10,0:0:0:0:
451,376,14216,1,10,0:0:0:0:
376,114,14386,2,0,P|293:137|293:137,1,76.4999976654053,2|0,0:0|0:0,0:0:0:0:
456,96,14725,1,8,0:0:0:0:
487,85,15064,5,2,0:0:0:0:
394,266,15233,1,0,0:0:0:0:
283,94,15403,2,0,P|242:83|164:123,1,101.999996887207,12|0,0:0|0:0,0:0:0:0:
174,251,15742,2,0,P|210:229|237:146,1,101.999996887207,6|0,0:0|0:0,0:0:0:0:
140,62,16081,1,8,0:0:0:0:
88,232,16250,1,2,0:0:0:0:
245,149,16420,5,0,0:0:0:0:
76,97,16589,1,2,0:0:0:0:
159,253,16759,2,0,P|193:277|280:268,1,101.999996887207,12|0,0:0|0:0,0:0:0:0:
317,145,17098,2,0,P|275:152|220:220,1,101.999996887207,6|0,0:0|0:0,0:0:0:0:
281,334,17437,1,8,0:0:0:0:
215,140,17606,1,0,0:0:0:0:
281,334,17776,5,2,0:0:0:0:
371,150,17945,1,0,0:0:0:0:
281,334,18115,2,0,P|239:341|164:294,1,101.999996887207,12|0,0:0|0:0,0:0:0:0:
186,167,18454,2,0,P|219:192|239:277,1,101.999996887207,6|0,0:0|0:0,0:0:0:0:
135,353,18793,1,8,0:0:0:0:
101,101,18962,6,0,B|196:76|196:76|293:127,1,203.999993774414,6|2,0:0|0:0,0:0:0:0:
311,138,19386,1,0,0:0:0:0:
311,138,19471,1,12,0:0:0:0:
118,227,19640,1,2,0:0:0:0:
301,245,19810,1,12,0:0:0:0:
127,121,19979,1,2,0:0:0:0:
204,290,20149,1,12,0:0:0:0:
224,78,20318,1,2,0:0:0:0:
118,227,20488,5,2,0:0:0:0:
301,245,20658,1,0,0:0:0:0:
224,78,20827,2,0,P|186:57|100:75,1,101.999996887207,12|0,0:0|0:0,0:0:0:0:
76,201,21166,2,0,P|115:188|163:115,1,101.999996887207,6|0,0:0|0:0,0:0:0:0:
91,8,21505,1,8,0:0:0:0:
178,195,21674,6,0,P|258:225|343:141,1,203.999993774414,6|2,0:0|0:0,0:0:0:0:
276,35,22182,2,0,P|252:68|259:155,1,101.999996887207,12|0,0:0|0:0,0:0:0:0:
372,218,22521,1,6,0:0:0:0:
276,35,22691,1,0,0:0:0:0:
166,210,22860,1,12,0:0:0:0:
166,210,23199,5,6,0:0:0:0:
388,160,23368,1,2,0:0:0:0:
196,39,23538,1,8,0:0:0:0:
247,261,23708,1,2,0:0:0:0:
247,261,23793,1,2,0:0:0:0:
247,261,23877,1,2,0:0:0:0:
367,74,24047,1,6,0:0:0:0:
146,119,24216,1,8,0:0:0:0:
340,240,24386,6,0,P|399:179|357:67,1,203.999993774414,6|2,0:0|0:0,0:0:0:0:
68,135,24894,1,10,0:0:0:0:
309,149,25064,2,0,P|368:209|326:321,1,203.999993774414,6|2,0:0|0:0,0:0:0:0:
277,240,25911,5,2,0:0:0:0:
277,240,26250,2,0,L|178:192,1,101.999996887207,8|0,0:0|0:0,0:0:0:0:
230,111,26589,2,0,L|328:158,1,101.999996887207,2|0,0:0|0:0,0:0:0:0:
368,282,26928,1,8,0:0:0:0:
239,329,27098,1,0,0:0:0:0:
321,155,27267,6,0,P|368:140|417:153,1,101.999996887207,2|0,0:0|0:0,0:0:0:0:
368,282,27606,1,8,0:0:0:0:
184,196,27776,2,0,P|162:114|255:38,1,203.999993774414,2|2,0:0|0:0,0:0:0:0:
430,123,28284,1,8,0:0:0:0:
256,133,28454,1,0,0:0:0:0:
372,3,28623,5,2,0:0:0:0:
382,177,28793,1,0,0:0:0:0:
252,62,28962,2,0,L|207:168,1,101.999996887207,8|0,0:0|0:0,0:0:0:0:
120,76,29301,2,0,L|109:190,1,101.999996887207,2|0,0:0|0:0,0:0:0:0:
101,349,29640,2,0,L|174:258,1,101.999996887207,8|0,0:0|0:0,0:0:0:0:
239,340,29979,6,0,P|322:334|366:223,1,203.999993774414,2|8,0:0|0:0,0:0:0:0:
294,84,30488,2,0,P|238:147|286:256,1,203.999993774414,2|2,0:0|0:0,0:0:0:0:
481,251,30996,1,8,0:0:0:0:
330,173,31166,1,0,0:0:0:0:
481,251,31335,5,2,0:0:0:0:
319,302,31505,1,0,0:0:0:0:
398,152,31674,2,0,L|448:56,1,101.999996887207,8|0,0:0|0:0,0:0:0:0:
481,251,32013,2,0,L|431:347,1,101.999996887207,2|0,0:0|0:0,0:0:0:0:
346,170,32352,2,0,L|250:120,1,101.999996887207,8|0,0:0|0:0,0:0:0:0:
433,341,32691,6,0,P|465:304|473:254,1,101.999996887207,2|0,0:0|0:0,0:0:0:0:
346,170,33030,2,0,P|348:219|378:260,1,101.999996887207,8|0,0:0|0:0,0:0:0:0:
440,190,33369,2,0,L|467:80,1,101.999996887207,2|0,0:0|0:0,0:0:0:0:
346,170,33708,2,0,L|319:280,1,101.999996887207,8|0,0:0|0:0,0:0:0:0:
283,333,34047,6,0,P|205:365|117:284,1,203.999993774414,2|8,0:0|0:0,0:0:0:0:
101,87,34725,2,0,P|150:92|189:124,1,101.999996887207,2|2,0:0|0:0,0:0:0:0:
211,270,35064,1,8,0:0:0:0:
115,182,35233,1,2,0:0:0:0:
115,182,35318,1,2,0:0:0:0:
115,182,35403,6,0,P|158:110|277:124,1,203.999993774414,6|2,0:0|0:0,0:0:0:0:
364,252,35911,2,4,P|282:271|208:178,1,203.999993774414,12|12,0:0|0:0,0:0:0:0:
286,0,36420,1,2,0:0:0:0:
303,178,36589,1,2,0:0:0:0:
303,178,36674,1,2,0:0:0:0:
303,178,36759,5,2,0:0:0:0:
303,178,37098,2,0,P|272:216|224:231,1,101.999996887207,8|0,0:0|0:0,0:0:0:0:
120,118,37437,2,0,P|168:112|213:135,1,101.999996887207,2|0,0:0|0:0,0:0:0:0:
206,289,37776,1,8,0:0:0:0:
218,82,37945,1,0,0:0:0:0:
206,289,38115,6,0,P|246:317|296:318,1,101.999996887207,2|0,0:0|0:0,0:0:0:0:
413,218,38454,1,8,0:0:0:0:
375,90,38623,2,0,P|285:129|276:225,1,203.999993774414,2|2,0:0|0:0,0:0:0:0:
445,344,39132,1,8,0:0:0:0:
362,187,39301,1,0,0:0:0:0:
310,357,39471,5,2,0:0:0:0:
467,274,39640,1,0,0:0:0:0:
298,222,39810,2,0,L|200:192,1,101.999996887207,8|0,0:0|0:0,0:0:0:0:
33,215,40149,2,0,L|131:245,1,101.999996887207,2|0,0:0|0:0,0:0:0:0:
292,295,40488,2,0,L|268:195,1,101.999996887207,8|0,0:0|0:0,0:0:0:0:
231,30,40827,6,0,L|156:99,1,101.999996887207,2|0,0:0|0:0,0:0:0:0:
33,215,41166,1,8,0:0:0:0:
292,295,41335,2,0,P|361:227|335:133,1,203.999993774414,2|2,0:0|0:0,0:0:0:0:
139,76,41843,1,8,0:0:0:0:
182,243,42013,6,0,P|231:235|268:201,1,101.999996887207,2|0,0:0|0:0,0:0:0:0:
248,50,42352,1,2,0:0:0:0:
73,163,42521,1,8,0:0:0:0:
259,259,42691,1,0,0:0:0:0:
248,50,42860,1,2,0:0:0:0:
131,277,43030,1,0,0:0:0:0:
248,50,43199,1,8,0:0:0:0:
259,259,43369,1,0,0:0:0:0:
331,121,43538,6,0,P|282:37|184:40,1,203.999993774414,2|8,0:0|0:0,0:0:0:0:
189,210,44047,1,0,0:0:0:0:
331,121,44216,2,0,P|428:118|477:202,1,203.999993774414,2|8,0:0|0:0,0:0:0:0:
331,289,44725,1,0,0:0:0:0:
235,121,44894,6,0,B|161:261|161:261|214:247,1,203.999993774414,6|8,0:0|0:0,0:0:0:0:
383,202,45403,1,2,0:0:0:0:
99,277,45572,2,0,P|49:274|9:244,2,101.999996887207,6|0|8,0:0|0:0|0:0,0:0:0:0:
322,217,46081,5,6,0:0:0:0:
99,277,46250,1,0,0:0:0:0:
351,210,46420,1,6,0:0:0:0:
99,277,46589,1,8,0:0:0:0:
383,202,46759,1,6,0:0:0:0:
100,92,46928,2,0,L|127:150,3,50.9999984436036,6|0|0|0,0:0|0:0|0:0|0:0,0:0:0:0:
136,165,47267,1,8,0:0:0:0:
152,191,47351,1,0,0:0:0:0:
173,213,47436,1,2,0:0:0:0:
197,232,47521,1,0,0:0:0:0:
225,246,47605,5,8,0:0:0:0:
345,17,47776,1,8,0:0:0:0:
121,138,47945,1,8,0:0:0:0:
466,103,48793,6,0,L|374:129,1,85,2|0,0:0|0:0,0:0:0:0:
140,202,49132,2,0,L|232:228,1,85,2|8,0:0|0:0,0:0:0:0:
466,301,49471,1,2,0:0:0:0:
466,301,49555,1,2,0:0:0:0:
466,301,49640,2,0,L|557:329,1,85,2|0,0:0|0:0,0:0:0:0:
221,225,49979,1,8,0:0:0:0:
108,49,50318,5,8,0:0:0:0:
438,138,50488,1,8,0:0:0:0:
142,309,50657,1,8,0:0:0:0:
156,52,51505,6,0,L|183:157,1,85,2|0,0:0|0:0,0:0:0:0:
356,52,51843,2,0,L|329:157,1,85,2|8,0:0|0:0,0:0:0:0:
107,104,52182,1,2,0:0:0:0:
129,131,52266,1,0,0:0:0:0:
155,155,52351,1,0,0:0:0:0:
185,174,52436,1,0,0:0:0:0:
217,189,52520,1,2,0:0:0:0:
250,200,52605,1,0,0:0:0:0:
285,205,52690,1,8,0:0:0:0:
405,104,53030,6,0,P|392:206|392:206,1,101.999996887207,2|0,0:0|0:0,0:0:0:0:
375,332,53538,1,2,0:0:0:0:
265,159,53708,2,8,B|235:112|235:112|202:153,1,101.999996887207
125,250,54216,2,0,L|175:257,1,50.9999984436036,0|2,0:0|0:0,0:0:0:0:
454,301,54555,5,8,0:0:0:0:
302,276,54725,1,2,0:0:0:0:
399,156,54894,2,0,L|409:88,2,50.9999984436036,2|8|8,0:0|0:0|0:0,0:0:0:0:
454,301,55403,1,2,0:0:0:0:
170,83,55742,5,6,0:0:0:0:
316,195,55911,1,0,0:0:0:0:
254,47,56081,1,2,0:0:0:0:
231,230,56250,1,0,0:0:0:0:
327,103,56420,1,2,0:0:0:0:
158,174,56589,1,0,0:0:0:0:
316,195,56759,1,8,0:0:0:0:
149,67,57098,5,2,0:0:0:0:
230,263,57267,1,0,0:0:0:0:
262,20,57437,1,6,0:0:0:0:
133,188,57606,1,0,0:0:0:0:
359,94,57776,1,6,0:0:0:0:
149,67,57945,1,0,0:0:0:0:
343,216,58115,1,12,0:0:0:0:
133,188,58284,1,2,0:0:0:0:
133,188,58369,1,2,0:0:0:0:
133,188,58454,6,0,L|158:248,1,50.9999984436036,6|0,0:0|0:0,0:0:0:0:
193,330,58793,1,8,0:0:0:0:
103,116,58962,2,0,B|83:66|83:66|193:79,1,152.999995330811,6|8,0:0|0:0,0:0:0:0:
311,93,59640,1,2,0:0:0:0:
311,93,59725,1,2,0:0:0:0:
311,93,59810,6,0,P|318:139|231:196,1,152.999995330811,2|2,0:0|0:0,0:0:0:0:
212,189,60403,1,2,0:0:0:0:
184,182,60488,2,0,P|118:214|116:287,1,152.999995330811,2|0,0:0|0:0,0:0:0:0:
130,313,61081,1,0,0:0:0:0:
145,340,61166,5,12,0:0:0:0:
292,185,61335,1,2,0:0:0:0:
85,136,61505,1,2,0:0:0:0:
145,340,61674,5,12,0:0:0:0:
347,220,61843,1,2,0:0:0:0:
142,105,62013,1,2,0:0:0:0:
145,340,62182,5,12,0:0:0:0:
297,73,62691,5,8,0:0:0:0:
262,248,62860,1,8,0:0:0:0:
213,101,63030,1,8,0:0:0:0:
363,131,63199,5,0,0:0:0:0:
384,162,63283,1,0,0:0:0:0:
391,199,63368,1,0,0:0:0:0:
384,236,63453,1,0,0:0:0:0:
363,268,63537,1,8,0:0:0:0:
158,276,63708,1,2,0:0:0:0:
187,72,63877,6,0,P|279:104|296:200,1,203.999993774414,6|8,0:0|0:0,0:0:0:0:
194,332,64386,2,0,P|151:244|207:165,1,203.999993774414,6|2,0:0|0:0,0:0:0:0:
373,144,64894,1,8,0:0:0:0:
245,252,65064,2,0,P|148:240|112:149,1,203.999993774414,6|2,0:0|0:0,0:0:0:0:
183,0,65572,2,0,P|243:77|204:166,1,203.999993774414,12|2,0:0|0:0,0:0:0:0:
46,223,66081,1,8,0:0:0:0:
147,89,66250,1,8,0:0:0:0:
170,256,66420,1,2,0:0:0:0:
37,155,66589,5,6,0:0:0:0:
287,122,66759,1,0,0:0:0:0:
190,355,66928,1,8,0:0:0:0:
147,89,67098,2,0,P|220:25|311:59,1,203.999993774414,6|2,0:0|0:0,0:0:0:0:
164,182,67606,1,8,0:0:0:0:
73,153,67776,6,0,P|144:87|237:119,1,203.999993774414,6|2,0:0|0:0,0:0:0:0:
201,315,68284,1,12,0:0:0:0:
164,182,68454,1,2,0:0:0:0:
97,303,68623,1,6,0:0:0:0:
296,246,68793,2,0,L|245:218,1,50.9999984436036,8|2,0:0|0:0,0:0:0:0:
70,121,68962,1,8,0:0:0:0:
185,312,69132,1,0,0:0:0:0:
180,54,69301,6,0,P|264:6|347:57,1,203.999993774414,6|8,0:0|0:0,0:0:0:0:
382,222,69810,2,0,P|288:196|266:101,1,203.999993774414,6|2,0:0|0:0,0:0:0:0:
347,0,70318,1,8,0:0:0:0:
356,130,70488,6,0,P|281:193|190:158,1,203.999993774414,6|2,0:0|0:0,0:0:0:0:
127,3,70996,2,0,P|224:10|263:99,1,203.999993774414,12|2,0:0|0:0,0:0:0:0:
196,265,71505,1,8,0:0:0:0:
169,89,71674,1,8,0:0:0:0:
31,201,71843,1,2,0:0:0:0:
196,265,72013,5,6,0:0:0:0:
57,90,72182,1,0,0:0:0:0:
32,312,72352,1,8,0:0:0:0:
207,173,72521,2,0,P|245:156|328:183,1,101.999996887207,6|0,0:0|0:0,0:0:0:0:
262,252,72860,2,0,P|303:261|354:332,1,101.999996887207,6|8,0:0|0:0,0:0:0:0:
260,348,73199,2,0,P|218:338|167:267,1,101.999996887207,6|0,0:0|0:0,0:0:0:0:
226,107,73538,5,2,0:0:0:0:
430,263,73708,1,8,0:0:0:0:
176,297,73877,1,2,0:0:0:0:
332,94,74047,1,8,0:0:0:0:
429,330,74216,1,2,0:0:0:0:
176,297,74386,1,8,0:0:0:0:
133,269,74470,1,0,0:0:0:0:
112,223,74555,1,8,0:0:0:0:
116,173,74640,1,0,0:0:0:0:
146,133,74725,6,0,P|241:116|301:193,1,203.999993774414,6|8,0:0|0:0,0:0:0:0:
274,358,75233,2,0,P|194:302|206:205,1,203.999993774414,6|2,0:0|0:0,0:0:0:0:
367,79,75742,1,8,0:0:0:0:
280,263,75911,2,0,P|190:301|114:239,1,203.999993774414,6|2,0:0|0:0,0:0:0:0:
101,73,76420,2,0,P|191:109|201:206,1,203.999993774414,12|2,0:0|0:0,0:0:0:0:
90,348,76928,1,8,0:0:0:0:
115,168,77098,1,8,0:0:0:0:
256,280,77267,1,2,0:0:0:0:
2,311,77437,5,6,0:0:0:0:
160,110,77606,1,0,0:0:0:0:
191,364,77776,1,8,0:0:0:0:
155,71,77945,2,0,P|231:11|320:50,1,203.999993774414,6|2,0:0|0:0,0:0:0:0:
392,244,78454,1,8,0:0:0:0:
243,106,78623,2,0,P|154:66|77:126,1,203.999993774414,6|2,0:0|0:0,0:0:0:0:
48,329,79132,1,12,0:0:0:0:
165,162,79301,1,2,0:0:0:0:
251,346,79471,5,12,0:0:0:0:
1,172,79640,1,2,0:0:0:0:
343,309,79810,5,8,0:0:0:0:
54,210,79979,1,2,0:0:0:0:
421,248,80149,6,0,P|470:165|420:81,1,203.999993774414,6|8,0:0|0:0,0:0:0:0:
257,47,80657,2,0,P|280:140|374:164,1,203.999993774414,6|2,0:0|0:0,0:0:0:0:
512,72,81166,1,8,0:0:0:0:
348,73,81335,6,0,P|283:144|316:236,1,203.999993774414,6|2,0:0|0:0,0:0:0:0:
470,300,81843,2,0,P|465:203|376:162,1,203.999993774414,12|2,0:0|0:0,0:0:0:0:
230,368,82352,1,8,0:0:0:0:
386,257,82521,1,8,0:0:0:0:
212,178,82691,1,0,0:0:0:0:
230,368,82860,5,6,0:0:0:0:
376,162,83030,1,0,0:0:0:0:
128,204,83199,1,8,0:0:0:0:
334,351,83369,2,0,P|422:311|428:214,1,203.999993774414,6|2,0:0|0:0,0:0:0:0:
245,121,83877,1,8,0:0:0:0:
344,256,84047,6,0,P|335:159|245:121,1,203.999993774414,6|2,0:0|0:0,0:0:0:0:
94,275,84555,1,8,0:0:0:0:
258,216,84725,1,2,0:0:0:0:
258,216,84810,1,2,0:0:0:0:
258,216,84894,5,8,0:0:0:0:
57,48,85149,1,8,0:0:0:0:
12,305,85403,1,8,0:0:0:0:
169,243,85572,6,0,P|175:145|92:94,1,203.999993774414,6|8,0:0|0:0,0:0:0:0:
90,189,86081,2,0,P|83:286|166:337,1,203.999993774414,6|2,0:0|0:0,0:0:0:0:
422,189,86589,1,8,0:0:0:0:
90,189,86759,1,12,0:0:0:0:
256,192,86843,12,0,88284,0:0:0:0:
