osu file format v14

[General]
AudioFilename: audio.mp3
AudioLeadIn: 0
PreviewTime: 63822
Countdown: 0
SampleSet: Soft
StackLeniency: 0.7
Mode: 0
LetterboxInBreaks: 0
WidescreenStoryboard: 1

[Editor]
Bookmarks: 40856
DistanceSpacing: 0.8
BeatDivisor: 4
GridSize: 4
TimelineZoom: 2.55

[Metadata]
Title:Baby Lady LOVE
TitleUnicode:Baby→Lady LOVE
Artist:Ray
ArtistUnicode:Ray
Creator:Twiggles
Version:Insane
Source:ネコぱら
Tags:Nekopara NekoWorks Twiggles divineenigma ネコぱら Japanese Anime
BeatmapID:1213411
BeatmapSetID:572695

[Difficulty]
HPDrainRate:6
CircleSize:4
OverallDifficulty:8.3
ApproachRate:9
SliderMultiplier:1.7
SliderTickRate:1

[Events]
//Background and Video events
0,0,"background.jpg",0,0
//Break Periods
//Storyboard Layer 0 (Background)
//Storyboard Layer 1 (Fail)
//Storyboard Layer 2 (Pass)
//Storyboard Layer 3 (Foreground)
//Storyboard Layer 4 (Overlay)
//Storyboard Sound Samples

[TimingPoints]
1534,338.983050847458,4,2,1,60,1,0
15093,-100,4,2,1,70,0,0
25940,-100,4,2,1,55,0,0
47635,-100,4,2,1,65,0,0
53059,-100,4,2,1,60,0,0
55771,-100,4,2,1,70,0,0
63906,-100,4,2,1,85,0,1
82889,-100,4,2,1,70,0,1
86787,-100,4,2,1,70,0,1
86788,-100,4,2,1,70,0,0
88313,-100,4,2,1,5,0,0

[Colours]
Combo1 : 255,128,255
Combo2 : 109,237,154
Combo3 : 180,115,204
Combo4 : 129,201,254
Combo5 : 193,249,119
SliderBorder : 255,220,240
SliderTrackOverride : 25,80,100

[HitObjects]
216,70,1534,6,0,L|278:132,1,85,6|0,0:0|0:0,0:0:0:0:
346,200,1872,1,0,0:0:0:0:
184,152,2042,2,0,L|184:240,1,85,6|0,0:0|0:0,0:0:0:0:
184,336,2380,1,0,0:0:0:0:
101,196,2720,6,0,P|89:145|108:99,1,85,4|0,0:0|0:0,0:0:0:0:
184,152,3059,1,0,0:0:0:0:
184,151,3228,2,0,P|203:114|239:92,1,85,2|0,0:0|0:0,0:0:0:0:
305,162,3567,2,0,P|335:87|288:10,1,170,2|0,0:0|0:0,0:0:0:0:
186,251,4245,6,0,L|183:335,1,85,6|0,0:0|0:0,0:0:0:0:
305,162,4584,1,0,0:0:0:0:
305,162,4754,2,0,P|317:202|308:243,1,85,2|0,0:0|0:0,0:0:0:0:
362,339,5093,1,0,0:0:0:0:
259,332,5262,1,0,0:0:0:0:
405,236,5432,6,0,P|426:142|388:70,1,170,6|0,0:0|0:0,0:0:0:0:
222,158,5940,2,0,P|262:170|303:161,1,85,2|0,0:0|0:0,0:0:0:0:
395,78,6279,1,2,0:0:0:0:
372,63,6363,1,0,0:0:0:0:
345,56,6448,1,0,0:0:0:0:
318,61,6533,1,0,0:0:0:0:
296,77,6618,2,0,L|304:166,1,85,2|0,0:0|0:0,0:0:0:0:
259,332,6957,6,0,L|279:228,1,85,4|0,0:0|0:0,0:0:0:0:
352,302,7296,1,8,0:0:0:0:
352,302,7466,2,0,L|372:198,1,85,2|0,0:0|0:0,0:0:0:0:
329,38,7805,2,0,L|348:120,1,85,2|8,0:0|0:0,0:0:0:0:
484,256,8144,6,0,P|461:220|460:178,1,85,2|0,0:0|0:0,0:0:0:0:
512,117,8482,1,2,0:0:0:0:
512,117,8652,2,0,P|494:155|459:180,1,85,8|0,0:0|0:0,0:0:0:0:
269,233,8991,2,0,P|296:152|248:68,1,170,2|8,0:0|0:0,0:0:0:0:
261,79,9669,5,2,0:0:0:0:
269,233,9839,1,0,0:0:0:0:
187,159,10008,1,8,0:0:0:0:
187,159,10178,2,0,P|156:187|143:227,1,85,2|0,0:0|0:0,0:0:0:0:
154,321,10517,1,2,0:0:0:0:
143,227,10686,1,8,0:0:0:0:
154,321,10856,6,0,L|323:313,1,170,2|0,0:0|0:0,0:0:0:0:
359,98,11534,1,2,0:0:0:0:
332,108,11619,1,0,0:0:0:0:
318,132,11703,6,0,L|255:245,2,127.5,12|12|12,0:0|0:0|0:0,0:0:0:0:
258,69,12381,2,0,P|196:144|187:231,1,170,2|0,0:0|0:0,0:0:0:0:
169,32,12889,1,0,0:0:0:0:
90,94,13059,1,0,0:0:0:0:
90,94,13228,2,0,P|77:134|86:175,1,85,2|2,0:0|0:0,0:0:0:0:
255,244,13567,6,0,P|267:203|258:162,1,85,12|0,0:0|0:0,0:0:0:0:
184,282,13906,2,0,P|212:312|252:325,1,85,12|0,0:0|0:0,0:0:0:0:
186,200,14245,1,12,0:0:0:0:
326,286,14415,1,12,0:0:0:0:
346,247,14499,1,0,0:0:0:0:
353,205,14584,1,0,0:0:0:0:
345,164,14669,1,0,0:0:0:0:
327,126,14754,2,0,L|279:50,1,85,0|0,3:0|3:0,0:0:0:0:
182,118,15093,6,0,P|173:159|187:201,1,85,4|0,3:2|0:0,0:0:0:0:
257,364,15432,2,8,P|266:323|252:281,1,85,0|0,3:2|0:0,0:0:0:0:
253,155,15771,5,0,3:0:0:0:
254,283,15940,1,2,0:0:0:0:
185,199,16110,1,10,3:0:0:0:
135,299,16279,1,2,0:0:0:0:
79,134,16449,2,0,L|100:216,1,85,0|0,3:0|0:0,0:0:0:0:
178,36,16788,6,0,P|169:77|183:119,1,85,8|0,3:2|0:0,0:0:0:0:
321,134,17127,2,0,P|330:175|316:217,1,85,2|2,3:2|0:0,0:0:0:0:
248,73,17466,1,8,0:0:0:0:
317,215,17635,1,0,0:0:0:0:
178,300,17805,2,0,L|178:199,1,85,0|0,3:0|0:0,0:0:0:0:
248,73,18144,6,0,L|248:168,1,85,8|0,3:2|0:0,0:0:0:0:
102,224,18483,2,0,P|99:291|145:394,1,170,0|8,3:0|0:0,0:0:0:0:
333,297,18991,6,0,P|266:286|180:304,1,127.5,2|0,3:2|0:0,0:0:0:0:
178,300,19330,1,0,3:0:0:0:
336,378,19500,1,8,0:0:0:0:
259,143,19669,1,0,0:0:0:0:
259,143,19839,2,0,P|268:184|254:226,1,85,0|0,3:2|0:0,0:0:0:0:
333,297,20178,2,0,P|324:338|338:380,1,85,8|0,0:0|0:0,0:0:0:0:
490,303,20517,2,0,L|413:337,1,85,4|0,3:2|0:0,0:0:0:0:
352,165,20856,2,0,P|364:205|397:234,1,85,8|0,0:0|0:0,0:0:0:0:
425,49,21195,5,0,3:0:0:0:
432,161,21364,1,2,0:0:0:0:
318,60,21534,1,10,3:0:0:0:
352,165,21703,1,2,0:0:0:0:
212,193,21872,2,0,L|285:119,1,85,0|0,3:0|0:0,0:0:0:0:
128,318,22211,6,0,B|147:234|99:234|126:146,1,170,8|0,0:0|3:0,0:0:0:0:
196,27,22720,1,0,0:0:0:0:
196,27,22889,2,0,P|183:68|190:109,1,85,8|0,0:0|0:0,0:0:0:0:
361,205,23228,2,0,P|327:127|263:74,1,170,4|8,3:2|0:0,0:0:0:0:
204,216,23737,2,0,P|127:184|39:192,1,170,8|8,0:0|0:0,0:0:0:0:
228,303,24245,5,8,0:0:0:0:
219,132,24415,2,0,L|198:243,1,85,4|0,3:2|0:0,0:0:0:0:
266,381,24754,1,2,3:2:0:0:
284,205,24923,1,2,0:0:0:0:
150,273,25093,2,0,L|135:356,1,85,12|0,0:0|0:0,0:0:0:0:
76,188,25432,2,0,B|120:132|120:132|240:132,1,170,12|0,0:0|0:0,0:0:0:0:
284,205,25940,6,0,P|271:246|278:287,1,85,4|0,0:0|0:0,0:0:0:0:
433,296,26279,2,0,P|405:265|366:251,1,85,8|0,0:0|0:0,0:0:0:0:
279,379,26618,2,0,P|320:369|352:343,1,85
364,159,26957,2,0,P|354:117|328:85,1,85,8|0,0:0|0:0,0:0:0:0:
184,155,27296,6,0,L|269:160,1,85,0|0,3:0|0:0,0:0:0:0:
145,61,27635,1,8,0:0:0:0:
112,257,27805,2,0,B|195:276|195:228|284:255,1,170
372,278,28313,2,8,P|373:235|356:197,1,85,8|0,0:0|0:0,0:0:0:0:
279,253,28652,2,8,P|277:295|294:333,1,85,0|0,3:0|0:0,0:0:0:0:
371,113,28991,6,0,L|354:207,1,85,8|0,0:0|0:0,0:0:0:0:
272,41,29330,2,8,L|289:135,1,85,0|0,3:0|0:0,0:0:0:0:
205,122,29669,2,8,L|189:206,1,85,8|0,0:0|0:0,0:0:0:0:
244,301,30008,6,0,P|286:302|324:285,1,85,0|0,3:0|0:0,0:0:0:0:
287,124,30347,1,8,0:0:0:0:
270,208,30517,1,0,0:0:0:0:
416,258,30686,6,0,P|396:221|362:197,1,85,0|0,3:0|0:0,0:0:0:0:
307,369,31025,1,8,0:0:0:0:
324,285,31195,1,0,0:0:0:0:
470,329,31364,2,0,L|389:357,1,85,0|0,3:0|0:0,0:0:0:0:
396,95,31703,6,8,L|370:210,1,85,8|0,0:0|0:0,0:0:0:0:
300,160,32042,2,8,L|316:277,1,85,0|0,3:0|0:0,0:0:0:0:
218,227,32381,2,8,L|272:332,1,85,8|0,0:0|0:0,0:0:0:0:
132,262,32720,6,0,P|144:221|137:180,1,85,0|0,3:0|0:0,0:0:0:0:
87,110,33059,2,0,P|74:69|81:28,1,85,8|0,0:0|0:0,0:0:0:0:
250,57,33398,2,0,P|209:50|169:63,1,85,0|0,3:0|0:0,0:0:0:0:
218,227,33737,2,0,P|225:186|213:146,1,85,8|0,0:0|0:0,0:0:0:0:
41,173,34076,6,0,P|61:261|41:353,1,170,0|8,3:0|0:0,0:0:0:0:
224,309,34584,2,0,P|211:268|218:227,1,85,0|0,0:0|3:0,0:0:0:0:
307,132,34923,1,0,0:0:0:0:
304,262,35093,1,8,0:0:0:0:
236,154,35262,1,8,0:0:0:0:
307,47,35432,6,0,L|307:132,1,85,4|0,3:2|0:0,0:0:0:0:
400,213,35771,1,8,0:0:0:0:
405,131,35940,2,0,P|392:171|399:212,1,85,8|0,0:0|0:0,0:0:0:0:
448,337,36279,2,0,P|371:322|303:260,1,170,8|0,0:0|3:0,0:0:0:0:
218,227,36788,2,0,L|218:312,1,85,4|0,3:2|0:0,0:0:0:0:
122,211,37127,5,8,0:0:0:0:
142,343,37296,1,0,0:0:0:0:
158,122,37466,2,0,P|116:115|76:127,1,85,0|0,3:0|0:0,0:0:0:0:
62,261,37805,1,8,0:0:0:0:
76,127,37974,1,0,0:0:0:0:
218,227,38144,6,0,P|208:267|217:308,1,85,0|0,3:0|0:0,0:0:0:0:
388,285,38483,1,8,0:0:0:0:
304,268,38653,1,0,0:0:0:0:
420,375,38822,6,0,P|455:352|477:317,1,85,0|0,3:0|0:0,0:0:0:0:
361,204,39161,1,8,0:0:0:0:
388,285,39331,1,0,0:0:0:0:
465,216,39500,2,0,L|432:137,1,85,0|0,3:0|0:0,0:0:0:0:
384,38,39839,6,0,L|344:134,1,85,8|0,0:0|0:0,0:0:0:0:
258,101,40178,2,0,L|298:197,1,85,0|0,3:0|0:3,0:0:0:0:
181,28,40517,2,0,L|170:114,1,85,8|0,0:0|0:0,0:0:0:0:
223,316,40856,6,0,P|232:275|223:234,1,85,0|0,3:0|0:0,0:0:0:0:
170,112,41195,1,8,0:0:0:0:
73,266,41364,2,0,P|150:320|229:313,1,170
335,135,41872,5,8,0:0:0:0:
335,135,42042,2,0,P|298:209|320:290,1,170,0|0,0:0|0:0,0:0:0:0:
251,112,42550,2,0,P|210:102|169:111,1,85,8|0,0:0|0:0,0:0:0:0:
211,189,42889,5,0,3:0:0:0:
194,23,43059,1,0,0:0:0:0:
94,200,43228,1,8,0:0:0:0:
94,30,43398,1,0,0:0:0:0:
94,30,43567,2,0,L|94:205,1,170,0|0,3:0|3:0,0:0:0:0:
169,111,44076,1,0,0:0:0:0:
169,111,44245,2,0,L|169:286,1,170,0|8,3:0|0:0,0:0:0:0:
252,304,44754,1,0,0:0:0:0:
262,113,44923,6,0,P|336:150|417:128,1,170,4|8,3:2|0:0,0:0:0:0:
348,25,45432,1,8,0:0:0:0:
262,113,45601,2,0,P|252:153|261:194,1,85,8|0,0:0|0:0,0:0:0:0:
416,128,45940,1,8,0:0:0:0:
348,25,46110,6,0,L|335:133,1,85,12|0,0:0|0:0,0:0:0:0:
358,279,46449,2,0,L|368:194,1,85,12|0,0:0|0:0,0:0:0:0:
261,194,46788,1,12,0:0:0:0:
328,348,46957,1,12,0:0:0:0:
501,171,47127,5,8,0:0:0:0:
471,140,47211,1,8,0:0:0:0:
436,123,47296,2,0,L|402:130,7,21.25,8|0|0|0|0|0|0|0,0:0|0:0|0:0|0:0|0:0|0:0|0:0|0:0,0:0:0:0:
415,127,47635,5,12,0:0:0:0:
389,300,47805,1,8,0:0:0:0:
261,194,47974,1,0,3:0:0:0:
261,194,48144,2,0,P|285:238|277:286,1,85
214,384,48483,2,0,P|190:340|198:292,1,85
190,160,48822,6,0,P|251:117|299:126,1,127.5,12|0,3:2|0:0,0:0:0:0:
261,194,49161,2,0,P|330:196|377:143,1,127.5,8|0,3:0|0:0,0:0:0:0:
396,85,49500,2,0,P|444:141|402:236,1,170,8|0,0:0|0:0,0:0:0:0:
320,371,50008,6,0,L|313:286,1,85,8|8,0:0|0:0,0:0:0:0:
299,126,50347,1,12,3:2:0:0:
400,300,50517,1,8,0:0:0:0:
198,245,50686,1,0,3:0:0:0:
198,245,50856,2,0,L|205:331,1,85
313,286,51195,2,0,L|306:200,1,85
299,126,51534,6,0,P|238:83|189:91,1,127.5,12|0,0:0|0:0,0:0:0:0:
227,160,51872,2,0,P|157:162|111:108,1,127.5,8|0,0:0|0:0,0:0:0:0:
69,57,52212,5,8,0:0:0:0:
50,79,52296,1,8,0:0:0:0:
38,105,52381,1,8,0:0:0:0:
37,133,52466,1,0,0:0:0:0:
45,160,52550,1,0,0:0:0:0:
60,183,52635,1,0,0:0:0:0:
75,206,52720,6,0,P|86:254|66:299,1,85,8|8,0:0|0:0,0:0:0:0:
164,164,53059,2,0,L|192:352,1,170,4|0,3:2|0:0,0:0:0:0:
75,206,53567,1,0,3:0:0:0:
226,83,53737,2,0,L|254:271,1,170,8|8,0:0|0:0,0:0:0:0:
164,164,54245,1,0,0:0:0:0:
324,142,54415,6,0,P|356:238|340:318,1,170,12|0,3:2|3:0,0:0:0:0:
251,251,54923,1,0,0:0:0:0:
226,83,55093,2,0,P|304:53|388:62,1,170,8|0,0:0|3:0,0:0:0:0:
449,190,55601,1,0,0:0:0:0:
449,190,55771,6,0,L|422:299,1,85,4|0,3:2|0:0,0:0:0:0:
324,142,56110,2,0,L|356:250,1,85,8|0,0:0|0:0,0:0:0:0:
243,206,56449,2,0,L|211:314,1,85,0|0,3:0|0:0,0:0:0:0:
126,152,56788,2,0,L|158:260,1,85,8|0,0:0|0:0,0:0:0:0:
35,68,57127,2,0,P|46:116|26:161,1,85,0|0,3:0|0:0,0:0:0:0:
218,82,57466,5,8,0:0:0:0:
243,206,57635,1,0,0:0:0:0:
125,73,57805,2,0,P|139:24|178:-3,1,85,0|0,3:0|0:0,0:0:0:0:
268,137,58144,1,8,0:0:0:0:
173,220,58313,1,0,0:0:0:0:
321,0,58483,6,0,L|320:84,1,85,4|0,3:2|0:0,0:0:0:0:
317,203,58822,1,8,0:0:0:0:
433,82,58991,2,0,B|360:127|394:161|317:202,1,170
241,266,59500,1,8,0:0:0:0:
223,154,59669,1,8,0:0:0:0:
196,188,59754,1,0,0:0:0:0:
171,224,59839,2,4,P|207:258|255:263,1,85,0|0,3:0|0:0,3:0:0:0:
429,240,60178,6,0,P|364:309|271:334,1,170,8|0,0:0|3:0,0:0:0:0:
129,313,60686,1,0,0:0:0:0:
223,154,60856,1,8,0:0:0:0:
206,355,61025,1,8,0:0:0:0:
89,205,61195,6,0,B|180:127|180:127|248:169,1,170,12|0,3:2|0:0,0:0:0:0:
297,167,61703,2,0,B|298:113|298:113|192:43,1,170,12|0,0:0|0:0,0:0:0:0:
190,220,62211,2,0,L|337:308,1,170,12|0,0:0|0:0,0:0:0:0:
375,88,62720,1,12,0:0:0:0:
180,128,62889,1,12,0:0:0:0:
389,194,63059,1,12,0:0:0:0:
297,24,63228,5,8,0:0:0:0:
273,58,63313,1,8,0:0:0:0:
265,99,63397,1,8,0:0:0:0:
276,140,63482,1,8,0:0:0:0:
304,172,63567,2,0,L|304:262,1,85,0|0,3:0|3:0,0:0:0:0:
324,335,63906,6,0,P|322:285|291:247,1,85,4|0,3:0|0:0,0:0:0:0:
192,162,64245,1,8,0:0:0:0:
161,361,64415,2,0,P|150:312|170:267,1,85,6|0,0:0|0:0,0:0:0:0:
192,162,64754,2,0,P|192:120|171:83,1,85,0|8,0:0|0:0,0:0:0:0:
0,102,65093,6,0,P|36:135|85:140,1,85,4|0,3:2|0:0,0:0:0:0:
70,62,65432,1,0,3:0:0:0:
35,239,65601,2,0,P|83:250|128:230,1,85,8|0,0:0|0:0,0:0:0:0:
272,161,65940,2,0,P|224:172|179:152,1,85,0|0,3:0|0:0,0:0:0:0:
231,6,66279,2,0,L|231:91,1,85,8|0,0:0|3:0,0:0:0:0:
231,251,66618,5,0,3:0:0:0:
385,167,66788,1,0,0:0:0:0:
231,91,66958,1,8,0:0:0:0:
345,238,67127,2,2,P|393:249|438:229,1,85,0|0,0:0|0:0,0:0:0:0:
342,94,67466,1,0,0:0:0:0:
268,265,67635,1,8,0:0:0:0:
411,347,67805,6,0,P|323:316|262:256,1,170,0|0,3:0|3:0,0:0:0:0:
231,91,68313,1,8,0:0:0:0:
166,282,68483,1,0,0:0:0:0:
256,171,68652,2,0,L|224:71,1,85,0|0,3:0|0:0,0:0:0:0:
72,201,68991,1,8,0:0:0:0:
158,161,69161,1,8,0:0:0:0:
80,20,69330,6,0,P|68:68|88:113,1,85,4|0,3:0|0:0,0:0:0:0:
166,282,69669,1,8,0:0:0:0:
178,82,69839,2,0,P|154:125|162:174,1,85
166,282,70178,2,0,P|177:330|157:374,1,85,0|8,0:0|0:0,0:0:0:0:
234,138,70517,6,0,P|277:114|326:122,1,85,0|0,3:0|0:0,0:0:0:0:
282,364,70856,1,0,3:0:0:0:
291,194,71025,1,8,0:0:0:0:
414,319,71195,1,0,0:0:0:0:
414,319,71364,2,0,L|246:267,1,170,0|8,3:0|0:0,0:0:0:0:
192,147,71872,1,0,0:0:0:0:
192,147,72042,6,0,L|140:237,1,85,0|0,3:0|0:0,0:0:0:0:
90,310,72381,1,8,0:0:0:0:
251,268,72550,2,0,L|303:358,1,85,8|0,0:0|3:0,0:0:0:0:
304,192,72889,2,0,L|356:282,1,85,0|8,3:0|0:0,0:0:0:0:
502,224,73228,2,0,P|465:245|423:245,1,85,0|0,3:0|0:0,0:0:0:0:
383,108,73567,5,8,3:2:0:0:
347,266,73737,1,8,0:0:0:0:
213,168,73906,1,0,0:0:0:0:
367,187,74076,2,0,P|343:230|351:279,1,85,0|8,3:0|0:0,0:0:0:0:
290,85,74415,2,0,P|313:41|305:-7,1,85,12|0,0:0|0:0,0:0:0:0:
286,160,74754,5,4,3:2:0:0:
139,245,74923,1,0,0:0:0:0:
211,94,75093,1,8,0:0:0:0:
233,262,75262,2,0,L|228:366,1,85,0|0,0:0|3:0,0:0:0:0:
142,160,75601,2,0,L|137:264,1,85,0|8,0:0|0:0,0:0:0:0:
286,160,75940,6,0,P|323:138|365:138,1,85,0|0,3:0|0:0,0:0:0:0:
443,160,76279,1,0,3:0:0:0:
364,296,76449,2,0,P|342:259|343:218,1,85,8|0,0:0|0:0,0:0:0:0:
422,82,76788,2,0,P|443:118|443:160,1,85,0|0,3:0|0:0,0:0:0:0:
441,262,77127,2,0,L|436:366,1,85,8|0,0:0|0:0,0:0:0:0:
312,195,77466,5,0,3:0:0:0:
437,346,77635,1,0,0:0:0:0:
512,161,77805,1,8,0:0:0:0:
422,82,77975,2,0,L|418:170,1,85,0|0,0:0|3:0,0:0:0:0:
311,114,78313,1,0,0:0:0:0:
438,0,78483,1,8,0:0:0:0:
312,195,78652,6,0,P|271:184|241:154,1,85,0|0,3:0|0:0,0:0:0:0:
269,30,78991,1,0,3:0:0:0:
418,166,79161,1,0,0:0:0:0:
202,77,79330,1,0,0:0:0:0:
396,87,79500,2,0,P|417:123|417:165,1,85,0|0,3:0|0:0,0:0:0:0:
333,273,79839,2,0,P|311:236|311:194,1,85,8|0,0:0|3:0,0:0:0:0:
495,295,80178,6,0,L|382:295,1,85,4|0,3:0|0:0,0:0:0:0:
254,295,80517,1,8,0:0:0:0:
389,217,80686,2,0,P|410:253|410:295,1,85,0|0,0:0|3:0,0:0:0:0:
275,373,81025,2,0,P|253:336|253:294,1,85,0|8,0:0|0:0,0:0:0:0:
251,134,81364,6,0,L|338:221,1,85,0|0,3:0|0:0,0:0:0:0:
126,247,81703,1,0,3:0:0:0:
172,61,81872,1,8,0:0:0:0:
311,194,82042,1,0,0:0:0:0:
172,155,82211,2,0,P|208:133|250:133,1,85,0|0,3:0|0:0,0:0:0:0:
250,290,82550,2,0,P|228:253|229:212,1,85,8|0,0:0|0:0,0:0:0:0:
401,88,82889,5,8,3:2:0:0:
328,330,83059,1,8,0:0:0:0:
250,133,83228,1,8,0:0:0:0:
406,308,83398,2,0,P|369:329|327:329,1,85,0|0,0:0|3:0,0:0:0:0:
228,212,83737,1,0,0:0:0:0:
349,250,83906,1,8,0:0:0:0:
401,88,84076,2,0,L|345:260,1,170,0|0,3:0|3:0,0:0:0:0:
201,292,84584,2,0,L|228:206,1,85,8|8,0:0|0:0,0:0:0:0:
284,28,84923,5,12,0:0:0:0:
281,316,85178,5,12,0:0:0:0:
74,118,85432,5,12,0:0:0:0:
224,132,85601,6,0,P|232:232|184:308,1,170,0|8,3:0|0:0,0:0:0:0:
84,194,86110,1,0,0:0:0:0:
170,35,86279,5,0,3:0:0:0:
200,291,86449,1,8,0:0:0:0:
293,51,86618,5,8,0:0:0:0:
110,270,86788,1,12,0:0:0:0:
256,192,86872,12,0,88313,0:0:0:0:
