osu file format v14

[General]
AudioFilename: audio.mp3
AudioLeadIn: 0
PreviewTime: 63796
Countdown: 0
SampleSet: Soft
StackLeniency: 0.5
Mode: 0
LetterboxInBreaks: 0
WidescreenStoryboard: 0

[Editor]
DistanceSpacing: 1.2
BeatDivisor: 4
GridSize: 4
TimelineZoom: 1.6

[Metadata]
Title:Baby Lady LOVE
TitleUnicode:Baby Lady LOVE
Artist:Ray
ArtistUnicode:Ray
Creator:Agent_James
Version:Hard
Source:ネコぱらOVA
Tags:nekopara nekoworks sayori catgirl nekochan chocola vanilla azuki maple cinnamon coconut shigure kashou eroge galgame vn visual novel さより
BeatmapID:1295468
BeatmapSetID:609269

[Difficulty]
HPDrainRate:4
CircleSize:4
OverallDifficulty:6
ApproachRate:8
SliderMultiplier:1.4
SliderTickRate:1

[Events]
//Background and Video events
0,0,"ef7c01be-bea5-11e6-a9af-525400761152.jpg",0,0
Video,0,"optc.flv"
//Break Periods
//Storyboard Layer 0 (Background)
//Storyboard Layer 1 (Fail)
//Storyboard Layer 2 (Pass)
//Storyboard Layer 3 (Foreground)
//Storyboard Sound Samples

[TimingPoints]
1424,338.983050847458,4,2,1,80,1,0
11593,-100,4,2,1,80,0,0
11847,-100,4,2,1,80,0,0
12271,-100,4,2,1,80,0,0
13457,-100,4,2,1,80,0,0
26169,-100,4,2,1,80,0,0
52949,-100,4,2,1,80,0,0
55661,-100,4,2,1,80,0,0
63796,-100,4,2,1,80,0,1
86678,-100,4,2,1,80,0,0

[Colours]
Combo1 : 60,65,128
Combo2 : 254,239,188
Combo3 : 255,128,192
Combo4 : 176,88,0

[HitObjects]
104,104,1424,6,0,P|172:92|244:108,1,140,8|0,0:0|0:0,0:0:0:0:
328,168,1932,1,0,0:0:0:0:
325,304,2271,2,0,P|313:236|329:164,1,140
400,208,2949,2,0,P|396:252|408:284,1,70
120,304,3457,2,0,B|100:236|100:236|132:144,1,140,0|8,0:0|0:0,0:0:0:0:
200,68,4135,1,0,0:0:0:0:
248,144,4305,1,0,0:0:0:0:
296,68,4474,1,0,0:0:0:0:
384,64,4644,6,0,L|380:228,1,140
380,203,5152,1,0,0:0:0:0:
248,208,5322,2,0,P|315:194|388:209,1,140
348,280,5830,2,0,P|304:276|272:288,1,70
320,352,6169,1,0,0:0:0:0:
116,272,6508,1,0,0:0:0:0:
104,124,6847,6,0,L|100:48,1,70,8|0,0:0|0:0,0:0:0:0:
200,96,7186,2,0,L|196:172,1,70
156,240,7525,2,8,P|189:252|224:244,2,70
116,160,8034,2,0,P|82:147|47:155,2,70
156,240,8542,2,0,L|176:320,1,70,8|0,0:0|0:0,0:0:0:0:
247,271,8881,2,0,L|276:128,1,140,8|0,0:0|0:0,0:0:0:0:
412,312,9559,5,8,0:0:0:0:
416,216,9729,1,0,0:0:0:0:
416,216,9898,2,0,L|412:136,1,70,0|8,0:0|0:0,0:0:0:0:
312,128,10237,2,0,L|316:208,2,70
236,92,10746,2,0,B|164:64|164:136|84:88,1,140
196,176,11254,1,0,0:0:0:0:
104,208,11424,5,0,0:0:0:0:
104,208,11508,1,0,0:0:0:0:
104,208,11593,2,0,L|100:328,2,105,2|2|2,0:0|0:0|0:0,0:0:0:0:
236,92,12271,2,0,B|208:164|280:164|232:244,1,140,8|0,0:0|0:0,0:0:0:0:
292,304,12779,2,0,P|319:282|331:248,1,70,0|8,0:0|0:0,0:0:0:0:
348,168,13118,1,8,0:0:0:0:
424,124,13288,1,0,0:0:0:0:
456,208,13457,5,2,0:0:0:0:
280,76,13796,5,2,0:0:0:0:
112,164,14135,5,2,0:0:0:0:
108,252,14305,2,2,L|104:308,4,35
280,76,14983,6,0,L|356:80,1,70,8|0,0:0|0:0,0:0:0:0:
436,100,15322,2,0,P|424:132|396:153,1,70,2|0,0:0|0:0,0:0:0:0:
316,176,15661,2,0,P|327:208|355:229,1,70
436,256,16000,1,10,0:0:0:0:
432,336,16169,2,0,P|365:350|292:335,1,140,8|0,0:0|0:0,0:0:0:0:
175,259,16678,2,0,P|186:291|214:312,1,70,2|0,0:0|0:0,0:0:0:0:
248,224,17017,2,0,P|236:191|208:170,1,70
128,128,17356,1,10,0:0:0:0:
200,68,17525,1,0,0:0:0:0:
290,95,17695,6,0,P|317:116|329:148,1,70,8|0,0:0|0:0,0:0:0:0:
356,228,18034,2,0,L|352:304,1,70,2|0,0:0|0:0,0:0:0:0:
436,216,18373,2,0,P|408:168|320:152,1,140,0|2,0:0|0:0,0:0:0:0:
240,160,18881,2,0,L|152:172,2,70
320,76,19390,1,10,0:0:0:0:
404,148,19559,1,0,0:0:0:0:
404,148,19729,2,0,L|408:236,1,70,8|0,0:0|0:0,0:0:0:0:
312,200,20068,2,0,L|316:270,1,70,10|0,0:0|0:0,0:0:0:0:
220,288,20407,6,0,P|206:321|179:341,1,70,8|0,0:0|0:0,0:0:0:0:
108,228,20746,2,0,P|99:193|110:161,2,70,2|0|0,0:0|0:0|0:0,0:0:0:0:
232,260,21254,1,8,0:0:0:0:
304,224,21424,1,10,0:0:0:0:
304,224,21593,2,0,P|252:180|180:196,1,140,8|0,0:0|0:0,0:0:0:0:
88,184,22101,2,0,P|94:149|118:124,1,70,10|0,0:0|0:0,0:0:0:0:
192,88,22440,2,0,L|288:84,1,70,8|0,0:0|0:0,0:0:0:0:
344,84,22779,2,0,L|340:180,1,70,2|0,0:0|0:0,0:0:0:0:
364,236,23118,6,0,B|301:274|301:202|229:230,1,140,0|2,0:0|0:0,0:0:0:0:
116,228,23627,1,2,0:0:0:0:
116,228,23712,1,2,0:0:0:0:
116,228,23796,2,2,P|120:262|141:289,2,70
120,120,24305,1,2,0:0:0:0:
396,104,24644,6,0,L|326:107,2,70,0|0|2,0:0|0:0|0:0,0:0:0:0:
288,112,25322,1,2,0:0:0:0:
368,264,25830,1,0,0:0:0:0:
80,228,26169,6,0,L|104:308,1,70,2|0,0:0|0:0,0:0:0:0:
176,224,26508,2,0,L|156:152,1,70
119,79,26847,2,0,P|92:99|80:132,1,70,2|0,0:0|0:0,0:0:0:0:
157,156,27186,2,0,P|184:135|196:103,1,70
288,80,27525,1,2,0:0:0:0:
288,80,27695,2,0,B|350:41|350:113|422:85,1,140
235,156,28203,2,0,P|208:135|196:103,1,70,2|0,0:0|0:0,0:0:0:0:
320,151,28542,6,0,P|347:172|359:204,1,70,8|0,0:0|0:0,0:0:0:0:
240,225,28881,2,0,L|235:156,1,70,2|0,0:0|0:0,0:0:0:0:
359,205,29220,2,0,L|365:275,1,70
352,128,29559,1,2,0:0:0:0:
280,204,29729,1,0,0:0:0:0:
280,204,29898,2,0,P|267:171|240:150,1,70
152,140,30237,1,2,0:0:0:0:
112,64,30407,2,0,P|68:116|84:188,1,140
192,220,30915,1,2,0:0:0:0:
104,272,31085,1,0,0:0:0:0:
112,193,31254,6,0,P|125:160|152:139,1,70,8|0,0:0|0:0,0:0:0:0:
236,120,31593,2,0,L|376:112,2,140,2|0|2,0:0|0:0|0:0,0:0:0:0:
144,156,32440,1,0,0:0:0:0:
144,156,32610,2,0,P|131:189|104:210,1,70
48,264,32949,2,0,P|61:297|88:318,1,70,2|0,0:0|0:0,0:0:0:0:
164,324,33288,2,0,P|191:345|203:377,1,70
284,376,33627,2,0,P|296:343|323:322,1,70,2|0,0:0|0:0,0:0:0:0:
400,348,33966,6,0,B|438:285|366:285|394:213,1,140,0|2,0:0|0:0,0:0:0:0:
472,192,34474,2,0,P|457:160|428:141,1,70
328,128,34813,1,0,0:0:0:0:
280,224,34983,1,2,0:0:0:0:
200,180,35152,1,2,0:0:0:0:
200,180,35237,1,2,0:0:0:0:
200,180,35322,2,0,P|176:153|170:119,1,70,2|0,0:0|0:0,0:0:0:0:
92,104,35661,1,0,0:0:0:0:
88,173,35830,1,0,0:0:0:0:
88,320,36169,1,2,0:0:0:0:
328,312,36508,5,2,0:0:0:0:
328,312,36593,1,2,0:0:0:0:
328,312,36678,2,0,L|416:304,1,70,10|0,0:0|0:0,0:0:0:0:
456,216,37017,2,0,L|368:224,1,70,2|0,0:0|0:0,0:0:0:0:
312,174,37356,2,0,P|338:150|372:144,1,70
452,140,37695,2,0,P|445:106|421:80,1,70,2|0,0:0|0:0,0:0:0:0:
340,72,38034,2,0,L|240:68,1,70
192,72,38373,1,2,0:0:0:0:
192,72,38542,1,0,0:0:0:0:
92,164,38712,2,0,L|192:160,1,70
252,160,39051,1,2,0:0:0:0:
252,160,39220,1,0,0:0:0:0:
340,156,39390,6,0,L|304:244,1,70,8|0,0:0|0:0,0:0:0:0:
424,296,39729,2,0,L|397:231,1,70,2|0,0:0|0:0,0:0:0:0:
248,272,40068,2,0,P|273:295|307:302,1,70
232,184,40407,2,0,P|198:190|172:214,1,70,2|0,0:0|0:0,0:0:0:0:
124,272,40746,2,0,L|68:340,2,70,0|0|2,0:0|0:0|0:0,0:0:0:0:
95,184,41254,2,0,P|162:170|235:185,1,140
276,104,41762,1,2,0:0:0:0:
360,136,41932,2,0,B|386:205|314:205|352:268,1,140
400,344,42440,2,0,P|426:321|437:288,1,70,2|0,0:0|0:0,0:0:0:0:
284,240,42779,6,0,L|204:236,2,70,0|0|2,0:0|0:0|0:0,0:0:0:0:
364,244,43288,1,0,0:0:0:0:
368,160,43457,2,0,P|368:125|352:95,1,70
284,152,43796,1,2,0:0:0:0:
284,152,43966,1,0,0:0:0:0:
212,100,44135,2,0,P|195:130|196:164,1,70
204,248,44474,1,2,0:0:0:0:
204,248,44644,1,0,0:0:0:0:
296,252,44813,6,0,L|440:260,1,140,0|2,0:0|0:0,0:0:0:0:
436,168,45322,1,2,0:0:0:0:
436,168,45491,1,2,0:0:0:0:
296,56,45830,5,2,0:0:0:0:
224,132,46000,1,2,0:0:0:0:
220,144,46339,1,2,0:0:0:0:
216,152,46678,1,2,0:0:0:0:
128,160,46847,2,0,L|76:164,6,35,2|0|2|0|2|0|2,0:0|0:0|0:0|0:0|0:0|0:0|0:0,0:0:0:0:
351,94,47525,2,2,P|368:125|368:160,1,70
344,272,47864,1,2,0:0:0:0:
122,170,48712,6,2,B|100:236|100:236|120:304,1,140
272,236,49390,1,2,0:0:0:0:
272,236,49474,1,2,0:0:0:0:
272,236,49559,1,2,0:0:0:0:
296,136,49729,1,0,0:0:0:0:
386,184,49898,2,2,P|397:217|391:252,1,70
236,328,50237,6,2,P|269:339|304:333,1,70
392,252,50576,1,2,0:0:0:0:
368,96,51085,6,0,L|288:104,1,70,0|2,0:0|0:0,0:0:0:0:
276,108,51424,1,2,0:0:0:0:
256,112,51762,1,2,0:0:0:0:
164,132,52101,1,2,0:0:0:0:
164,132,52186,1,2,0:0:0:0:
164,132,52271,1,2,0:0:0:0:
104,196,52440,1,0,0:0:0:0:
184,236,52610,1,2,0:0:0:0:
368,128,52949,6,0,B|406:190|334:190|362:262,1,140
412,324,53457,1,0,0:0:0:0:
361,259,53627,2,0,P|294:245|221:260,1,140,2|0,0:0|0:0,0:0:0:0:
296,324,54135,1,2,0:0:0:0:
300,216,54305,2,0,L|304:64,1,140,2|0,0:0|0:0,0:0:0:0:
304,32,54813,1,2,0:0:0:0:
200,56,54983,2,2,B|176:84|176:84|160:144,2,70
416,188,55661,6,0,L|420:280,1,70
420,336,56000,2,0,L|350:339,1,70,2|0,0:0|0:0,0:0:0:0:
272,344,56339,2,0,L|202:347,1,70
116,328,56678,2,0,P|129:296|157:274,1,70,2|0,0:0|0:0,0:0:0:0:
248,224,57017,1,8,0:0:0:0:
124,76,57356,6,0,P|137:107|165:129,1,70,2|0,0:0|0:0,0:0:0:0:
288,120,57695,2,0,P|274:88|246:66,1,70
165,129,58034,1,2,0:0:0:0:
164,216,58203,5,2,0:0:0:0:
164,216,58288,1,0,0:0:0:0:
164,216,58373,2,0,B|160:285|160:285|198:344,1,140,2|2,0:0|0:0,0:0:0:0:
336,216,59051,2,0,B|340:285|340:285|302:344,1,140,0|2,0:0|0:0,0:0:0:0:
252,264,59559,1,2,0:0:0:0:
252,264,59644,1,2,0:0:0:0:
252,264,59729,2,0,L|248:116,1,140,2|2,0:0|0:0,0:0:0:0:
384,123,60407,2,0,P|316:109|248:124,1,140,0|2,0:0|0:0,0:0:0:0:
316,208,61085,1,2,0:0:0:0:
156,176,61593,5,2,0:0:0:0:
72,324,62101,5,2,0:0:0:0:
344,312,62610,6,0,L|436:320,2,70,2|2|2,0:0|0:0|0:0,0:0:0:0:
248,304,63118,2,2,L|196:300,4,35
104,104,63796,6,0,P|172:92|244:108,1,140,8|2,0:0|0:0,0:0:0:0:
238,243,64305,2,0,P|226:175|242:103,1,140
340,64,64813,1,2,0:0:0:0:
332,164,64983,1,0,0:0:0:0:
240,106,65152,1,0,0:0:0:0:
360,64,65322,1,0,0:0:0:0:
360,64,65491,2,0,L|430:68,1,70,2|0,0:0|0:0,0:0:0:0:
332,164,65830,2,0,L|262:160,1,70
152,108,66169,6,0,P|124:129|110:161,1,70,10|0,0:0|0:0,0:0:0:0:
96,244,66508,1,8,0:0:0:0:
180,216,66678,1,8,0:0:0:0:
176,304,66847,1,10,0:0:0:0:
176,304,67017,2,0,P|244:316|316:300,1,140,8|0,0:0|0:0,0:0:0:0:
308,208,67525,1,2,0:0:0:0:
392,248,67695,2,0,P|393:178|368:113,1,140
288,132,68203,1,2,0:0:0:0:
308,208,68373,1,0,0:0:0:0:
280,108,68542,2,0,P|228:64|156:80,1,140,0|10,0:0|0:0,0:0:0:0:
96,164,69051,5,0,0:0:0:0:
96,164,69220,2,0,L|92:320,1,140,0|2,0:0|0:0,0:0:0:0:
210,271,69729,2,0,P|158:315|86:299,1,140
184,84,70237,2,0,P|209:108|219:141,1,70,10|0,0:0|0:0,0:0:0:0:
312,108,70576,2,0,P|321:141|313:175,1,70,10|0,0:0|0:0,0:0:0:0:
416,188,70915,2,0,P|407:221|383:247,1,70,10|0,0:0|0:0,0:0:0:0:
452,312,71254,6,0,P|392:345|324:315,1,140,8|2,0:0|0:0,0:0:0:0:
228,296,71762,1,0,0:0:0:0:
228,296,71932,2,0,P|194:286|162:295,2,70,0|0|2,0:0|0:0|0:0,0:0:0:0:
329,321,72440,1,0,0:0:0:0:
404,240,72779,5,0,0:0:0:0:
452,180,72949,1,2,0:0:0:0:
408,116,73118,2,0,P|352:104|284:116,1,105
276,128,73457,1,0,0:0:0:0:
248,240,73627,2,0,L|240:292,2,35,2|0|0,0:0|0:0|0:0,0:0:0:0:
200,168,73966,2,0,L|96:168,1,105
72,180,74305,2,0,P|65:214|78:246,1,70,2|0,0:0|0:0,0:0:0:0:
256,328,74644,6,0,L|336:324,1,70,8|0,0:0|0:0,0:0:0:0:
408,320,74983,1,2,0:0:0:0:
488,296,75152,2,0,P|472:265|442:247,1,70
368,228,75491,2,0,L|272:224,1,70,0|2,0:0|0:0,0:0:0:0:
216,220,75830,2,0,L|220:140,1,70
224,72,76169,1,8,0:0:0:0:
224,72,76339,2,0,P|257:80|281:105,1,70,10|0,0:0|0:0,0:0:0:0:
312,180,76678,2,0,P|341:161|356:130,1,70,8|0,0:0|0:0,0:0:0:0:
296,188,77017,1,2,0:0:0:0:
112,256,77356,6,8,L|24:264,2,70,8|8|10,0:0|0:0|0:0,0:0:0:0:
152,328,77864,2,0,P|196:276|180:204,1,140
132,152,78373,1,2,0:0:0:0:
132,152,78542,2,0,B|185:100|213:166|256:106,1,140
308,48,79051,2,0,P|332:71|339:105,1,70,10|0,0:0|0:0,0:0:0:0:
416,100,79390,2,0,P|416:133|397:163,1,70,8|0,0:0|0:0,0:0:0:0:
460,212,79729,2,0,P|436:236|402:243,1,70,10|0,0:0|0:0,0:0:0:0:
408,324,80068,6,0,P|342:304|316:235,1,140,8|2,0:0|0:0,0:0:0:0:
320,152,80576,2,0,P|254:171|228:240,2,140,0|0|8,0:0|0:0|0:0,0:0:0:0:
396,172,81424,1,8,0:0:0:0:
404,96,81593,1,8,0:0:0:0:
396,172,81762,2,0,L|388:264,1,70,2|0,0:0|0:0,0:0:0:0:
308,300,82101,2,0,L|316:208,1,70,8|0,0:0|0:0,0:0:0:0:
324,132,82440,1,2,0:0:0:0:
80,312,82779,6,0,B|60:244|60:244|92:152,1,140,0|2,0:0|0:0,0:0:0:0:
104,100,83288,2,0,P|135:110|157:138,1,70
176,240,83627,1,0,0:0:0:0:
200,340,83796,1,2,0:0:0:0:
200,340,83966,2,0,B|260:302|260:302|298:213,1,140
308,164,84474,1,2,0:0:0:0:
400,144,84644,5,2,0:0:0:0:
400,144,84729,1,2,0:0:0:0:
400,144,84813,2,0,L|392:256,2,105,2|2|2,0:0|0:0|0:0,0:0:0:0:
428,72,85491,2,0,B|356:44|356:116|276:68,1,140
216,84,86000,1,2,0:0:0:0:
216,84,86085,1,2,0:0:0:0:
216,84,86169,1,2,0:0:0:0:
208,160,86339,2,0,L|200:236,2,70,2|0|2,0:0|0:0|0:0,0:0:0:0:
