osu file format v14

[General]
AudioFilename: audio.mp3
AudioLeadIn: 0
PreviewTime: 63627
Countdown: 1
SampleSet: Soft
StackLeniency: 0.4
Mode: 0
LetterboxInBreaks: 0
WidescreenStoryboard: 1

[Editor]
Bookmarks: 25830,47525,63796
DistanceSpacing: 1.5
BeatDivisor: 4
GridSize: 8
TimelineZoom: 1.4

[Metadata]
Title:Baby Lady LOVE
TitleUnicode:Baby→Lady LOVE
Artist:Ray
ArtistUnicode:Ray
Creator:DakiniBrave
Version:Collab Hyper
Source:ネコぱらOVA
Tags:Cat girl visual novel ova bakery Coconut Chocola Vanilla Cinnamon Azuki Maple Kashou Minaduki Shigure neko paradise nekopara Moonlit Fizz Ambient Rizen DakiniBrave
BeatmapID:1316752
BeatmapSetID:562021

[Difficulty]
HPDrainRate:6
CircleSize:4
OverallDifficulty:7
ApproachRate:8
SliderMultiplier:1.2
SliderTickRate:1

[Events]
//Background and Video events
0,0,"fd942a366ec881f0d1c171e2a420e2e5163c0541.jpg",0,0
Video,76,"video.avi"
//Break Periods
//Storyboard Layer 0 (Background)
//Storyboard Layer 1 (Fail)
//Storyboard Layer 2 (Pass)
//Storyboard Layer 3 (Foreground)
//Storyboard Sound Samples

[TimingPoints]
1424,338.983050847458,4,2,2,70,1,0
6847,-100,4,2,1,70,0,0
12779,-100,4,2,2,70,0,0
13457,-100,4,2,1,70,0,0
14898,-100,4,2,2,5,0,0
14983,-100,4,2,1,70,0,0
25745,-100,4,2,1,5,0,0
25830,-100,4,2,1,70,0,0
63796,-100,4,2,1,80,0,1
73457,-100,4,2,1,80,0,0
74644,-100,4,2,1,80,0,1
88203,-100,4,2,1,80,0,0

[Colours]
Combo1 : 226,54,80
Combo2 : 90,197,205
Combo3 : 225,168,81
Combo4 : 202,202,202
Combo5 : 188,88,209

[HitObjects]
4,157,1424,6,0,B|63:146|63:146|121:158,1,120,6|0,0:0|0:0,0:0:0:0:
180,226,1932,2,0,B|121:237|121:237|62:224,1,120,2|2,0:0|0:0,0:0:0:0:
225,147,2610,6,0,P|264:190|266:249,1,120,2|2,0:0|0:0,0:0:0:0:
180,226,3118,1,2,0:0:0:0:
318,110,3457,2,0,L|438:122,1,120,2|0,0:0|0:0,0:0:0:0:
465,208,3966,1,0,0:0:0:0:
405,274,4135,6,0,L|413:333,2,60,2|2|2,0:0|0:0|0:0,0:0:0:0:
316,249,4644,2,0,P|263:275|204:278,1,120,2|2,0:0|0:0,0:0:0:0:
119,246,5152,1,2,0:0:0:0:
141,158,5322,2,0,L|129:38,1,120,2|2,0:0|0:0,0:0:0:0:
216,64,5830,1,2,0:0:0:0:
292,16,6000,1,2,0:0:0:0:
377,43,6169,2,0,L|365:162,1,120,2|8,0:0|0:0,0:0:0:0:
256,305,6847,6,0,P|226:306|196:300,1,60,6|0,0:0|0:0,0:0:0:0:
157,382,7186,2,0,P|134:361|117:337,1,60,2|0,0:0|0:0,0:0:0:0:
30,361,7525,2,0,P|28:331|34:301,1,60,2|0,0:0|0:0,0:0:0:0:
79,223,7864,1,10,0:0:0:0:
162,189,8034,6,0,P|167:159|166:129,1,60,0|0,0:0|0:0,0:0:0:0:
92,77,8373,1,0,0:0:0:0:
158,16,8542,2,0,L|217:11,1,60,2|0,0:0|0:0,0:0:0:0:
303,39,8881,2,0,L|362:44,1,60,2|0,0:0|0:0,0:0:0:0:
445,79,9220,2,0,P|449:50|449:20,1,60,10|0,0:0|0:0,0:0:0:0:
372,133,9559,6,0,P|367:162|367:192,1,60,6|0,0:0|0:0,0:0:0:0:
412,270,9898,1,10,0:0:0:0:
365,347,10068,2,0,P|307:331|248:339,1,120,0|0,0:0|0:0,0:0:0:0:
163,308,10576,1,10,0:0:0:0:
73,300,10746,6,0,P|124:269|160:222,1,120,4|0,0:0|0:0,0:0:0:0:
141,133,11254,1,10,0:0:0:0:
211,76,11424,1,0,0:0:0:0:
211,76,11508,1,0,0:0:0:0:
211,76,11593,2,0,L|300:67,2,90,10|10|10,0:0|0:0|0:0,0:0:0:0:
344,145,12271,6,0,P|382:99|382:40,1,120,4|0,0:0|0:0,0:0:0:0:
300,67,12779,1,2,0:0:0:0:
255,146,12949,2,0,P|260:175|274:201,1,60,2|2,0:0|0:0,0:0:0:0:
360,229,13288,1,2,0:0:0:0:
294,289,13457,6,0,L|225:280,1,60,10|0,0:0|0:0,0:0:0:0:
159,331,13796,2,0,L|90:322,1,60,10|0,0:0|0:0,0:0:0:0:
20,279,14135,1,10,0:0:0:0:
40,191,14305,2,0,L|36:145,4,30,2|2|2|2|10,0:0|0:0|0:0|0:0|0:0,0:0:0:0:
117,30,14983,6,0,P|113:59|118:89,1,60,6|0,0:0|0:0,0:0:0:0:
201,122,15322,2,0,P|205:151|201:181,1,60,10|0,0:0|0:0,0:0:0:0:
124,229,15661,1,2,0:0:0:0:
224,331,15830,1,0,0:0:0:0:
135,317,16000,1,10,0:0:0:0:
263,250,16169,6,0,L|322:257,1,60,0|0,0:0|0:0,0:0:0:0:
407,227,16508,1,0,0:0:0:0:
482,277,16678,2,0,P|494:244|493:210,1,60,10|0,0:0|0:0,0:0:0:0:
445,143,17017,2,0,P|446:113|457:85,1,60,2|0,0:0|0:0,0:0:0:0:
370,62,17356,2,0,P|368:91|357:119,1,60,10|0,0:0|0:0,0:0:0:0:
279,165,17695,6,0,P|249:163|221:152,1,60,2|0,0:0|0:0,0:0:0:0:
168,225,18034,2,0,P|147:202|136:175,1,60,10|0,0:0|0:0,0:0:0:0:
163,89,18373,1,2,0:0:0:0:
75,109,18542,1,0,0:0:0:0:
136,175,18712,1,10,0:0:0:0:
36,255,18881,6,0,P|37:225|49:198,1,60,4|0,0:0|0:0,0:0:0:0:
75,109,19220,1,0,0:0:0:0:
221,152,19390,1,10,0:0:0:0:
136,175,19559,1,0,0:0:0:0:
246,66,19729,2,0,P|273:78|293:100,1,60,2|0,0:0|0:0,0:0:0:0:
303,189,20068,1,10,0:0:0:0:
389,213,20237,1,2,0:0:0:0:
389,213,20322,1,2,0:0:0:0:
389,213,20407,6,0,L|393:153,1,60,2|0,0:0|0:0,0:0:0:0:
476,188,20746,2,0,L|480:247,1,60,10|0,0:0|0:0,0:0:0:0:
477,338,21085,1,2,0:0:0:0:
389,213,21254,1,0,0:0:0:0:
480,247,21424,1,10,0:0:0:0:
337,284,21593,6,0,L|277:280,1,60,0|0,0:0|0:0,0:0:0:0:
190,304,21932,1,0,0:0:0:0:
107,268,22101,2,0,P|110:238|106:208,1,60,10|0,0:0|0:0,0:0:0:0:
35,153,22440,2,0,P|31:123|34:93,1,60,2|0,0:0|0:0,0:0:0:0:
119,62,22779,2,0,P|122:91|119:121,1,60,10|0,0:0|0:0,0:0:0:0:
203,29,23118,6,0,L|262:33,1,60,4|0,0:0|0:0,0:0:0:0:
337,83,23457,1,10,0:0:0:0:
421,50,23627,2,0,L|424:20,2,30,2|2|2,0:0|0:0|0:0,0:0:0:0:
492,105,23966,1,2,0:0:0:0:
484,194,24135,1,10,0:0:0:0:
396,217,24305,6,0,P|340:199|280:203,1,120,8|0,0:0|0:0,0:0:0:0:
194,231,24813,1,0,0:0:0:0:
119,180,24983,1,10,0:0:0:0:
119,180,25322,2,0,L|110:299,1,120,10|0,0:0|0:0,0:0:0:0:
190,340,25830,6,0,L|273:348,1,60,6|0,0:0|0:0,0:0:0:0:
325,297,26169,2,0,L|454:312,2,120,8|2|8,0:0|0:0|0:0,0:0:0:0:
245,252,27017,1,0,0:0:0:0:
302,182,27186,6,0,P|326:131|298:70,1,120,2|8,0:0|0:0,0:0:0:0:
228,24,27695,1,0,0:0:0:0:
152,74,27864,2,0,L|70:66,1,60,2|0,0:0|0:0,0:0:0:0:
40,142,28203,2,0,L|47:223,1,60,8|0,0:0|0:0,0:0:0:0:
116,256,28542,6,0,P|53:248|-4:297,2,120,2|8|2,0:0|0:0|0:0,0:0:0:0:
185,315,29390,1,0,0:0:0:0:
254,258,29559,2,0,L|325:264,1,60,8|0,0:0|0:0,0:0:0:0:
370,333,29898,6,0,P|402:281|382:204,1,120,2|8,0:0|0:0,0:0:0:0:
357,141,30407,1,0,0:0:0:0:
415,72,30576,2,0,L|497:76,2,60,2|0|8,0:0|0:0|0:0,0:0:0:0:
343,16,31085,1,0,0:0:0:0:
265,60,31254,6,0,L|184:51,1,60,2|0,0:0|0:0,0:0:0:0:
135,111,31593,2,0,P|105:106|76:114,1,60,8|0,0:0|0:0,0:0:0:0:
103,200,31932,2,0,P|73:206|49:222,1,60,2|0,0:0|0:0,0:0:0:0:
103,294,32271,2,0,P|77:309|60:333,1,60,8|0,0:0|0:0,0:0:0:0:
184,333,32610,6,0,L|256:340,1,60,2|0,0:0|0:0,0:0:0:0:
346,265,32949,2,0,L|286:271,1,60,8|0,0:0|0:0,0:0:0:0:
184,197,33288,2,0,L|243:203,1,60,2|0,0:0|0:0,0:0:0:0:
346,129,33627,2,0,L|286:135,1,60,8|0,0:0|0:0,0:0:0:0:
411,70,33966,6,0,P|432:126|397:202,1,120,2|8,0:0|0:0,0:0:0:0:
368,259,34474,1,0,0:0:0:0:
443,308,34644,2,0,L|449:235,1,60,2|0,0:0|0:0,0:0:0:0:
368,259,34983,1,8,0:0:0:0:
302,320,35152,1,2,0:0:0:0:
302,320,35237,1,0,0:0:0:0:
302,320,35322,6,0,P|242:297|180:328,1,120,0|0,0:0|0:0,0:0:0:0:
110,354,35830,2,0,L|117:219,1,120,2|0,0:0|0:0,0:0:0:0:
177,167,36339,1,8,0:0:0:0:
126,105,36508,1,0,0:0:0:0:
126,105,36593,1,0,0:0:0:0:
126,105,36678,6,0,L|46:111,1,60,6|0,0:0|0:0,0:0:0:0:
90,23,37017,2,0,L|214:12,1,120,8|2,0:0|0:0,0:0:0:0:
291,50,37525,1,0,0:0:0:0:
223,110,37695,2,0,L|216:180,1,60,8|0,0:0|0:0,0:0:0:0:
159,237,38034,6,0,P|214:218|270:237,1,120,2|8,0:0|0:0,0:0:0:0:
337,297,38542,1,0,0:0:0:0:
413,248,38712,2,0,L|419:170,2,60,2|0|8,0:0|0:0|0:0,0:0:0:0:
462,323,39220,1,0,0:0:0:0:
390,378,39390,6,0,L|330:372,1,60,2|0,0:0|0:0,0:0:0:0:
252,324,39729,2,0,P|223:319|194:323,1,60,8|0,0:0|0:0,0:0:0:0:
117,275,40068,2,0,P|87:279|58:273,1,60,2|0,0:0|0:0,0:0:0:0:
9,197,40407,2,0,P|4:167|10:138,1,60,8|0,0:0|0:0,0:0:0:0:
97,50,40746,6,0,P|101:79|96:109,1,60,2|0,0:0|0:0,0:0:0:0:
147,182,41085,1,8,0:0:0:0:
212,120,41254,2,0,L|288:127,1,60,0|2,0:0|0:0,0:0:0:0:
342,70,41593,1,0,0:0:0:0:
399,138,41762,1,8,0:0:0:0:
332,199,41932,6,0,P|311:254|333:308,1,120,0|0,0:0|0:0,0:0:0:0:
416,345,42440,2,0,L|424:275,1,60,8|0,0:0|0:0,0:0:0:0:
333,308,42779,1,2,0:0:0:0:
278,236,42949,1,0,0:0:0:0:
223,308,43118,1,8,0:0:0:0:
168,236,43288,1,0,0:0:0:0:
121,312,43457,6,0,P|81:268|84:202,1,120,2|8,0:0|0:0,0:0:0:0:
146,147,43966,1,0,0:0:0:0:
236,150,44135,2,0,P|217:206|159:237,1,120,2|8,0:0|0:0,0:0:0:0:
146,147,44644,1,0,0:0:0:0:
188,68,44813,6,0,L|328:80,1,120,6|8,0:0|0:0,0:0:0:0:
366,147,45322,1,6,0:0:0:0:
428,82,45491,2,0,L|421:10,2,60,6|0|8,0:0|0:0|0:0,0:0:0:0:
468,163,46000,6,0,L|462:222,1,60,6|0,0:0|0:0,0:0:0:0:
371,222,46339,2,0,L|376:281,1,60,4|0,0:0|0:0,0:0:0:0:
449,334,46678,1,6,0:0:0:0:
365,366,46847,2,0,L|241:355,1,120,6|0,0:0|0:0,0:0:0:0:
189,284,47356,1,0,0:0:0:0:
56,304,47525,5,10,0:0:0:0:
98,171,47695,1,10,0:0:0:0:
189,284,47864,1,10,0:0:0:0:
347,84,48712,6,0,L|353:143,1,60,2|0,0:0|0:0,0:0:0:0:
436,178,49051,2,0,L|430:237,1,60,2|8,0:0|0:0,0:0:0:0:
371,306,49390,2,0,L|374:335,2,30,2|2|2,0:0|0:0|0:0,0:0:0:0:
289,268,49729,1,2,0:0:0:0:
209,308,49898,2,0,P|179:308|150:300,1,60,8|2,0:0|0:0,0:0:0:0:
48,197,50237,5,10,0:0:0:0:
196,224,50407,1,10,0:0:0:0:
63,280,50576,1,10,0:0:0:0:
195,43,51424,6,0,L|254:50,1,60,2|0,0:0|0:0,0:0:0:0:
309,121,51763,2,0,L|368:113,1,60,2|8,0:0|0:0,0:0:0:0:
450,77,52101,1,2,0:0:0:0:
510,143,52271,2,0,P|513:172|506:201,1,60,2|2,0:0|0:0,0:0:0:0:
458,277,52610,2,0,L|460:306,2,30,10|0|2,0:0|0:0|0:0,0:0:0:0:
382,226,52949,6,0,P|322:219|266:238,1,120,6|0,0:0|0:0,0:0:0:0:
208,307,53457,1,2,0:0:0:0:
130,260,53627,2,0,P|149:237|175:223,1,60,8|0,0:0|0:0,0:0:0:0:
266,238,53966,2,0,P|285:260|294:288,1,60,8|0,0:0|0:0,0:0:0:0:
208,307,54305,1,2,0:0:0:0:
175,223,54474,6,0,L|185:103,1,120,8|0,0:0|0:0,0:0:0:0:
133,28,54983,2,0,L|73:20,2,60,8|8|2,0:0|0:0|0:0,0:0:0:0:
290,114,55661,6,0,P|318:105|348:106,1,60,6|0,0:0|0:0,0:0:0:0:
331,195,56000,2,0,P|357:208|378:230,1,60,2|0,0:0|0:0,0:0:0:0:
303,281,56339,2,0,P|312:309|311:339,1,60,2|0,0:0|0:0,0:0:0:0:
222,321,56678,2,0,L|162:315,1,60,10|0,0:0|0:0,0:0:0:0:
93,257,57017,6,0,L|98:197,1,60,2|0,0:0|0:0,0:0:0:0:
183,168,57356,2,0,L|188:108,1,60,2|0,0:0|0:0,0:0:0:0:
273,78,57695,2,0,L|278:18,1,60,2|0,0:0|0:0,0:0:0:0:
358,59,58034,2,0,P|387:61|416:54,1,60,10|2,0:0|0:0,0:0:0:0:
395,142,58373,6,0,B|403:203|403:203|447:164,1,120,6|8,0:0|0:0,0:0:0:0:
481,248,58881,2,0,P|459:303|469:361,1,120,0|0,0:0|0:0,0:0:0:0:
383,332,59390,2,0,P|353:333|325:344,1,60,8|2,0:0|0:0,0:0:0:0:
181,360,59729,6,0,P|210:362|239:372,1,60,6|0,0:0|0:0,0:0:0:0:
107,307,60068,2,0,P|130:286|157:273,1,60,8|0,0:0|0:0,0:0:0:0:
246,285,60407,1,0,0:0:0:0:
216,147,60576,1,8,0:0:0:0:
157,273,60746,1,8,0:0:0:0:
278,207,60915,1,2,0:0:0:0:
145,198,61085,6,0,L|85:191,1,60,12|0,0:0|0:0,0:0:0:0:
246,285,61593,2,0,L|305:278,1,60,12|0,0:0|0:0,0:0:0:0:
416,136,62101,2,0,L|296:121,1,120,12|0,0:0|0:0,0:0:0:0:
216,163,62610,5,10,0:0:0:0:
147,104,62779,1,10,0:0:0:0:
229,68,62949,1,10,0:0:0:0:
296,121,63118,2,0,L|325:125,2,30,2|2|2,0:0|0:0|0:0,0:0:0:0:
216,163,63457,2,0,L|186:167,2,30,14|0|0,0:0|0:0|0:0,0:0:0:0:
299,254,63796,6,0,P|365:275|427:243,1,120,6|10,0:0|0:0,0:0:0:0:
458,181,64305,2,0,L|465:106,1,60,0|2,0:0|0:0,0:0:0:0:
377,95,64644,2,0,L|370:35,1,60,0|10,0:0|0:0,0:0:0:0:
282,52,64983,6,0,P|248:58|208:45,1,60,0|2,0:0|0:0,0:0:0:0:
138,22,65322,1,0,0:0:0:0:
67,77,65491,2,0,L|77:208,1,120,10|2,0:0|0:0,0:0:0:0:
129,269,66000,1,0,0:0:0:0:
217,251,66169,2,0,L|266:257,3,30,10|0|0|0,0:0|0:0|0:0|0:0,0:0:0:0:
291,263,66508,5,2,0:0:0:0:
418,185,66678,1,0,0:0:0:0:
270,174,66847,1,10,0:0:0:0:
384,270,67017,2,0,L|443:264,1,60,0|2,0:0|0:0,0:0:0:0:
508,201,67356,2,0,P|514:173|507:144,1,60,0|10,0:0|0:0,0:0:0:0:
407,53,67695,6,0,P|378:60|349:53,1,60,0|2,0:0|0:0,0:0:0:0:
244,11,68034,1,0,0:0:0:0:
217,119,68203,2,0,L|222:198,1,60,10|0,0:0|0:0,0:0:0:0:
169,251,68542,2,0,P|227:231|286:258,1,120,2|14,0:0|0:0,0:0:0:0:
351,306,69051,1,0,0:0:0:0:
226,360,69220,6,0,L|152:366,1,60,6|0,0:0|0:0,0:0:0:0:
98,305,69559,1,10,0:0:0:0:
169,251,69729,2,0,P|178:222|173:193,1,60,0|2,0:0|0:0,0:0:0:0:
112,126,70068,2,0,P|107:96|116:68,1,60,0|10,0:0|0:0,0:0:0:0:
227,55,70407,6,0,P|255:64|284:59,1,60,0|2,0:0|0:0,0:0:0:0:
356,3,70746,1,0,0:0:0:0:
398,104,70915,2,0,L|391:185,1,60,10|0,0:0|0:0,0:0:0:0:
363,256,71254,2,0,P|419:241|474:273,1,120,2|10,0:0|0:0,0:0:0:0:
508,351,71762,1,0,0:0:0:0:
379,348,71932,6,0,L|306:354,1,60,2|0,0:0|0:0,0:0:0:0:
229,363,72271,1,10,0:0:0:0:
157,309,72440,2,0,L|119:312,2,30,2|2|2,0:0|0:0|0:0,0:0:0:0:
224,248,72779,2,0,L|283:252,1,60,2|10,0:0|0:0,0:0:0:0:
426,212,73118,6,0,P|378:161|316:158,1,120,6|2,0:0|0:0,0:0:0:0:
240,161,73627,2,0,P|210:166|181:159,1,60,10|2,0:0|0:0,0:0:0:0:
118,95,73966,2,0,L|116:57,2,30,2|2|2,0:0|0:0|0:0,0:0:0:0:
50,35,74305,2,0,L|48:-3,2,30,10|2|2,0:0|0:0|0:0,0:0:0:0:
12,173,74644,6,0,L|24:308,1,120,6|10,0:0|0:0,0:0:0:0:
97,344,75152,2,0,P|131:353|175:336,1,60,0|2,0:0|0:0,0:0:0:0:
224,290,75491,2,0,P|253:285|281:294,1,60,0|10,0:0|0:0,0:0:0:0:
389,350,75830,6,0,L|393:269,1,60,0|2,0:0|0:0,0:0:0:0:
336,218,76169,1,0,0:0:0:0:
409,165,76339,2,0,B|481:171,1,60,10|0,0:0|0:0,0:0:0:0:
512,77,76678,2,0,B|440:83,1,60,2|0,0:0|0:0,0:0:0:0:
365,52,77017,2,0,L|321:46,3,30,10|0|0|0,0:0|0:0|0:0|0:0,0:0:0:0:
290,41,77356,5,2,0:0:0:0:
167,31,77525,1,0,0:0:0:0:
276,160,77695,1,10,0:0:0:0:
159,150,77864,2,0,P|125:148|95:157,1,60,0|2,0:0|0:0,0:0:0:0:
67,272,78203,2,0,P|101:274|131:265,1,60,0|10,0:0|0:0,0:0:0:0:
249,197,78542,6,0,L|244:275,1,60,0|2,0:0|0:0,0:0:0:0:
264,384,78881,1,0,0:0:0:0:
350,285,79051,2,0,P|379:279|407:289,1,60,10|0,0:0|0:0,0:0:0:0:
491,367,79390,2,0,L|499:241,1,120,2|14,0:0|0:0,0:0:0:0:
439,167,79898,1,0,0:0:0:0:
317,96,80068,6,0,L|382:101,1,60,6|0,0:0|0:0,0:0:0:0:
439,167,80407,1,10,0:0:0:0:
371,226,80576,2,0,P|342:234|313:229,1,60,0|2,0:0|0:0,0:0:0:0:
230,168,80915,2,0,P|200:162|172:171,1,60,0|10,0:0|0:0,0:0:0:0:
70,142,81254,6,0,L|77:57,1,60,0|2,0:0|0:0,0:0:0:0:
133,13,81593,1,0,0:0:0:0:
204,67,81762,2,0,P|241:76|278:61,1,60,10|0,0:0|0:0,0:0:0:0:
347,43,82101,2,0,L|344:119,1,60,2|0,0:0|0:0,0:0:0:0:
280,166,82440,2,0,L|278:204,3,30,10|0|0|0,0:0|0:0|0:0|0:0,0:0:0:0:
300,235,82779,6,0,L|303:311,2,60,6|0|10,0:0|0:0|0:0,0:0:0:0:
378,189,83288,2,0,P|406:181|435:188,1,60,0|2,0:0|0:0,0:0:0:0:
493,310,83627,1,0,0:0:0:0:
512,229,83796,1,10,0:0:0:0:
414,338,83966,6,0,L|267:330,1,120,4|0,0:0|0:0,0:0:0:0:
231,253,84474,1,10,0:0:0:0:
168,328,84644,1,2,0:0:0:0:
168,328,84729,1,0,0:0:0:0:
168,328,84813,2,0,L|54:323,2,90,10|10|10,0:0|0:0|0:0,0:0:0:0:
293,338,85491,6,0,P|287:270|230:222,1,120,6|10,0:0|0:0,0:0:0:0:
135,185,86000,2,0,L|78:187,2,30,0|0|0,0:0|0:0|0:0,0:0:0:0:
233,109,86339,1,2,0:0:0:0:
121,57,86508,1,10,0:0:0:0:
135,185,86678,5,6,0:0:0:0:
256,192,86762,12,0,88203,0:0:0:0:
