osu file format v14

[General]
AudioFilename: audio.mp3
AudioLeadIn: 0
PreviewTime: 14983
Countdown: 0
SampleSet: Soft
StackLeniency: 0.3
Mode: 0
LetterboxInBreaks: 0
WidescreenStoryboard: 0

[Editor]
Bookmarks: 88203
DistanceSpacing: 1.2
BeatDivisor: 4
GridSize: 16
TimelineZoom: 1

[Metadata]
Title:Baby -> Lady LOVE (TV Size)
TitleUnicode:Baby→Lady LOVE (TV Size)
Artist:Ray
ArtistUnicode:Ray
Creator:Momochikun
Version:Hard
Source:ネコぱらOVA
Tags:opening nekopara ova visual novel neko paradise
BeatmapID:1840779
BeatmapSetID:880281

[Difficulty]
HPDrainRate:6
CircleSize:4
OverallDifficulty:6
ApproachRate:7.7
SliderMultiplier:1.4
SliderTickRate:1

[Events]
//Background and Video events
0,0,"nekopara.jpg",0,0
Video,0,"neko.avi"
//Break Periods
//Storyboard Layer 0 (Background)
//Storyboard Layer 1 (Fail)
//Storyboard Layer 2 (Pass)
//Storyboard Layer 3 (Foreground)
//Storyboard Sound Samples

[TimingPoints]
1424,338.983050847458,4,2,1,60,1,0
1424,-111.111111111111,4,2,1,60,0,0
6847,-100,4,2,1,70,0,0
13457,-100,4,2,1,60,0,0
14983,-100,4,2,1,80,0,1
15068,-100,4,2,1,80,0,0
24305,-100,4,2,1,60,0,0
24983,-100,4,2,1,50,0,0
25830,-100,4,2,1,70,0,0
47525,-100,4,2,1,60,0,0
52949,-111.111111111111,4,2,1,60,0,0
55661,-100,4,2,1,65,0,0
58373,-105.263157894737,4,2,1,50,0,0
61085,-100,4,2,1,65,0,0
62610,-100,4,2,1,70,0,0
63796,-100,4,2,1,80,0,1
68542,-100,4,2,1,70,0,1
68627,-100,4,2,1,80,0,1
73966,-100,4,2,1,70,0,0
74644,-100,4,2,1,80,0,1
86678,-100,4,2,1,85,0,1
86762,-100,4,2,1,20,0,0

[Colours]
Combo1 : 255,155,255
Combo2 : 128,255,128
Combo3 : 79,255,167
Combo4 : 170,170,255

[HitObjects]
106,305,1424,6,0,P|167:325|236:313,1,125.999996154785,4|0,0:0|0:0,0:0:0:0:
291,263,1932,2,0,P|349:240|411:246,2,125.999996154785,2|2|2,0:0|0:0|0:0,0:0:0:0:
291,263,2949,1,2,0:0:0:0:
230,207,3118,2,0,L|207:72,1,125.999996154785,0|2,0:0|0:0,0:0:0:0:
366,17,3796,6,0,L|344:141,1,125.999996154785,2|2,0:3|0:0,0:0:0:0:
335,223,4305,2,0,P|375:233|413:232,1,62.9999980773926,0|0,0:0|0:0,0:0:0:0:
494,300,4644,2,0,P|421:281|352:283,1,125.999996154785,2|2,0:0|0:0,0:0:0:0:
302,327,5152,1,0,0:0:0:0:
222,347,5322,6,0,P|183:316|181:234,1,125.999996154785,2|2,0:0|0:0,0:0:0:0:
138,169,5830,2,0,P|168:148|197:145,1,62.9999980773926,2|0,0:0|0:0,0:0:0:0:
253,86,6169,2,0,P|288:92|310:111,1,62.9999980773926,2|0,0:0|0:0,0:0:0:0:
309,109,6424,1,0,0:0:0:0:
309,109,6508,1,2,0:3:0:0:
421,219,6847,6,0,P|358:255|277:242,1,140,4|0,0:0|1:0,0:0:0:0:
238,182,7356,2,0,P|170:177|110:212,1,140
77,290,7864,1,8,0:0:0:0:
135,351,8034,6,0,P|176:366|229:359,1,70,0|0,0:0|1:0,0:0:0:0:
267,313,8373,1,0,0:0:0:0:
267,313,8542,2,0,P|306:294|339:252,1,70,0|0,1:0|0:0,0:0:0:0:
372,206,8881,2,0,B|414:237|464:211|464:211|487:168,1,140,0|8,1:0|0:0,0:0:0:0:
463,82,9390,1,0,0:0:0:0:
354,91,9559,5,4,0:0:0:0:
277,56,9729,2,0,P|260:87|259:122,1,70,0|8,0:0|0:0,0:0:0:0:
322,184,10068,2,0,P|262:156|173:172,1,140,4|0,0:0|0:0,0:0:0:0:
113,235,10576,1,8,0:0:0:0:
165,326,10746,6,0,P|225:354|314:338,1,140,4|0,0:0|0:0,0:0:0:0:
374,314,11254,1,8,0:0:0:0:
430,226,11424,1,0,1:0:0:0:
430,226,11508,1,8,0:1:0:0:
430,226,11593,2,0,L|403:121,2,105,4|8|8,0:0|0:0|0:0,0:0:0:0:
325,193,12271,5,4,0:0:0:0:
325,193,12779,1,2,0:0:0:0:
258,140,12949,1,0,0:0:0:0:
175,156,13118,1,2,0:0:0:0:
139,232,13288,1,0,0:0:0:0:
192,310,13457,6,0,P|245:350|327:330,2,140,4|8|4,0:0|0:0|0:0,0:0:0:0:
175,156,14305,2,0,L|150:98,4,35,0|0|0|0|2,1:0|1:0|1:0|0:0|3:0,0:0:0:0:
322,118,14983,6,0,L|298:52,1,70,4|0,0:0|0:0,0:0:0:0:
299,53,15322,2,0,P|363:75|443:69,1,140,8|8,0:0|0:1,0:0:0:0:
474,142,15830,1,2,0:0:0:0:
429,213,16000,1,8,0:0:0:0:
375,277,16169,6,0,P|310:263|234:309,1,140,2|0,0:0|0:0,0:0:0:0:
168,261,16678,2,0,L|115:319,1,70,8|0,0:0|0:0,0:0:0:0:
124,181,17017,2,0,L|71:239,2,70,10|0|8,0:1|0:0|0:0,0:0:0:0:
190,104,17525,5,0,0:0:0:0:
190,104,17610,1,0,0:0:0:0:
190,104,17695,2,0,P|221:89|260:87,1,70,10|0,0:1|0:0,0:0:0:0:
369,141,18034,2,0,P|296:175|215:165,1,140,8|10,0:0|0:1,0:0:0:0:
175,53,18542,1,0,0:0:0:0:
256,86,18712,1,8,0:0:0:0:
132,142,18881,6,0,B|91:111|38:129|38:129|14:109|8:88,1,140,4|2,0:0|0:0,0:0:0:0:
81,206,19390,2,0,P|97:243|112:277,1,70,8|2,0:0|0:0,0:0:0:0:
188,224,19729,2,0,P|225:238|260:252,1,70,8|2,0:1|0:1,0:0:0:0:
314,173,20068,1,2,3:0:0:0:
411,109,20237,5,8,0:1:0:0:
433,98,20322,1,0,1:0:0:0:
454,89,20407,2,0,P|421:146|431:231,1,140,4|8,0:0|0:0,0:0:0:0:
364,287,20915,2,0,P|330:301|296:297,2,70,0|8|2,0:0|0:1|0:0,0:0:0:0:
316,216,21424,1,8,0:0:0:0:
227,346,21593,6,0,B|175:367|139:323|80:349,1,140,2|2,0:0|0:0,0:0:0:0:
35,280,22101,2,0,L|55:191,1,70,8|0,0:0|0:0,0:0:0:0:
106,146,22440,2,0,P|157:118|259:124,1,140,10|8,0:1|0:0,0:0:0:0:
320,238,22949,5,0,0:0:0:0:
320,238,23034,1,0,0:0:0:0:
320,238,23118,2,0,P|250:239|188:208,1,140,4|8,0:0|0:0,0:0:0:0:
108,150,23627,1,8,0:1:0:0:
108,150,23712,1,0,0:1:0:0:
108,150,23796,2,0,P|89:187|83:221,2,70,8|8|8,0:1|0:1|0:0,0:0:0:0:
138,63,24305,6,0,B|178:52|178:52|225:86|288:59,1,140,4|0,0:0|0:0,0:0:0:0:
437,35,24983,1,4,0:0:0:0:
499,190,25322,1,4,0:0:0:0:
334,351,25830,6,0,L|266:369,1,70,4|0,0:0|0:0,0:0:0:0:
190,332,26169,2,0,P|158:278|178:201,1,140,8|8,0:0|0:1,0:0:0:0:
214,131,26678,1,0,0:0:0:0:
290,165,26847,2,0,P|323:180|372:174,1,70,8|0,0:0|0:0,0:0:0:0:
484,109,27186,6,0,P|434:84|351:84,1,140,8|8,0:1|0:0,0:0:0:0:
280,38,27695,1,0,0:0:0:0:
200,64,27864,2,0,P|155:55|119:42,1,70,8|0,0:1|0:0,0:0:0:0:
51,72,28203,1,8,0:0:0:0:
107,134,28373,1,0,0:0:0:0:
49,194,28542,6,0,P|38:239|29:279,1,70,8|0,0:1|0:0,0:0:0:0:
120,311,28881,2,0,L|136:242,1,70,8|0,0:0|0:0,0:0:0:0:
193,181,29220,2,0,P|246:218|338:211,1,140,8|8,0:1|0:0,0:0:0:0:
384,72,29898,6,0,P|317:89|271:141,1,140,8|8,0:1|0:0,0:0:0:0:
319,218,30407,1,0,0:0:0:0:
193,181,30576,2,0,P|188:249|231:307,1,140,8|8,0:1|0:0,0:0:0:0:
306,337,31085,1,0,0:0:0:0:
190,313,31254,6,0,P|180:355|173:394,1,70,8|0,0:1|0:0,0:0:0:0:
93,282,31593,2,0,P|86:247|78:213,1,70,8|0,0:0|0:0,0:0:0:0:
203,124,31932,2,0,L|188:192,2,70,8|0|8,0:1|0:0|0:0,0:0:0:0:
236,46,32440,1,0,0:0:0:0:
328,23,32610,6,0,P|358:47|375:84,1,70,8|0,0:1|0:0,0:0:0:0:
449,109,32949,2,0,P|453:147|439:185,1,70,8|0,0:0|0:0,0:0:0:0:
489,247,33288,2,0,P|465:277|428:294,1,70,8|0,0:1|0:0,0:0:0:0:
358,263,33627,6,0,P|299:247|218:287,2,140,8|8|8,0:0|0:1|0:0,0:0:0:0:
358,263,34644,1,8,0:1:0:0:
288,216,34813,1,0,0:0:0:0:
256,138,34983,2,0,P|258:99|281:67,1,70,8|10,0:0|0:1,0:0:0:0:
284,43,35237,5,0,0:0:0:0:
284,43,35322,2,0,L|196:69,1,70,4|8,0:0|0:1,0:0:0:0:
141,99,35661,1,8,0:0:0:0:
256,138,35830,2,0,L|390:97,1,140,4|8,0:0|0:1,0:0:0:0:
472,76,36339,1,8,0:0:0:0:
495,156,36508,1,8,0:1:0:0:
421,228,36678,5,4,0:0:0:0:
421,228,37017,2,0,P|373:261|277:241,1,140,8|8,0:0|0:1,0:0:0:0:
216,284,37525,1,0,0:0:0:0:
158,222,37695,2,0,P|143:188|150:139,1,70,8|0,0:0|0:0,0:0:0:0:
175,77,38034,6,0,L|312:117,1,140,8|8,0:1|0:0,0:0:0:0:
379,69,38542,1,0,0:0:0:0:
379,69,38712,2,0,P|426:107|428:191,1,140,8|8,0:1|0:0,0:0:0:0:
366,240,39220,1,0,0:0:0:0:
269,210,39390,6,0,L|201:231,1,70,8|0,0:1|0:0,0:0:0:0:
138,340,39729,2,0,P|178:352|261:293,2,140,8|8|8,0:0|0:1|0:0,0:0:0:0:
74,285,40576,1,0,0:0:0:0:
117,212,40746,6,0,P|132:178|124:138,1,70,8|0,0:1|0:0,0:0:0:0:
64,90,41085,1,8,0:0:0:0:
23,163,41254,1,0,0:0:0:0:
117,212,41424,2,0,L|183:191,1,70,8|0,0:1|0:0,0:0:0:0:
229,72,41762,2,0,L|162:92,1,70,8|0,0:0|0:0,0:0:0:0:
256,148,42101,6,0,P|303:114|295:28,2,140,8|8|8,0:1|0:0|0:1,0:0:0:0:
183,191,42949,1,0,0:0:0:0:
137,260,43118,1,8,0:0:0:0:
137,260,43288,1,0,0:0:0:0:
230,317,43457,6,0,B|289:293|306:357|385:311,1,140,8|8,0:1|0:0,0:0:0:0:
437,275,43966,1,0,0:0:0:0:
380,212,44135,2,0,L|293:230,1,70,8|0,0:1|0:0,0:0:0:0:
208,156,44474,2,0,L|276:141,1,70,8|0,0:0|0:0,0:0:0:0:
369,121,44813,6,0,P|428:92|508:93,1,140,4|8,0:0|0:0,0:0:0:0:
412,7,45322,1,10,0:1:0:0:
297,57,45491,2,0,P|238:86|158:85,1,140,4|8,0:0|0:0,0:0:0:0:
84,156,46000,6,0,P|143:185|223:184,1,140,4|2,0:0|0:0,0:0:0:0:
297,57,46508,2,0,P|308:96|315:126,1,70,8|4,0:0|0:0,0:0:0:0:
334,226,46847,2,0,L|321:280,4,35,8|8|8|8|8,0:1|0:1|0:1|0:1|0:0,0:0:0:0:
421,205,47356,1,8,0:0:0:0:
405,105,47525,5,4,0:0:0:0:
324,79,47695,1,8,0:0:0:0:
243,54,47864,1,8,0:0:0:0:
243,54,48203,2,0,L|225:123,2,70,2|0|0,0:0|0:0|0:0,0:0:0:0:
151,78,48712,6,0,B|130:144|130:144|147:200|199:194,1,140,8|8,0:1|0:1,0:0:0:0:
245,245,49220,1,8,0:0:0:0:
328,213,49390,1,8,0:1:0:0:
328,213,49474,1,8,0:1:0:0:
328,213,49559,1,10,0:1:0:0:
386,273,49729,1,8,0:1:0:0:
481,299,49898,2,0,P|476:339|465:377,1,70,8|0,0:0|0:1,0:0:0:0:
386,273,50237,5,4,0:0:0:0:
367,190,50407,1,8,0:0:0:0:
348,108,50576,1,8,0:0:0:0:
348,108,50915,2,0,P|353:68|364:30,2,70,2|0|0,0:0|0:0|0:0,0:0:0:0:
288,205,51424,6,0,P|227:231|150:218,1,140,8|8,0:1|0:1,0:0:0:0:
80,183,51932,1,8,0:0:0:0:
145,107,52101,1,8,0:1:0:0:
160,87,52186,1,8,0:1:0:0:
176,68,52271,2,0,P|195:57|219:50,4,35,8|8|8|8|8,0:1|0:1|0:1|0:1|0:0,0:0:0:0:
275,104,52779,5,8,0:1:0:0:
298,112,52864,1,8,0:0:0:0:
321,120,52949,2,0,P|357:166|361:244,1,125.999996154785,4|0,0:0|0:0,0:0:0:0:
307,299,53457,1,8,0:1:0:0:
220,317,53627,2,0,P|184:271|180:193,1,125.999996154785,8|8,0:0|0:0,0:0:0:0:
340,72,54305,5,8,0:1:0:0:
367,155,54474,1,8,0:0:0:0:
280,137,54644,1,8,0:1:0:0:
280,137,54813,1,0,0:0:0:0:
340,72,54983,1,8,0:0:0:0:
389,171,55152,1,8,0:0:0:0:
263,225,55322,1,8,0:1:0:0:
263,225,55661,6,0,P|181:245|117:260,2,140,4|8|8,0:0|0:1|0:1,0:0:0:0:
346,293,56508,1,0,0:0:0:0:
346,293,56678,2,0,P|305:303|273:310,1,70,0|0,0:0|0:0,0:0:0:0:
189,213,57017,6,0,P|172:145|202:75,2,140,10|8|8,0:1|0:1|0:1,0:0:0:0:
118,258,57864,1,0,0:0:0:0:
118,258,58034,2,0,P|127:296|122:327,1,70,0|8,0:0|0:1,0:0:0:0:
219,350,58373,6,0,B|263:360|263:360|309:339|358:355,1,132.999996448517,4|8,0:0|0:0,0:0:0:0:
454,177,59051,2,0,P|402:137|321:154,1,132.999996448517,2|0,0:0|0:0,0:0:0:0:
269,193,59559,1,8,0:1:0:0:
215,264,59729,6,0,P|160:298|96:288,1,132.999996448517,4|8,0:0|0:0,0:0:0:0:
36,225,60237,1,0,0:0:0:0:
96,162,60407,2,0,P|118:127|125:88,1,66.4999982242585,2|0,0:0|0:0,0:0:0:0:
169,21,60746,1,8,0:0:0:0:
228,91,60915,1,8,0:1:0:0:
297,156,61085,6,0,P|365:169|437:122,1,140,4|0,0:0|0:0,0:0:0:0:
470,61,61593,2,0,P|433:103|430:190,1,140,4|0,0:0|0:0,0:0:0:0:
347,253,62101,2,0,P|384:211|387:124,1,140,4|0,0:0|0:0,0:0:0:0:
339,52,62610,5,4,0:0:0:0:
251,28,62779,1,8,0:0:0:0:
166,61,62949,1,8,0:0:0:0:
113,134,63118,2,0,L|124:182,4,35,0|0|0|0|2,1:0|1:0|1:0|1:0|0:3,0:0:0:0:
280,233,63796,6,0,P|323:243|407:191,1,140,4|8,0:0|0:0,0:0:0:0:
440,103,64305,2,0,P|421:169|409:251,1,140,2|2,0:0|0:0,0:0:0:0:
389,328,64813,1,8,0:0:0:0:
300,305,64983,2,0,P|262:314|225:322,1,70,2|0,0:0|1:0,0:0:0:0:
167,230,65322,5,2,0:0:0:0:
167,230,65491,2,0,P|201:222|235:214,1,70,8|0,0:0|0:0,0:0:0:0:
336,228,65830,2,0,P|383:179|368:106,1,140,2|8,1:2|0:0,0:0:0:0:
308,41,66339,1,0,0:0:0:0:
198,108,66508,6,0,P|230:125|275:123,1,70,0|2,1:0|0:0,0:0:0:0:
372,112,66847,1,8,0:0:0:0:
448,196,67017,2,0,P|391:224|315:219,1,140,2|2,0:0|0:0,0:0:0:0:
235,233,67525,1,8,0:0:0:0:
99,159,67695,6,0,P|104:251|147:299,1,140,2|2,0:0|0:0,0:0:0:0:
213,349,68203,2,0,P|248:332|283:325,1,70,8|2,0:0|0:0,0:0:0:0:
349,262,68542,2,0,P|385:275|420:279,1,70,12|0,0:0|0:0,0:0:0:0:
416,279,68796,1,0,1:0:0:0:
416,279,68881,1,8,0:0:0:0:
512,242,69051,1,0,1:0:0:0:
467,114,69220,6,0,B|418:99|373:128|373:128|338:99|351:73,1,140,4|8,0:0|0:0,0:0:0:0:
271,55,69729,2,0,P|211:75|137:101,1,140,2|2,0:0|0:0,0:0:0:0:
66,50,70237,1,8,0:0:0:0:
17,145,70407,6,0,P|31:181|45:212,1,70,2|0,0:0|1:0,0:0:0:0:
160,192,70746,1,2,0:0:0:0:
160,192,70915,2,0,P|154:229|151:263,1,70,8|0,0:0|0:0,0:0:0:0:
252,162,71254,2,0,P|299:228|299:294,1,140,0|8,1:0|0:0,0:0:0:0:
462,355,71932,6,0,P|481:326|482:286,1,70,2|2,1:0|0:0,0:0:0:0:
451,209,72271,1,8,0:0:0:0:
364,243,72440,1,2,1:1:0:0:
364,243,72525,1,0,1:1:0:0:
364,243,72610,2,0,P|324:239|283:205,1,70,0|0,1:1|1:0,0:0:0:0:
245,143,72949,1,8,0:0:0:0:
127,255,73118,6,0,P|84:195|106:118,1,140,4|2,0:0|1:0,0:0:0:0:
144,44,73627,1,4,0:0:0:0:
238,20,73796,1,0,1:0:0:0:
326,97,73966,2,0,L|375:83,3,35,0|0|0|0,1:0|1:0|1:0|1:0,0:0:0:0:
396,107,74305,2,0,L|429:116,3,35,2|0|0|0,0:3|0:0|1:0|1:0,0:0:0:0:
463,141,74644,6,0,B|483:211|483:211|459:240|466:288,1,140,4|8,0:0|0:0,0:0:0:0:
375,323,75152,2,0,P|340:310|303:310,1,70,2|0,0:0|1:0,0:0:0:0:
251,246,75491,2,0,P|214:252|182:270,1,70,2|8,0:0|0:0,0:0:0:0:
78,197,75830,6,0,P|28:249|34:340,1,140,2|2,0:0|0:0,0:0:0:0:
133,371,76339,2,0,P|126:334|108:302,1,70,8|0,0:0|0:0,0:0:0:0:
78,197,76678,2,0,B|75:133|135:114|135:114|116:147|124:168,1,140,2|8,1:2|0:0,0:0:0:0:
342,156,77356,5,0,1:0:0:0:
319,77,77525,1,2,0:0:0:0:
262,19,77695,1,8,0:0:0:0:
262,19,77864,2,0,P|325:48|410:45,1,140,2|2,0:0|0:0,0:0:0:0:
491,67,78373,1,8,0:0:0:0:
342,156,78542,6,0,P|282:180|225:250,1,140,4|2,0:0|0:0,0:0:0:0:
184,317,79051,2,0,P|144:330|105:342,1,70,8|2,0:0|0:0,0:0:0:0:
331,375,79390,2,0,P|291:362|252:350,1,70,4|0,0:0|0:0,0:0:0:0:
264,353,79644,1,0,1:0:0:0:
264,353,79729,1,8,0:0:0:0:
369,293,79898,1,0,1:0:0:0:
233,238,80068,6,0,P|226:173|298:125,1,140,4|8,0:0|0:0,0:0:0:0:
365,94,80576,2,0,P|372:159|300:207,1,140,2|2,0:0|0:0,0:0:0:0:
277,127,81085,1,8,0:0:0:0:
283,43,81254,6,0,P|335:6|412:15,1,140,2|2,0:0|0:0,0:0:0:0:
494,71,81762,2,0,L|509:-2,2,70,8|0|2,0:0|0:0|1:0,0:0:0:0:
405,210,82440,2,0,L|419:278,1,70,8|0,0:0|0:0,0:0:0:0:
451,384,82779,5,4,0:0:0:0:
352,363,82949,2,0,P|333:331|332:297,1,70,2|8,0:0|0:0,0:0:0:0:
317,179,83288,2,0,P|247:170|177:206,1,140,4|2,0:0|0:0,0:0:0:0:
134,281,83796,1,8,0:0:0:0:
40,249,83966,6,0,P|28:181|63:122,1,140,4|0,0:0|0:0,0:0:0:0:
154,83,84474,2,0,P|189:86|218:103,1,70,8|0,0:0|1:0,0:0:0:0:
235,121,84729,1,0,1:0:0:0:
252,137,84813,2,0,P|265:89|276:26,2,105,4|8|8,0:0|0:0|0:0,0:0:0:0:
224,246,85491,6,0,B|252:238|280:249|280:249|327:218|391:236,1,140,4|8,0:0|0:0,0:0:0:0:
467,268,86000,1,2,1:2:0:0:
467,268,86085,1,0,1:2:0:0:
467,268,86169,1,2,0:1:0:0:
512,176,86339,1,0,1:0:0:0:
459,85,86508,1,8,0:0:0:0:
358,114,86678,1,4,0:0:0:0:
256,192,86762,12,0,88203,0:0:0:0:
