osu file format v14

[General]
AudioFilename: audio.mp3
AudioLeadIn: 0
PreviewTime: 266575
Countdown: 0
SampleSet: Normal
StackLeniency: 0.7
Mode: 3
LetterboxInBreaks: 0
SpecialStyle: 0
WidescreenStoryboard: 0

[Editor]
Bookmarks: 99046,213551,223145,233057,245644,266575,290295,311226
DistanceSpacing: 0.2
BeatDivisor: 4
GridSize: 32
TimelineZoom: 2.1

[Metadata]
Title:Amber's Love Was Like A Marble (Billain Remix)
TitleUnicode:Amber's Love Was Like A Marble (Billain Remix)
Artist:Rawtekk
ArtistUnicode:Rawtekk
Creator:Abraxos
Version:Rigidiorum
Source:
Tags:dubstep neurofunk dnb drum and bass wubs marathon
BeatmapID:1219151
BeatmapSetID:575780

[Difficulty]
HPDrainRate:9.2
CircleSize:4
OverallDifficulty:6.66
ApproachRate:9.5
SliderMultiplier:2.5
SliderTickRate:1

[Events]
//Background and Video events
0,0,"dog__s_valley_by_nanomortis-d8x98w8.png.jpg",0,0
//Break Periods
2,61658,65120
2,312734,322994
//Storyboard Layer 0 (Background)
//Storyboard Layer 1 (Fail)
//Storyboard Layer 2 (Pass)
//Storyboard Layer 3 (Foreground)
//Storyboard Sound Samples

[TimingPoints]
70,348.837209302326,4,1,0,9,1,0
18907,-100,4,1,0,9,0,0
18976.76,-101.522842639594,4,1,0,9,0,0
19046.52,-103.092783505155,4,1,0,9,0,0
19116.28,-104.712041884817,4,1,0,9,0,0
19186.04,-106.382978723404,4,1,0,9,0,0
19255.8,-108.108108108108,4,1,0,9,0,0
19325.56,-109.89010989011,4,1,0,9,0,0
19395.32,-111.731843575419,4,1,0,9,0,0
19465.08,-113.636363636364,4,1,0,9,0,0
19534.84,-115.606936416185,4,1,0,9,0,0
19604.6,-117.647058823529,4,1,0,9,0,0
19674.36,-119.760479041916,4,1,0,9,0,0
19744.12,-121.951219512195,4,1,0,9,0,0
19813.88,-124.223602484472,4,1,0,9,0,0
19883.64,-126.582278481013,4,1,0,9,0,0
19953.4,-129.032258064516,4,1,0,9,0,0
20023.16,-131.578947368421,4,1,0,9,0,0
20092.92,-134.228187919463,4,1,0,9,0,0
20162.68,-136.986301369863,4,1,0,9,0,0
20232.44,-139.86013986014,4,1,0,9,0,0
20302.2,-142.857142857143,4,1,0,9,0,0
20371.96,-145.985401459854,4,1,0,9,0,0
20441.72,-149.253731343284,4,1,0,9,0,0
20511.48,-152.671755725191,4,1,0,9,0,0
20581.24,-156.25,4,1,0,9,0,0
20651,-160,4,1,0,9,0,0
20720.76,-163.934426229508,4,1,0,9,0,0
20790.52,-168.067226890756,4,1,0,9,0,0
20860.28,-172.413793103448,4,1,0,9,0,0
20930.04,-176.991150442478,4,1,0,9,0,0
20999.8,-181.818181818182,4,1,0,9,0,0
21069.56,-186.915887850467,4,1,0,9,0,0
21139.32,-192.307692307692,4,1,0,9,0,0
21209.08,-198.019801980198,4,1,0,9,0,0
21278.84,-204.081632653061,4,1,0,9,0,0
21348.6,-210.526315789474,4,1,0,9,0,0
21418.36,-217.391304347826,4,1,0,9,0,0
21488.12,-224.719101123596,4,1,0,9,0,0
21557.88,-232.558139534884,4,1,0,9,0,0
21627.64,-240.963855421687,4,1,0,9,0,0
21697.4,-250,4,1,0,9,0,0
21767.16,-259.74025974026,4,1,0,9,0,0
21836.92,-270.27027027027,4,1,0,9,0,0
21906.68,-281.69014084507,4,1,0,9,0,0
21976.44,-294.117647058824,4,1,0,9,0,0
22046.2,-307.692307692308,4,1,0,9,0,0
22115.96,-322.58064516129,4,1,0,9,0,0
22163,120,4,1,0,9,1,0
22185.72,-338.983050847458,4,1,0,9,0,0
22200,348.837209302326,4,1,0,9,1,0
22255.48,-357.142857142857,4,1,0,9,0,0
22325.24,-377.358490566038,4,1,0,9,0,0
22395,1E+17,4,1,0,9,1,0
27627,348.837209302326,4,1,0,9,1,0
27975,1E+17,4,1,0,9,1,0
33207,348.837209302326,4,1,0,9,1,0
33558,1E+19,4,1,0,9,1,0
38790,348.837209302326,4,1,0,9,1,0
39138,1E+19,4,1,0,9,1,0
44370,348.837209302326,4,1,0,9,1,0
44718,1E+18,4,1,0,9,1,0
49950,348.837209302326,4,1,0,9,1,0
50298,1E+19,4,1,0,9,1,0
55530,348.837209302326,4,1,0,9,1,0
55878,1E+22,4,1,0,9,1,0
60392,348.837209302326,4,1,0,9,1,0
60761,348.837209302326,4,1,0,9,1,0
60804,12,4,1,0,9,1,0
60847.6,348.837209302326,4,1,0,9,1,0
60891.2,12,4,1,0,9,1,0
60934.8,348.837209302326,4,1,0,9,1,0
60978.4,12,4,1,0,9,1,0
61022,348.837209302326,4,1,0,9,1,0
61065.6,12,4,1,0,9,1,0
61109.2,348.837209302326,4,1,0,9,1,0
61152.8,12,4,1,0,9,1,0
61196,348.837209302326,4,1,0,9,1,0
61240,24,4,1,0,9,1,0
61283.6,348.837209302326,4,1,0,9,1,0
61458,1E+16,4,1,0,9,1,0
63027,12,4,1,0,9,1,0
63070,99999999999,4,1,0,9,1,0
63418,11.0213078618663,4,1,0,9,1,0
63461,999999999999,4,1,0,9,1,0
63504,6,4,1,0,9,1,0
63547,1E+17,4,1,0,9,1,0
63590,25.5972696245734,4,1,0,9,1,0
63633,999999999999999,4,1,0,9,1,0
63938,12,4,1,0,9,1,0
63981,1E+21,4,1,0,9,1,0
64329,53.0503978779841,4,1,0,9,1,0
64372,999999999999999,4,1,0,9,1,0
64415,27.002700270027,4,1,0,9,1,0
64458,99999999999999,4,1,0,9,1,0
64806,12,4,1,0,9,1,0
64851,1E+17,4,1,0,9,1,0
65242,12,4,1,0,9,1,0
65285,9999999999999,4,1,0,9,1,0
65471,348.837209302326,4,1,0,9,1,0
156343,-100,4,1,0,9,0,1
177273,-100,4,1,0,9,0,0
200296,348.837209302326,4,1,0,9,1,0
200339,12,4,1,0,9,1,0
200382.6,348.837209302326,4,1,0,9,1,0
200426.2,12,4,1,0,9,1,0
200469.8,348.837209302326,4,1,0,9,1,0
200513.4,12,4,1,0,9,1,0
200557,348.837209302326,4,1,0,9,1,0
200600.6,12,4,1,0,9,1,0
200644.2,348.837209302326,4,1,0,9,1,0
200687.8,12,4,1,0,9,1,0
200731,348.837209302326,4,1,0,9,1,0
200775,24,4,1,0,9,1,0
200818.6,348.837209302326,4,1,0,9,1,0
200994,348.837209302326,4,1,0,9,1,0
201168,348.837209302326,4,1,0,9,1,0
290295,-100,4,1,0,9,0,1
311226,-100,4,1,0,9,0,0
312490,348.837209302326,4,1,0,9,1,0
312664,6,4,1,0,9,1,0
312707,999999999999,4,1,0,9,1,0
313099,6,4,1,0,9,1,0
313186,999999999999,4,1,0,9,1,0
313215,348.837209302326,4,1,0,9,1,0
313476,4000,4,1,0,9,1,0
313650,999999999999,4,1,0,9,1,0
313693,6,4,1,0,9,1,0
313823,9999999999,4,1,0,9,1,0
313866,348.837209302326,4,1,0,9,1,0
313881,6,4,1,0,9,1,0
314055,999999999999999,4,1,0,9,1,0
314076,6,4,1,0,9,1,0
314097,99999999999999,4,1,0,9,1,0
314118,6,4,1,0,9,1,0
314139,999999999999999,4,1,0,9,1,0
314160,6,4,1,0,9,1,0
314181,999999999999999,4,1,0,9,1,0
314202,5,4,1,0,9,1,0
314223,7,4,1,0,9,1,0
314244,99999999999999,4,1,0,9,1,0
314265,8,4,1,0,9,1,0
314286,1E+16,4,1,0,9,1,0
314307,348.837209302326,4,1,0,9,1,0
314394,6,4,1,0,9,1,0
314415,99999999999999,4,1,0,9,1,0
314436,5,4,1,0,9,1,0
314457,1E+17,4,1,0,9,1,0
314478,4,4,1,0,9,1,0
314499,1E+16,4,1,0,9,1,0
314520,3,4,1,0,9,1,0
314541,1E+16,4,1,0,9,1,0
314562,348.837209302326,4,1,0,9,1,0
314867,6,4,1,0,9,1,0
314910,9999999999999,4,1,0,9,1,0
314997,5,4,1,0,9,1,0
315018,348.837209302326,4,1,0,9,1,0
315039,1E+16,4,1,0,9,1,0
315126,6,4,1,0,9,1,0
315147,348.837209302326,4,1,0,9,1,0
315277,6,4,1,0,9,1,0
315298,1E+18,4,1,0,9,1,0
315319,5.5,4,1,0,9,1,0
315340,1E+18,4,1,0,9,1,0
315361,5,4,1,0,9,1,0
315382,1E+18,4,1,0,9,1,0
315403,5.1,4,1,0,9,1,0
315424,1E+18,4,1,0,9,1,0
315445,4.8,4,1,0,9,1,0
315466,1E+18,4,1,0,9,1,0
315487,4.5,4,1,0,9,1,0
315508,1E+18,4,1,0,9,1,0
315529,4,4,1,0,9,1,0
315550,1E+18,4,1,0,9,1,0
315571,3.6,4,1,0,9,1,0
315592,1E+18,4,1,0,9,1,0
315613,3.1,4,1,0,9,1,0
315634,1E+18,4,1,0,9,1,0
315655,2.8,4,1,0,9,1,0
315676,1E+18,4,1,0,9,1,0
315697,2.5,4,1,0,9,1,0
315718,1E+18,4,1,0,9,1,0
315739,2.3,4,1,0,9,1,0
315760,1E+18,4,1,0,9,1,0
315781,2,4,1,0,9,1,0
315802,1E+18,4,1,0,9,1,0
315823,1.7,4,1,0,9,1,0
315844,1E+18,4,1,0,9,1,0
315865,1.3,4,1,0,9,1,0
315886,1E+18,4,1,0,9,1,0
315907,348.837209302326,4,1,0,9,1,0
315928,348.837209302326,4,1,0,9,1,0
320593,1E+18,4,1,0,9,1,0
320709,348.837209302326,4,1,0,9,1,0
323150,6,4,1,0,9,1,0
323171,999999,4,1,0,9,1,0
323192,6,4,1,0,9,1,0
323213,348.837209302326,4,1,0,9,1,0

[Colours]
Combo1 : 181,54,32
Combo2 : 248,166,92
Combo3 : 240,107,79

[HitObjects]
448,192,70,128,0,135:0:0:0:0:
64,192,302,1,0,0:0:0:0:
448,192,418,128,0,462:0:0:0:0:
448,192,767,128,0,833:0:0:0:0:
64,192,767,1,0,0:0:0:0:
448,192,1116,128,0,1138:0:0:0:0:
448,192,1465,1,0,0:0:0:0:
64,192,1465,1,0,0:0:0:0:
448,192,1814,128,0,1857:0:0:0:0:
448,192,2163,128,0,2228:0:0:0:0:
64,192,2163,1,0,0:0:0:0:
448,192,2511,128,0,2533:0:0:0:0:
64,192,2860,1,0,0:0:0:0:
448,192,2860,128,0,2926:0:0:0:0:
448,192,3209,128,0,3253:0:0:0:0:
64,192,3558,1,0,0:0:0:0:
448,192,3558,128,0,3623:0:0:0:0:
448,192,3907,128,0,3929:0:0:0:0:
448,192,4256,1,0,0:0:0:0:
448,192,4604,128,0,4648:0:0:0:0:
448,192,4953,128,0,5019:0:0:0:0:
448,192,5302,128,0,5324:0:0:0:0:
320,192,5651,1,0,0:0:0:0:
448,192,5651,1,0,0:0:0:0:
64,192,5651,128,0,5716:0:0:0:0:
64,192,6000,128,0,6043:0:0:0:0:
320,192,6116,128,0,6378:0:0:0:0:
64,192,6349,128,0,6414:0:0:0:0:
320,192,6436,1,0,0:0:0:0:
448,192,6465,128,0,6814:0:0:0:0:
64,192,6697,128,0,6719:0:0:0:0:
64,192,7046,1,0,0:0:0:0:
64,192,7395,128,0,7439:0:0:0:0:
64,192,7744,128,0,7809:0:0:0:0:
64,192,8093,128,0,8115:0:0:0:0:
64,192,8442,128,0,8507:0:0:0:0:
448,192,8616,1,0,0:0:0:0:
64,192,8790,128,0,8834:0:0:0:0:
64,192,9139,128,0,9205:0:0:0:0:
64,192,9488,128,0,9510:0:0:0:0:
64,192,9837,1,0,0:0:0:0:
64,192,10186,128,0,10229:0:0:0:0:
448,192,10535,1,0,0:0:0:0:
64,192,10535,128,0,10600:0:0:0:0:
448,192,10709,1,0,0:0:0:0:
320,192,10883,1,0,0:0:0:0:
64,192,10883,128,0,10905:0:0:0:0:
320,192,11058,1,0,0:0:0:0:
192,192,11232,1,0,0:0:0:0:
448,192,11232,128,0,11298:0:0:0:0:
448,192,11581,128,0,11625:0:0:0:0:
448,192,11930,128,0,11995:0:0:0:0:
448,192,12279,128,0,12301:0:0:0:0:
448,192,12628,1,0,0:0:0:0:
448,192,12976,128,0,13020:0:0:0:0:
448,192,13325,128,0,13391:0:0:0:0:
448,192,13674,128,0,13696:0:0:0:0:
448,192,14023,128,0,14088:0:0:0:0:
448,192,14372,128,0,14415:0:0:0:0:
192,192,14604,128,0,15767:0:0:0:0:
448,192,14721,128,0,14786:0:0:0:0:
448,192,15070,128,0,15091:0:0:0:0:
64,192,15186,128,0,15651:0:0:0:0:
448,192,15418,1,0,0:0:0:0:
448,192,15767,128,0,15811:0:0:0:0:
64,192,15767,128,0,16697:0:0:0:0:
448,192,16116,128,0,16181:0:0:0:0:
192,192,16116,128,0,16814:0:0:0:0:
448,192,16465,128,0,16487:0:0:0:0:
320,192,16814,1,0,0:0:0:0:
448,192,16814,1,0,0:0:0:0:
64,192,16814,128,0,16879:0:0:0:0:
64,192,17163,128,0,17206:0:0:0:0:
64,192,17511,128,0,17577:0:0:0:0:
320,192,17628,1,0,0:0:0:0:
64,192,17860,128,0,17882:0:0:0:0:
64,192,18209,1,0,0:0:0:0:
448,192,18209,1,0,0:0:0:0:
64,192,18558,128,0,18601:0:0:0:0:
64,192,18907,128,0,18972:0:0:0:0:
448,192,18907,128,0,22279:0:0:0:0:
64,192,19256,128,0,19277:0:0:0:0:
64,192,19604,128,0,19670:0:0:0:0:
64,192,19953,128,0,19997:0:0:0:0:
64,192,20302,128,0,20367:0:0:0:0:
64,192,20651,128,0,20673:0:0:0:0:
64,192,21000,1,0,0:0:0:0:
64,192,21349,128,0,21392:0:0:0:0:
448,192,22395,1,0,0:0:0:0:
320,192,22395,128,0,27889:0:0:0:0:
320,192,27976,1,0,0:0:0:0:
192,192,27976,128,0,33470:0:0:0:0:
64,192,33558,128,0,39052:0:0:0:0:
192,192,33558,1,0,0:0:0:0:
448,192,39138,128,0,44631:0:0:0:0:
64,192,39139,1,0,0:0:0:0:
320,192,44718,128,0,50211:0:0:0:0:
448,192,44718,1,0,0:0:0:0:
192,192,50298,128,0,55793:0:0:0:0:
320,192,50298,1,0,0:0:0:0:
64,192,55878,128,0,60675:0:0:0:0:
448,192,55878,128,0,60674:0:0:0:0:
448,192,60761,5,0,0:0:0:0:
64,192,60761,1,0,0:0:0:0:
192,192,61458,1,0,0:0:0:0:
320,192,61458,1,0,0:0:0:0:
448,192,65645,5,0,0:0:0:0:
192,192,65703,1,0,0:0:0:0:
320,192,65732,128,0,66110:0:0:0:0:
64,192,65819,1,0,0:0:0:0:
64,192,65994,1,0,0:0:0:0:
448,192,66037,1,0,0:0:0:0:
192,192,66081,1,0,0:0:0:0:
320,192,66168,1,0,0:0:0:0:
192,192,66226,128,0,66459:0:0:0:0:
448,192,66517,1,0,0:0:0:0:
320,192,66546,1,0,0:0:0:0:
64,192,66575,1,0,0:0:0:0:
192,192,66633,1,0,0:0:0:0:
448,192,66691,1,0,0:0:0:0:
320,192,66721,1,0,0:0:0:0:
64,192,66735,128,0,66909:0:0:0:0:
320,192,67040,1,0,0:0:0:0:
448,192,67040,1,0,0:0:0:0:
64,192,67302,1,0,0:0:0:0:
448,192,67302,1,0,0:0:0:0:
64,192,67389,1,0,0:0:0:0:
320,192,67389,1,0,0:0:0:0:
448,192,67651,1,0,0:0:0:0:
320,192,67738,1,0,0:0:0:0:
448,192,68000,1,0,0:0:0:0:
320,192,68087,1,0,0:0:0:0:
448,192,68348,128,0,68436:0:0:0:0:
320,192,68436,1,0,0:0:0:0:
448,192,68697,128,0,68784:0:0:0:0:
320,192,68784,1,0,0:0:0:0:
448,192,69046,128,0,69133:0:0:0:0:
320,192,69133,128,0,69221:0:0:0:0:
448,192,69395,128,0,69482:0:0:0:0:
64,192,69395,1,0,0:0:0:0:
320,192,69482,128,0,69569:0:0:0:0:
64,192,69482,1,0,0:0:0:0:
192,192,69657,1,0,0:0:0:0:
448,192,69657,1,0,0:0:0:0:
448,192,69744,1,0,0:0:0:0:
192,192,69831,1,0,0:0:0:0:
64,192,69831,1,0,0:0:0:0:
64,192,70093,1,0,0:0:0:0:
448,192,70093,1,0,0:0:0:0:
192,192,70180,1,0,0:0:0:0:
448,192,70180,1,0,0:0:0:0:
64,192,70441,1,0,0:0:0:0:
192,192,70529,1,0,0:0:0:0:
64,192,70790,1,0,0:0:0:0:
192,192,70877,1,0,0:0:0:0:
64,192,71139,128,0,71226:0:0:0:0:
192,192,71226,1,0,0:0:0:0:
64,192,71488,128,0,71575:0:0:0:0:
192,192,71575,1,0,0:0:0:0:
64,192,71837,128,0,71924:0:0:0:0:
192,192,71924,128,0,72011:0:0:0:0:
64,192,72186,128,0,72273:0:0:0:0:
448,192,72186,1,0,0:0:0:0:
192,192,72273,128,0,72360:0:0:0:0:
448,192,72273,1,0,0:0:0:0:
320,192,72447,1,0,0:0:0:0:
64,192,72447,1,0,0:0:0:0:
64,192,72534,1,0,0:0:0:0:
320,192,72622,1,0,0:0:0:0:
448,192,72622,1,0,0:0:0:0:
64,192,72883,1,0,0:0:0:0:
320,192,72883,1,0,0:0:0:0:
64,192,72971,1,0,0:0:0:0:
448,192,72971,1,0,0:0:0:0:
320,192,73232,1,0,0:0:0:0:
448,192,73319,1,0,0:0:0:0:
320,192,73581,1,0,0:0:0:0:
448,192,73668,1,0,0:0:0:0:
320,192,73930,128,0,74017:0:0:0:0:
448,192,74017,1,0,0:0:0:0:
320,192,74279,128,0,74366:0:0:0:0:
448,192,74366,1,0,0:0:0:0:
320,192,74627,128,0,74715:0:0:0:0:
448,192,74715,128,0,74802:0:0:0:0:
64,192,74976,1,0,0:0:0:0:
320,192,74976,128,0,75064:0:0:0:0:
64,192,75064,1,0,0:0:0:0:
448,192,75064,128,0,75151:0:0:0:0:
192,192,75238,1,0,0:0:0:0:
448,192,75238,1,0,0:0:0:0:
448,192,75325,1,0,0:0:0:0:
192,192,75412,1,0,0:0:0:0:
320,192,75412,1,0,0:0:0:0:
192,192,75587,1,0,0:0:0:0:
320,192,75587,1,0,0:0:0:0:
64,192,75674,1,0,0:0:0:0:
320,192,75674,1,0,0:0:0:0:
192,192,75936,1,0,0:0:0:0:
64,192,76023,1,0,0:0:0:0:
192,192,76284,1,0,0:0:0:0:
64,192,76372,1,0,0:0:0:0:
192,192,76633,128,0,76721:0:0:0:0:
64,192,76721,1,0,0:0:0:0:
192,192,76982,128,0,77069:0:0:0:0:
64,192,77069,1,0,0:0:0:0:
192,192,77331,128,0,77418:0:0:0:0:
64,192,77418,128,0,77505:0:0:0:0:
320,192,77505,1,0,0:0:0:0:
192,192,77534,1,0,0:0:0:0:
64,192,77593,1,0,0:0:0:0:
192,192,77651,1,0,0:0:0:0:
320,192,77680,1,0,0:0:0:0:
448,192,77723,128,0,77912:0:0:0:0:
64,192,77767,1,0,0:0:0:0:
320,192,77796,1,0,0:0:0:0:
448,192,77985,1,0,0:0:0:0:
320,192,78029,1,0,0:0:0:0:
64,192,78087,1,0,0:0:0:0:
192,192,78145,1,0,0:0:0:0:
320,192,78203,1,0,0:0:0:0:
448,192,78203,1,0,0:0:0:0:
320,192,78377,1,0,0:0:0:0:
448,192,78465,1,0,0:0:0:0:
320,192,78552,1,0,0:0:0:0:
192,192,78552,1,0,0:0:0:0:
192,192,78639,1,0,0:0:0:0:
448,192,78726,1,0,0:0:0:0:
192,192,78814,1,0,0:0:0:0:
320,192,78901,1,0,0:0:0:0:
448,192,78901,1,0,0:0:0:0:
320,192,79075,1,0,0:0:0:0:
448,192,79162,1,0,0:0:0:0:
320,192,79250,1,0,0:0:0:0:
192,192,79250,1,0,0:0:0:0:
192,192,79424,1,0,0:0:0:0:
64,192,79424,1,0,0:0:0:0:
192,192,79511,1,0,0:0:0:0:
448,192,79598,1,0,0:0:0:0:
192,192,79773,1,0,0:0:0:0:
64,192,79860,1,0,0:0:0:0:
192,192,79947,1,0,0:0:0:0:
320,192,79947,1,0,0:0:0:0:
320,192,80034,1,0,0:0:0:0:
64,192,80122,1,0,0:0:0:0:
320,192,80209,1,0,0:0:0:0:
192,192,80296,1,0,0:0:0:0:
64,192,80296,1,0,0:0:0:0:
192,192,80471,1,0,0:0:0:0:
64,192,80558,1,0,0:0:0:0:
192,192,80645,1,0,0:0:0:0:
320,192,80645,1,0,0:0:0:0:
448,192,80819,1,0,0:0:0:0:
320,192,80819,1,0,0:0:0:0:
320,192,80907,1,0,0:0:0:0:
64,192,80994,1,0,0:0:0:0:
448,192,81168,1,0,0:0:0:0:
320,192,81255,1,0,0:0:0:0:
448,192,81343,1,0,0:0:0:0:
192,192,81343,1,0,0:0:0:0:
192,192,81430,1,0,0:0:0:0:
448,192,81517,1,0,0:0:0:0:
192,192,81604,1,0,0:0:0:0:
320,192,81691,1,0,0:0:0:0:
64,192,81691,1,0,0:0:0:0:
448,192,81866,1,0,0:0:0:0:
320,192,81953,1,0,0:0:0:0:
448,192,82040,1,0,0:0:0:0:
192,192,82040,128,0,82186:0:0:0:0:
64,192,82098,128,0,82273:0:0:0:0:
320,192,82127,128,0,82273:0:0:0:0:
448,192,82157,128,0,82273:0:0:0:0:
192,192,82273,128,0,82389:0:0:0:0:
320,192,82389,1,0,0:0:0:0:
448,192,82389,1,0,0:0:0:0:
64,192,82564,1,0,0:0:0:0:
192,192,82651,1,0,0:0:0:0:
64,192,82738,1,0,0:0:0:0:
320,192,82738,1,0,0:0:0:0:
320,192,82825,1,0,0:0:0:0:
64,192,82912,1,0,0:0:0:0:
320,192,83000,1,0,0:0:0:0:
64,192,83261,1,0,0:0:0:0:
192,192,83348,1,0,0:0:0:0:
320,192,83436,1,0,0:0:0:0:
64,192,83436,1,0,0:0:0:0:
320,192,83610,1,0,0:0:0:0:
448,192,83610,1,0,0:0:0:0:
320,192,83697,1,0,0:0:0:0:
192,192,83784,1,0,0:0:0:0:
448,192,83959,1,0,0:0:0:0:
192,192,84046,1,0,0:0:0:0:
64,192,84133,1,0,0:0:0:0:
320,192,84133,1,0,0:0:0:0:
320,192,84221,1,0,0:0:0:0:
64,192,84308,128,0,84351:0:0:0:0:
320,192,84395,128,0,84439:0:0:0:0:
192,192,84482,1,0,0:0:0:0:
448,192,84482,1,0,0:0:0:0:
192,192,84569,1,0,0:0:0:0:
448,192,84657,1,0,0:0:0:0:
192,192,84744,1,0,0:0:0:0:
320,192,84831,1,0,0:0:0:0:
64,192,84831,1,0,0:0:0:0:
320,192,84918,1,0,0:0:0:0:
64,192,85005,128,0,85049:0:0:0:0:
320,192,85093,128,0,85136:0:0:0:0:
448,192,85180,1,0,0:0:0:0:
192,192,85180,1,0,0:0:0:0:
192,192,85267,1,0,0:0:0:0:
448,192,85354,1,0,0:0:0:0:
192,192,85441,1,0,0:0:0:0:
64,192,85529,1,0,0:0:0:0:
320,192,85529,1,0,0:0:0:0:
320,192,85616,1,0,0:0:0:0:
64,192,85703,128,0,85747:0:0:0:0:
320,192,85790,128,0,85834:0:0:0:0:
192,192,85877,1,0,0:0:0:0:
448,192,85877,1,0,0:0:0:0:
192,192,85965,1,0,0:0:0:0:
448,192,86052,1,0,0:0:0:0:
192,192,86139,1,0,0:0:0:0:
320,192,86226,1,0,0:0:0:0:
64,192,86226,1,0,0:0:0:0:
320,192,86314,1,0,0:0:0:0:
64,192,86401,128,0,86444:0:0:0:0:
320,192,86488,128,0,86532:0:0:0:0:
448,192,86575,1,0,0:0:0:0:
192,192,86575,1,0,0:0:0:0:
192,192,86662,1,0,0:0:0:0:
448,192,86750,1,0,0:0:0:0:
192,192,86837,1,0,0:0:0:0:
64,192,86924,1,0,0:0:0:0:
320,192,86924,1,0,0:0:0:0:
320,192,87011,1,0,0:0:0:0:
64,192,87098,128,0,87142:0:0:0:0:
320,192,87186,128,0,87229:0:0:0:0:
192,192,87273,1,0,0:0:0:0:
448,192,87273,1,0,0:0:0:0:
192,192,87360,1,0,0:0:0:0:
448,192,87447,5,0,0:0:0:0:
192,192,87534,1,0,0:0:0:0:
320,192,87622,1,0,0:0:0:0:
64,192,87622,1,0,0:0:0:0:
320,192,87709,1,0,0:0:0:0:
192,192,87796,1,0,0:0:0:0:
64,192,87796,1,0,0:0:0:0:
192,192,87883,1,0,0:0:0:0:
320,192,87941,1,0,0:0:0:0:
448,192,88000,1,0,0:0:0:0:
192,192,88058,1,0,0:0:0:0:
64,192,88116,1,0,0:0:0:0:
192,192,88174,1,0,0:0:0:0:
320,192,88203,1,0,0:0:0:0:
64,192,88319,1,0,0:0:0:0:
320,192,88319,128,0,88377:0:0:0:0:
448,192,88319,128,0,88377:0:0:0:0:
192,192,88494,1,0,0:0:0:0:
320,192,88581,128,0,88886:0:0:0:0:
448,192,88581,128,0,88930:0:0:0:0:
64,192,88784,1,0,0:0:0:0:
320,192,88973,128,0,89279:0:0:0:0:
448,192,89017,128,0,89279:0:0:0:0:
192,192,89046,1,0,0:0:0:0:
64,192,89075,1,0,0:0:0:0:
64,192,89250,1,0,0:0:0:0:
192,192,89366,1,0,0:0:0:0:
320,192,89424,1,0,0:0:0:0:
448,192,89482,1,0,0:0:0:0:
192,192,89540,1,0,0:0:0:0:
320,192,89584,128,0,89715:0:0:0:0:
64,192,89598,1,0,0:0:0:0:
448,192,89686,1,0,0:0:0:0:
192,192,89715,1,0,0:0:0:0:
64,192,89715,1,0,0:0:0:0:
192,192,89889,1,0,0:0:0:0:
64,192,89889,1,0,0:0:0:0:
192,192,89976,1,0,0:0:0:0:
320,192,89976,1,0,0:0:0:0:
448,192,90034,1,0,0:0:0:0:
320,192,90093,1,0,0:0:0:0:
64,192,90151,1,0,0:0:0:0:
64,192,90238,1,0,0:0:0:0:
448,192,90238,1,0,0:0:0:0:
448,192,90325,1,0,0:0:0:0:
192,192,90412,1,0,0:0:0:0:
64,192,90412,128,0,90529:0:0:0:0:
448,192,90471,1,0,0:0:0:0:
320,192,90500,1,0,0:0:0:0:
192,192,90543,1,0,0:0:0:0:
64,192,90587,1,0,0:0:0:0:
448,192,90587,1,0,0:0:0:0:
320,192,90761,1,0,0:0:0:0:
448,192,90761,1,0,0:0:0:0:
192,192,90848,1,0,0:0:0:0:
320,192,90936,1,0,0:0:0:0:
448,192,91023,1,0,0:0:0:0:
192,192,91110,1,0,0:0:0:0:
64,192,91110,1,0,0:0:0:0:
320,192,91197,1,0,0:0:0:0:
448,192,91284,1,0,0:0:0:0:
192,192,91314,1,0,0:0:0:0:
320,192,91328,1,0,0:0:0:0:
64,192,91372,1,0,0:0:0:0:
192,192,91459,1,0,0:0:0:0:
448,192,91488,1,0,0:0:0:0:
320,192,91575,1,0,0:0:0:0:
448,192,91633,1,0,0:0:0:0:
64,192,91633,1,0,0:0:0:0:
64,192,91721,1,0,0:0:0:0:
320,192,91808,1,0,0:0:0:0:
448,192,91808,1,0,0:0:0:0:
192,192,91895,1,0,0:0:0:0:
64,192,91895,1,0,0:0:0:0:
192,192,91982,1,0,0:0:0:0:
320,192,92157,1,0,0:0:0:0:
192,192,92215,1,0,0:0:0:0:
64,192,92273,1,0,0:0:0:0:
448,192,92287,1,0,0:0:0:0:
320,192,92360,1,0,0:0:0:0:
192,192,92418,1,0,0:0:0:0:
64,192,92447,1,0,0:0:0:0:
320,192,92505,1,0,0:0:0:0:
448,192,92505,1,0,0:0:0:0:
192,192,92680,1,0,0:0:0:0:
64,192,92680,1,0,0:0:0:0:
192,192,92767,1,0,0:0:0:0:
320,192,92767,1,0,0:0:0:0:
448,192,92825,1,0,0:0:0:0:
320,192,92883,1,0,0:0:0:0:
192,192,92941,1,0,0:0:0:0:
64,192,93029,1,0,0:0:0:0:
448,192,93029,128,0,93116:0:0:0:0:
64,192,93116,1,0,0:0:0:0:
192,192,93203,128,0,93290:0:0:0:0:
320,192,93203,1,0,0:0:0:0:
320,192,93290,1,0,0:0:0:0:
192,192,93377,1,0,0:0:0:0:
448,192,93377,1,0,0:0:0:0:
320,192,93436,1,0,0:0:0:0:
64,192,93494,1,0,0:0:0:0:
192,192,93552,1,0,0:0:0:0:
448,192,93581,1,0,0:0:0:0:
320,192,93610,1,0,0:0:0:0:
192,192,93668,1,0,0:0:0:0:
64,192,93726,1,0,0:0:0:0:
320,192,93784,1,0,0:0:0:0:
448,192,93814,1,0,0:0:0:0:
192,192,93901,1,0,0:0:0:0:
64,192,93901,1,0,0:0:0:0:
320,192,93944,1,0,0:0:0:0:
448,192,94017,1,0,0:0:0:0:
64,192,94075,128,0,94250:0:0:0:0:
192,192,94133,1,0,0:0:0:0:
320,192,94162,1,0,0:0:0:0:
448,192,94162,1,0,0:0:0:0:
320,192,94424,1,0,0:0:0:0:
64,192,94424,1,0,0:0:0:0:
320,192,94511,1,0,0:0:0:0:
192,192,94598,1,0,0:0:0:0:
64,192,94598,1,0,0:0:0:0:
448,192,94686,1,0,0:0:0:0:
320,192,94686,1,0,0:0:0:0:
448,192,94773,1,0,0:0:0:0:
192,192,94831,1,0,0:0:0:0:
64,192,94860,1,0,0:0:0:0:
320,192,94947,1,0,0:0:0:0:
448,192,95005,1,0,0:0:0:0:
64,192,95064,1,0,0:0:0:0:
192,192,95078,1,0,0:0:0:0:
320,192,95122,1,0,0:0:0:0:
448,192,95209,1,0,0:0:0:0:
64,192,95238,1,0,0:0:0:0:
320,192,95296,1,0,0:0:0:0:
192,192,95296,1,0,0:0:0:0:
320,192,95471,1,0,0:0:0:0:
448,192,95471,1,0,0:0:0:0:
192,192,95558,1,0,0:0:0:0:
320,192,95558,1,0,0:0:0:0:
64,192,95616,1,0,0:0:0:0:
192,192,95674,1,0,0:0:0:0:
320,192,95703,1,0,0:0:0:0:
64,192,95819,128,0,95907:0:0:0:0:
448,192,95819,1,0,0:0:0:0:
448,192,95907,1,0,0:0:0:0:
320,192,95994,128,0,96081:0:0:0:0:
192,192,95994,1,0,0:0:0:0:
192,192,96081,1,0,0:0:0:0:
448,192,96110,1,0,0:0:0:0:
64,192,96168,1,0,0:0:0:0:
320,192,96168,1,0,0:0:0:0:
192,192,96226,1,0,0:0:0:0:
448,192,96284,1,0,0:0:0:0:
64,192,96343,1,0,0:0:0:0:
320,192,96430,1,0,0:0:0:0:
192,192,96517,1,0,0:0:0:0:
64,192,96604,1,0,0:0:0:0:
320,192,96691,1,0,0:0:0:0:
448,192,96691,1,0,0:0:0:0:
320,192,96779,1,0,0:0:0:0:
192,192,96779,1,0,0:0:0:0:
64,192,96837,1,0,0:0:0:0:
192,192,96895,1,0,0:0:0:0:
320,192,96953,1,0,0:0:0:0:
448,192,96953,1,0,0:0:0:0:
64,192,97011,1,0,0:0:0:0:
448,192,97069,1,0,0:0:0:0:
320,192,97127,1,0,0:0:0:0:
192,192,97127,1,0,0:0:0:0:
64,192,97171,1,0,0:0:0:0:
192,192,97244,1,0,0:0:0:0:
320,192,97302,1,0,0:0:0:0:
448,192,97389,128,0,97505:0:0:0:0:
64,192,97389,1,0,0:0:0:0:
320,192,97447,1,0,0:0:0:0:
192,192,97476,1,0,0:0:0:0:
64,192,97520,1,0,0:0:0:0:
448,192,97564,1,0,0:0:0:0:
320,192,97564,1,0,0:0:0:0:
64,192,97738,1,0,0:0:0:0:
192,192,97796,1,0,0:0:0:0:
320,192,97854,1,0,0:0:0:0:
448,192,97869,1,0,0:0:0:0:
64,192,97941,1,0,0:0:0:0:
192,192,98000,1,0,0:0:0:0:
320,192,98029,1,0,0:0:0:0:
64,192,98087,1,0,0:0:0:0:
448,192,98087,1,0,0:0:0:0:
192,192,98261,1,0,0:0:0:0:
448,192,98261,1,0,0:0:0:0:
192,192,98348,1,0,0:0:0:0:
64,192,98348,1,0,0:0:0:0:
320,192,98407,1,0,0:0:0:0:
64,192,98465,1,0,0:0:0:0:
448,192,98523,1,0,0:0:0:0:
320,192,98610,128,0,98697:0:0:0:0:
64,192,98610,1,0,0:0:0:0:
64,192,98697,1,0,0:0:0:0:
192,192,98784,128,0,98872:0:0:0:0:
448,192,98784,1,0,0:0:0:0:
448,192,98872,1,0,0:0:0:0:
320,192,98959,1,0,0:0:0:0:
64,192,98959,1,0,0:0:0:0:
192,192,99017,1,0,0:0:0:0:
448,192,99075,1,0,0:0:0:0:
64,192,99133,1,0,0:0:0:0:
192,192,99221,1,0,0:0:0:0:
320,192,99264,1,0,0:0:0:0:
448,192,99308,1,0,0:0:0:0:
64,192,99366,1,0,0:0:0:0:
320,192,99424,1,0,0:0:0:0:
192,192,99482,1,0,0:0:0:0:
64,192,99482,1,0,0:0:0:0:
320,192,99540,1,0,0:0:0:0:
448,192,99598,1,0,0:0:0:0:
64,192,99657,128,0,99831:0:0:0:0:
192,192,99715,1,0,0:0:0:0:
320,192,99744,1,0,0:0:0:0:
448,192,99831,1,0,0:0:0:0:
192,192,99889,1,0,0:0:0:0:
320,192,99947,1,0,0:0:0:0:
448,192,100005,1,0,0:0:0:0:
320,192,100122,1,0,0:0:0:0:
448,192,100180,1,0,0:0:0:0:
64,192,100180,1,0,0:0:0:0:
64,192,100267,1,0,0:0:0:0:
192,192,100267,1,0,0:0:0:0:
448,192,100325,128,0,100441:0:0:0:0:
320,192,100383,1,0,0:0:0:0:
192,192,100398,1,0,0:0:0:0:
64,192,100441,1,0,0:0:0:0:
320,192,100529,1,0,0:0:0:0:
192,192,100587,1,0,0:0:0:0:
448,192,100645,1,0,0:0:0:0:
64,192,100703,1,0,0:0:0:0:
192,192,100761,128,0,100877:0:0:0:0:
320,192,100819,1,0,0:0:0:0:
64,192,100877,1,0,0:0:0:0:
448,192,100877,1,0,0:0:0:0:
320,192,101052,1,0,0:0:0:0:
64,192,101052,1,0,0:0:0:0:
64,192,101139,1,0,0:0:0:0:
192,192,101139,1,0,0:0:0:0:
320,192,101197,1,0,0:0:0:0:
192,192,101255,1,0,0:0:0:0:
448,192,101314,1,0,0:0:0:0:
64,192,101401,1,0,0:0:0:0:
448,192,101401,1,0,0:0:0:0:
64,192,101488,1,0,0:0:0:0:
320,192,101575,1,0,0:0:0:0:
192,192,101575,128,0,101691:0:0:0:0:
64,192,101633,1,0,0:0:0:0:
448,192,101662,1,0,0:0:0:0:
320,192,101706,1,0,0:0:0:0:
192,192,101750,1,0,0:0:0:0:
64,192,101750,1,0,0:0:0:0:
192,192,101924,1,0,0:0:0:0:
320,192,101924,1,0,0:0:0:0:
448,192,102011,1,0,0:0:0:0:
192,192,102098,1,0,0:0:0:0:
64,192,102186,1,0,0:0:0:0:
448,192,102273,1,0,0:0:0:0:
320,192,102273,1,0,0:0:0:0:
64,192,102360,1,0,0:0:0:0:
192,192,102447,1,0,0:0:0:0:
320,192,102476,1,0,0:0:0:0:
448,192,102491,1,0,0:0:0:0:
64,192,102534,1,0,0:0:0:0:
320,192,102593,1,0,0:0:0:0:
192,192,102622,1,0,0:0:0:0:
448,192,102680,1,0,0:0:0:0:
320,192,102738,1,0,0:0:0:0:
64,192,102796,1,0,0:0:0:0:
192,192,102796,1,0,0:0:0:0:
64,192,102883,1,0,0:0:0:0:
320,192,102912,1,0,0:0:0:0:
448,192,102971,1,0,0:0:0:0:
320,192,103058,1,0,0:0:0:0:
192,192,103058,1,0,0:0:0:0:
192,192,103145,1,0,0:0:0:0:
64,192,103319,1,0,0:0:0:0:
448,192,103377,1,0,0:0:0:0:
320,192,103436,1,0,0:0:0:0:
64,192,103450,1,0,0:0:0:0:
192,192,103523,1,0,0:0:0:0:
448,192,103581,1,0,0:0:0:0:
320,192,103610,1,0,0:0:0:0:
64,192,103668,1,0,0:0:0:0:
192,192,103668,1,0,0:0:0:0:
320,192,103843,1,0,0:0:0:0:
448,192,103843,1,0,0:0:0:0:
320,192,103930,1,0,0:0:0:0:
192,192,103930,1,0,0:0:0:0:
64,192,103988,1,0,0:0:0:0:
192,192,104046,1,0,0:0:0:0:
448,192,104104,1,0,0:0:0:0:
192,192,104191,128,0,104279:0:0:0:0:
320,192,104191,1,0,0:0:0:0:
320,192,104279,1,0,0:0:0:0:
448,192,104366,128,0,104453:0:0:0:0:
64,192,104366,1,0,0:0:0:0:
64,192,104453,1,0,0:0:0:0:
192,192,104540,1,0,0:0:0:0:
320,192,104540,1,0,0:0:0:0:
64,192,104598,1,0,0:0:0:0:
448,192,104657,1,0,0:0:0:0:
192,192,104715,1,0,0:0:0:0:
64,192,104758,1,0,0:0:0:0:
320,192,104802,1,0,0:0:0:0:
448,192,104831,1,0,0:0:0:0:
192,192,104889,1,0,0:0:0:0:
320,192,104947,1,0,0:0:0:0:
64,192,105005,1,0,0:0:0:0:
320,192,105064,1,0,0:0:0:0:
448,192,105064,1,0,0:0:0:0:
192,192,105107,1,0,0:0:0:0:
64,192,105151,1,0,0:0:0:0:
448,192,105209,128,0,105412:0:0:0:0:
320,192,105296,1,0,0:0:0:0:
192,192,105325,1,0,0:0:0:0:
64,192,105325,1,0,0:0:0:0:
448,192,105587,1,0,0:0:0:0:
320,192,105587,1,0,0:0:0:0:
448,192,105674,1,0,0:0:0:0:
192,192,105761,1,0,0:0:0:0:
64,192,105761,1,0,0:0:0:0:
320,192,105848,1,0,0:0:0:0:
448,192,105848,1,0,0:0:0:0:
320,192,105936,1,0,0:0:0:0:
448,192,106023,1,0,0:0:0:0:
64,192,106052,1,0,0:0:0:0:
192,192,106066,1,0,0:0:0:0:
320,192,106110,1,0,0:0:0:0:
64,192,106168,1,0,0:0:0:0:
448,192,106226,1,0,0:0:0:0:
192,192,106284,1,0,0:0:0:0:
448,192,106372,1,0,0:0:0:0:
64,192,106459,1,0,0:0:0:0:
320,192,106459,128,0,106575:0:0:0:0:
192,192,106517,1,0,0:0:0:0:
64,192,106633,1,0,0:0:0:0:
448,192,106633,1,0,0:0:0:0:
320,192,106721,1,0,0:0:0:0:
448,192,106721,1,0,0:0:0:0:
192,192,106779,1,0,0:0:0:0:
320,192,106837,1,0,0:0:0:0:
448,192,106895,1,0,0:0:0:0:
64,192,106895,1,0,0:0:0:0:
320,192,106982,1,0,0:0:0:0:
192,192,107069,1,0,0:0:0:0:
320,192,107157,128,0,107273:0:0:0:0:
448,192,107157,1,0,0:0:0:0:
64,192,107200,1,0,0:0:0:0:
192,192,107244,1,0,0:0:0:0:
448,192,107302,1,0,0:0:0:0:
64,192,107360,1,0,0:0:0:0:
192,192,107389,1,0,0:0:0:0:
448,192,107447,1,0,0:0:0:0:
320,192,107505,1,0,0:0:0:0:
64,192,107593,1,0,0:0:0:0:
192,192,107593,1,0,0:0:0:0:
320,192,107680,1,0,0:0:0:0:
64,192,107767,1,0,0:0:0:0:
320,192,107854,128,0,107971:0:0:0:0:
448,192,107854,1,0,0:0:0:0:
192,192,107912,1,0,0:0:0:0:
448,192,108029,1,0,0:0:0:0:
64,192,108029,1,0,0:0:0:0:
64,192,108116,1,0,0:0:0:0:
192,192,108116,1,0,0:0:0:0:
320,192,108174,1,0,0:0:0:0:
192,192,108232,1,0,0:0:0:0:
448,192,108290,1,0,0:0:0:0:
64,192,108290,1,0,0:0:0:0:
320,192,108377,1,0,0:0:0:0:
192,192,108465,1,0,0:0:0:0:
64,192,108552,1,0,0:0:0:0:
320,192,108552,128,0,108668:0:0:0:0:
192,192,108610,1,0,0:0:0:0:
448,192,108726,1,0,0:0:0:0:
64,192,108726,1,0,0:0:0:0:
320,192,108814,1,0,0:0:0:0:
448,192,108814,1,0,0:0:0:0:
64,192,108901,1,0,0:0:0:0:
320,192,108959,1,0,0:0:0:0:
448,192,108988,1,0,0:0:0:0:
192,192,108988,1,0,0:0:0:0:
64,192,109075,128,0,109162:0:0:0:0:
192,192,109162,1,0,0:0:0:0:
448,192,109250,1,0,0:0:0:0:
64,192,109250,1,0,0:0:0:0:
320,192,109293,1,0,0:0:0:0:
192,192,109337,1,0,0:0:0:0:
448,192,109424,1,0,0:0:0:0:
64,192,109424,1,0,0:0:0:0:
64,192,109511,1,0,0:0:0:0:
192,192,109511,1,0,0:0:0:0:
448,192,109569,1,0,0:0:0:0:
320,192,109657,1,0,0:0:0:0:
192,192,109686,1,0,0:0:0:0:
64,192,109686,1,0,0:0:0:0:
448,192,109773,128,0,109860:0:0:0:0:
320,192,109831,1,0,0:0:0:0:
192,192,109889,1,0,0:0:0:0:
448,192,109947,1,0,0:0:0:0:
64,192,109947,128,0,110034:0:0:0:0:
448,192,110034,1,0,0:0:0:0:
192,192,110122,1,0,0:0:0:0:
320,192,110122,128,0,110209:0:0:0:0:
192,192,110209,1,0,0:0:0:0:
64,192,110296,1,0,0:0:0:0:
192,192,110383,1,0,0:0:0:0:
448,192,110471,128,0,110558:0:0:0:0:
320,192,110500,1,0,0:0:0:0:
64,192,110558,128,0,110645:0:0:0:0:
192,192,110587,1,0,0:0:0:0:
320,192,110645,1,0,0:0:0:0:
448,192,110645,1,0,0:0:0:0:
192,192,110761,1,0,0:0:0:0:
64,192,110819,1,0,0:0:0:0:
192,192,110877,1,0,0:0:0:0:
320,192,110907,1,0,0:0:0:0:
448,192,110907,1,0,0:0:0:0:
64,192,110994,1,0,0:0:0:0:
192,192,111037,1,0,0:0:0:0:
448,192,111052,1,0,0:0:0:0:
320,192,111168,1,0,0:0:0:0:
448,192,111168,1,0,0:0:0:0:
192,192,111212,1,0,0:0:0:0:
64,192,111255,1,0,0:0:0:0:
192,192,111314,1,0,0:0:0:0:
448,192,111386,1,0,0:0:0:0:
320,192,111386,1,0,0:0:0:0:
64,192,111459,1,0,0:0:0:0:
192,192,111517,1,0,0:0:0:0:
320,192,111517,128,0,111575:0:0:0:0:
448,192,111575,128,0,111633:0:0:0:0:
64,192,111691,1,0,0:0:0:0:
320,192,111750,1,0,0:0:0:0:
448,192,111808,1,0,0:0:0:0:
192,192,111866,1,0,0:0:0:0:
64,192,111909,128,0,112040:0:0:0:0:
320,192,111924,1,0,0:0:0:0:
448,192,112011,1,0,0:0:0:0:
320,192,112040,1,0,0:0:0:0:
192,192,112040,1,0,0:0:0:0:
320,192,112215,1,0,0:0:0:0:
448,192,112215,1,0,0:0:0:0:
192,192,112302,1,0,0:0:0:0:
320,192,112302,1,0,0:0:0:0:
64,192,112360,1,0,0:0:0:0:
192,192,112418,1,0,0:0:0:0:
448,192,112476,1,0,0:0:0:0:
448,192,112564,1,0,0:0:0:0:
64,192,112564,1,0,0:0:0:0:
64,192,112651,1,0,0:0:0:0:
192,192,112738,1,0,0:0:0:0:
448,192,112738,128,0,112854:0:0:0:0:
320,192,112796,1,0,0:0:0:0:
64,192,112825,1,0,0:0:0:0:
192,192,112869,1,0,0:0:0:0:
320,192,112912,1,0,0:0:0:0:
448,192,112912,1,0,0:0:0:0:
64,192,113000,1,0,0:0:0:0:
448,192,113087,1,0,0:0:0:0:
320,192,113174,1,0,0:0:0:0:
192,192,113203,1,0,0:0:0:0:
64,192,113261,1,0,0:0:0:0:
192,192,113319,1,0,0:0:0:0:
64,192,113436,1,0,0:0:0:0:
320,192,113436,1,0,0:0:0:0:
448,192,113494,1,0,0:0:0:0:
320,192,113552,1,0,0:0:0:0:
192,192,113610,1,0,0:0:0:0:
64,192,113639,1,0,0:0:0:0:
448,192,113726,1,0,0:0:0:0:
192,192,113741,1,0,0:0:0:0:
64,192,113806,1,0,0:0:0:0:
192,192,113872,1,0,0:0:0:0:
320,192,113901,1,0,0:0:0:0:
448,192,113959,1,0,0:0:0:0:
64,192,114017,1,0,0:0:0:0:
320,192,114046,1,0,0:0:0:0:
64,192,114133,1,0,0:0:0:0:
192,192,114133,1,0,0:0:0:0:
320,192,114221,1,0,0:0:0:0:
192,192,114308,128,0,114482:0:0:0:0:
448,192,114351,1,0,0:0:0:0:
64,192,114395,1,0,0:0:0:0:
320,192,114482,1,0,0:0:0:0:
448,192,114540,1,0,0:0:0:0:
64,192,114598,1,0,0:0:0:0:
192,192,114657,1,0,0:0:0:0:
320,192,114744,1,0,0:0:0:0:
192,192,114831,1,0,0:0:0:0:
448,192,114831,1,0,0:0:0:0:
192,192,115005,1,0,0:0:0:0:
64,192,115005,1,0,0:0:0:0:
192,192,115093,1,0,0:0:0:0:
320,192,115093,1,0,0:0:0:0:
448,192,115151,1,0,0:0:0:0:
320,192,115209,128,0,115354:0:0:0:0:
192,192,115267,1,0,0:0:0:0:
64,192,115354,1,0,0:0:0:0:
448,192,115354,128,0,115441:0:0:0:0:
64,192,115441,1,0,0:0:0:0:
192,192,115529,128,0,115616:0:0:0:0:
448,192,115529,1,0,0:0:0:0:
448,192,115616,1,0,0:0:0:0:
320,192,115703,1,0,0:0:0:0:
192,192,115703,1,0,0:0:0:0:
448,192,115790,1,0,0:0:0:0:
64,192,115877,1,0,0:0:0:0:
192,192,115965,1,0,0:0:0:0:
320,192,115994,1,0,0:0:0:0:
448,192,116052,1,0,0:0:0:0:
320,192,116110,1,0,0:0:0:0:
192,192,116139,1,0,0:0:0:0:
64,192,116226,1,0,0:0:0:0:
448,192,116226,1,0,0:0:0:0:
320,192,116314,1,0,0:0:0:0:
192,192,116343,1,0,0:0:0:0:
64,192,116401,1,0,0:0:0:0:
192,192,116459,1,0,0:0:0:0:
448,192,116517,1,0,0:0:0:0:
64,192,116575,1,0,0:0:0:0:
320,192,116604,1,0,0:0:0:0:
448,192,116662,1,0,0:0:0:0:
320,192,116721,1,0,0:0:0:0:
192,192,116808,1,0,0:0:0:0:
64,192,116837,128,0,116968:0:0:0:0:
448,192,116953,1,0,0:0:0:0:
320,192,116982,128,0,117215:0:0:0:0:
192,192,117011,1,0,0:0:0:0:
192,192,117142,1,0,0:0:0:0:
64,192,117142,1,0,0:0:0:0:
192,192,117273,1,0,0:0:0:0:
64,192,117331,1,0,0:0:0:0:
448,192,117389,1,0,0:0:0:0:
320,192,117447,1,0,0:0:0:0:
192,192,117534,1,0,0:0:0:0:
64,192,117622,1,0,0:0:0:0:
320,192,117622,1,0,0:0:0:0:
64,192,117796,1,0,0:0:0:0:
192,192,117796,1,0,0:0:0:0:
64,192,117883,1,0,0:0:0:0:
320,192,117883,1,0,0:0:0:0:
448,192,117941,1,0,0:0:0:0:
320,192,118000,1,0,0:0:0:0:
192,192,118058,1,0,0:0:0:0:
192,192,118145,1,0,0:0:0:0:
448,192,118145,1,0,0:0:0:0:
448,192,118232,1,0,0:0:0:0:
64,192,118319,128,0,118436:0:0:0:0:
320,192,118319,1,0,0:0:0:0:
192,192,118377,1,0,0:0:0:0:
448,192,118407,1,0,0:0:0:0:
320,192,118450,1,0,0:0:0:0:
64,192,118494,1,0,0:0:0:0:
192,192,118494,1,0,0:0:0:0:
448,192,118581,1,0,0:0:0:0:
64,192,118668,1,0,0:0:0:0:
448,192,118726,1,0,0:0:0:0:
64,192,118784,1,0,0:0:0:0:
320,192,118843,1,0,0:0:0:0:
64,192,118930,1,0,0:0:0:0:
192,192,118988,1,0,0:0:0:0:
320,192,119017,1,0,0:0:0:0:
64,192,119046,1,0,0:0:0:0:
448,192,119104,1,0,0:0:0:0:
192,192,119191,1,0,0:0:0:0:
320,192,119250,1,0,0:0:0:0:
448,192,119308,1,0,0:0:0:0:
320,192,119366,1,0,0:0:0:0:
64,192,119453,1,0,0:0:0:0:
192,192,119540,1,0,0:0:0:0:
448,192,119540,1,0,0:0:0:0:
320,192,119627,1,0,0:0:0:0:
64,192,119715,1,0,0:0:0:0:
192,192,119715,128,0,119831:0:0:0:0:
448,192,119773,1,0,0:0:0:0:
320,192,119831,1,0,0:0:0:0:
64,192,119889,1,0,0:0:0:0:
192,192,119889,1,0,0:0:0:0:
448,192,119933,128,0,120064:0:0:0:0:
64,192,120064,1,0,0:0:0:0:
192,192,120122,1,0,0:0:0:0:
320,192,120180,1,0,0:0:0:0:
448,192,120238,1,0,0:0:0:0:
192,192,120325,1,0,0:0:0:0:
64,192,120412,1,0,0:0:0:0:
448,192,120412,1,0,0:0:0:0:
448,192,120587,1,0,0:0:0:0:
320,192,120587,1,0,0:0:0:0:
448,192,120674,1,0,0:0:0:0:
64,192,120674,1,0,0:0:0:0:
192,192,120732,1,0,0:0:0:0:
320,192,120805,128,0,120936:0:0:0:0:
64,192,120848,1,0,0:0:0:0:
448,192,120936,1,0,0:0:0:0:
64,192,120936,1,0,0:0:0:0:
448,192,121023,1,0,0:0:0:0:
320,192,121052,1,0,0:0:0:0:
64,192,121110,1,0,0:0:0:0:
192,192,121110,128,0,121226:0:0:0:0:
448,192,121168,1,0,0:0:0:0:
320,192,121226,1,0,0:0:0:0:
64,192,121284,1,0,0:0:0:0:
192,192,121284,1,0,0:0:0:0:
448,192,121401,1,0,0:0:0:0:
320,192,121459,128,0,121604:0:0:0:0:
192,192,121517,1,0,0:0:0:0:
64,192,121575,1,0,0:0:0:0:
192,192,121633,1,0,0:0:0:0:
320,192,121662,1,0,0:0:0:0:
448,192,121691,1,0,0:0:0:0:
64,192,121750,1,0,0:0:0:0:
192,192,121764,1,0,0:0:0:0:
448,192,121808,1,0,0:0:0:0:
320,192,121808,128,0,122157:0:0:0:0:
192,192,122069,1,0,0:0:0:0:
448,192,122069,1,0,0:0:0:0:
320,192,122244,1,0,0:0:0:0:
64,192,122331,1,0,0:0:0:0:
192,192,122418,1,0,0:0:0:0:
448,192,122505,1,0,0:0:0:0:
320,192,122527,1,0,0:0:0:0:
64,192,122549,1,0,0:0:0:0:
448,192,122636,1,0,0:0:0:0:
192,192,122658,1,0,0:0:0:0:
64,192,122680,1,0,0:0:0:0:
448,192,122767,1,0,0:0:0:0:
320,192,122789,1,0,0:0:0:0:
64,192,122811,1,0,0:0:0:0:
192,192,122912,1,0,0:0:0:0:
320,192,122971,1,0,0:0:0:0:
448,192,123029,1,0,0:0:0:0:
64,192,123072,128,0,123203:0:0:0:0:
320,192,123145,1,0,0:0:0:0:
192,192,123203,1,0,0:0:0:0:
448,192,123203,1,0,0:0:0:0:
320,192,123377,1,0,0:0:0:0:
448,192,123377,1,0,0:0:0:0:
192,192,123465,1,0,0:0:0:0:
448,192,123465,1,0,0:0:0:0:
64,192,123523,1,0,0:0:0:0:
192,192,123581,1,0,0:0:0:0:
320,192,123639,1,0,0:0:0:0:
320,192,123726,1,0,0:0:0:0:
64,192,123726,1,0,0:0:0:0:
64,192,123814,1,0,0:0:0:0:
320,192,123901,1,0,0:0:0:0:
448,192,123901,128,0,124017:0:0:0:0:
64,192,123959,1,0,0:0:0:0:
192,192,123988,1,0,0:0:0:0:
320,192,124032,1,0,0:0:0:0:
64,192,124075,1,0,0:0:0:0:
448,192,124075,1,0,0:0:0:0:
192,192,124162,1,0,0:0:0:0:
448,192,124250,1,0,0:0:0:0:
64,192,124337,1,0,0:0:0:0:
320,192,124366,1,0,0:0:0:0:
448,192,124424,1,0,0:0:0:0:
320,192,124482,1,0,0:0:0:0:
192,192,124598,1,0,0:0:0:0:
448,192,124598,1,0,0:0:0:0:
64,192,124657,1,0,0:0:0:0:
192,192,124715,1,0,0:0:0:0:
320,192,124773,1,0,0:0:0:0:
448,192,124802,1,0,0:0:0:0:
64,192,124889,1,0,0:0:0:0:
320,192,124889,1,0,0:0:0:0:
448,192,124969,1,0,0:0:0:0:
320,192,125034,1,0,0:0:0:0:
192,192,125064,1,0,0:0:0:0:
64,192,125122,1,0,0:0:0:0:
320,192,125180,1,0,0:0:0:0:
192,192,125209,1,0,0:0:0:0:
64,192,125296,1,0,0:0:0:0:
448,192,125296,1,0,0:0:0:0:
320,192,125383,1,0,0:0:0:0:
192,192,125471,128,0,125645:0:0:0:0:
448,192,125514,1,0,0:0:0:0:
64,192,125558,1,0,0:0:0:0:
320,192,125645,1,0,0:0:0:0:
448,192,125703,1,0,0:0:0:0:
64,192,125761,1,0,0:0:0:0:
320,192,125819,1,0,0:0:0:0:
192,192,125907,1,0,0:0:0:0:
64,192,125994,1,0,0:0:0:0:
448,192,125994,1,0,0:0:0:0:
192,192,126168,1,0,0:0:0:0:
64,192,126168,1,0,0:0:0:0:
192,192,126255,1,0,0:0:0:0:
320,192,126255,1,0,0:0:0:0:
448,192,126314,1,0,0:0:0:0:
320,192,126372,128,0,126517:0:0:0:0:
192,192,126430,1,0,0:0:0:0:
64,192,126517,128,0,126604:0:0:0:0:
448,192,126517,1,0,0:0:0:0:
448,192,126604,1,0,0:0:0:0:
64,192,126691,1,0,0:0:0:0:
320,192,126691,128,0,126779:0:0:0:0:
64,192,126779,1,0,0:0:0:0:
320,192,126866,1,0,0:0:0:0:
192,192,126866,1,0,0:0:0:0:
320,192,127040,1,0,0:0:0:0:
448,192,127127,1,0,0:0:0:0:
192,192,127157,1,0,0:0:0:0:
64,192,127215,1,0,0:0:0:0:
192,192,127273,1,0,0:0:0:0:
320,192,127302,1,0,0:0:0:0:
448,192,127389,1,0,0:0:0:0:
64,192,127389,1,0,0:0:0:0:
192,192,127476,1,0,0:0:0:0:
320,192,127505,1,0,0:0:0:0:
448,192,127564,1,0,0:0:0:0:
320,192,127622,1,0,0:0:0:0:
64,192,127680,1,0,0:0:0:0:
448,192,127738,1,0,0:0:0:0:
192,192,127767,1,0,0:0:0:0:
64,192,127825,1,0,0:0:0:0:
192,192,127883,1,0,0:0:0:0:
320,192,127912,128,0,128087:0:0:0:0:
448,192,128000,1,0,0:0:0:0:
192,192,128029,1,0,0:0:0:0:
64,192,128087,1,0,0:0:0:0:
320,192,128174,1,0,0:0:0:0:
320,192,128305,1,0,0:0:0:0:
448,192,128305,1,0,0:0:0:0:
320,192,128436,1,0,0:0:0:0:
448,192,128494,128,0,128726:0:0:0:0:
192,192,128552,1,0,0:0:0:0:
320,192,128610,1,0,0:0:0:0:
64,192,128668,1,0,0:0:0:0:
192,192,128726,1,0,0:0:0:0:
320,192,128784,1,0,0:0:0:0:
448,192,128784,1,0,0:0:0:0:
64,192,128959,1,0,0:0:0:0:
192,192,128959,1,0,0:0:0:0:
320,192,129046,1,0,0:0:0:0:
64,192,129046,1,0,0:0:0:0:
448,192,129104,1,0,0:0:0:0:
320,192,129162,1,0,0:0:0:0:
192,192,129221,1,0,0:0:0:0:
192,192,129308,1,0,0:0:0:0:
448,192,129308,1,0,0:0:0:0:
448,192,129395,1,0,0:0:0:0:
64,192,129482,128,0,129598:0:0:0:0:
192,192,129482,1,0,0:0:0:0:
320,192,129540,1,0,0:0:0:0:
448,192,129569,1,0,0:0:0:0:
192,192,129613,1,0,0:0:0:0:
64,192,129657,1,0,0:0:0:0:
320,192,129657,1,0,0:0:0:0:
192,192,129744,1,0,0:0:0:0:
448,192,129831,1,0,0:0:0:0:
64,192,129889,1,0,0:0:0:0:
448,192,129947,1,0,0:0:0:0:
192,192,130005,1,0,0:0:0:0:
448,192,130093,1,0,0:0:0:0:
320,192,130151,1,0,0:0:0:0:
192,192,130180,1,0,0:0:0:0:
448,192,130209,1,0,0:0:0:0:
64,192,130267,1,0,0:0:0:0:
320,192,130354,1,0,0:0:0:0:
192,192,130412,1,0,0:0:0:0:
64,192,130471,1,0,0:0:0:0:
192,192,130529,1,0,0:0:0:0:
448,192,130616,1,0,0:0:0:0:
320,192,130703,1,0,0:0:0:0:
64,192,130703,1,0,0:0:0:0:
192,192,130761,1,0,0:0:0:0:
64,192,130819,1,0,0:0:0:0:
320,192,130877,128,0,130994:0:0:0:0:
448,192,130877,1,0,0:0:0:0:
192,192,130936,1,0,0:0:0:0:
64,192,130994,1,0,0:0:0:0:
320,192,131052,1,0,0:0:0:0:
448,192,131052,1,0,0:0:0:0:
192,192,131081,128,0,131226:0:0:0:0:
448,192,131226,1,0,0:0:0:0:
320,192,131284,1,0,0:0:0:0:
64,192,131343,1,0,0:0:0:0:
192,192,131401,1,0,0:0:0:0:
448,192,131488,1,0,0:0:0:0:
320,192,131575,1,0,0:0:0:0:
64,192,131575,1,0,0:0:0:0:
320,192,131750,1,0,0:0:0:0:
448,192,131750,1,0,0:0:0:0:
320,192,131837,1,0,0:0:0:0:
192,192,131837,1,0,0:0:0:0:
448,192,131924,1,0,0:0:0:0:
64,192,131924,1,0,0:0:0:0:
320,192,131982,1,0,0:0:0:0:
192,192,132055,128,0,132186:0:0:0:0:
448,192,132098,1,0,0:0:0:0:
448,192,132186,1,0,0:0:0:0:
64,192,132186,1,0,0:0:0:0:
64,192,132273,1,0,0:0:0:0:
320,192,132273,128,0,132389:0:0:0:0:
192,192,132331,1,0,0:0:0:0:
448,192,132389,1,0,0:0:0:0:
320,192,132447,1,0,0:0:0:0:
64,192,132447,1,0,0:0:0:0:
320,192,132622,1,0,0:0:0:0:
192,192,132709,1,0,0:0:0:0:
64,192,132738,1,0,0:0:0:0:
320,192,132796,1,0,0:0:0:0:
192,192,132854,1,0,0:0:0:0:
448,192,132912,1,0,0:0:0:0:
320,192,132971,1,0,0:0:0:0:
64,192,132971,1,0,0:0:0:0:
192,192,133014,1,0,0:0:0:0:
448,192,133058,1,0,0:0:0:0:
320,192,133087,1,0,0:0:0:0:
192,192,133145,1,0,0:0:0:0:
448,192,133203,1,0,0:0:0:0:
320,192,133261,1,0,0:0:0:0:
192,192,133276,1,0,0:0:0:0:
64,192,133319,1,0,0:0:0:0:
448,192,133377,1,0,0:0:0:0:
320,192,133407,1,0,0:0:0:0:
192,192,133436,1,0,0:0:0:0:
64,192,133494,1,0,0:0:0:0:
448,192,133552,1,0,0:0:0:0:
320,192,133610,1,0,0:0:0:0:
192,192,133668,1,0,0:0:0:0:
64,192,133726,1,0,0:0:0:0:
448,192,133755,1,0,0:0:0:0:
448,192,133886,1,0,0:0:0:0:
64,192,133886,128,0,134191:0:0:0:0:
448,192,134017,128,0,134191:0:0:0:0:
320,192,134017,128,0,134191:0:0:0:0:
192,192,134017,128,0,134191:0:0:0:0:
192,192,134279,1,0,0:0:0:0:
320,192,134366,1,0,0:0:0:0:
448,192,134366,1,0,0:0:0:0:
320,192,134540,1,0,0:0:0:0:
64,192,134540,1,0,0:0:0:0:
64,192,134627,1,0,0:0:0:0:
192,192,134627,1,0,0:0:0:0:
320,192,134802,1,0,0:0:0:0:
320,192,134889,1,0,0:0:0:0:
192,192,134889,1,0,0:0:0:0:
192,192,134976,1,0,0:0:0:0:
64,192,135064,1,0,0:0:0:0:
320,192,135107,128,0,135238:0:0:0:0:
192,192,135122,1,0,0:0:0:0:
64,192,135238,1,0,0:0:0:0:
448,192,135238,1,0,0:0:0:0:
448,192,135412,1,0,0:0:0:0:
192,192,135500,1,0,0:0:0:0:
320,192,135529,1,0,0:0:0:0:
448,192,135543,1,0,0:0:0:0:
64,192,135587,1,0,0:0:0:0:
320,192,135645,1,0,0:0:0:0:
448,192,135703,1,0,0:0:0:0:
192,192,135761,1,0,0:0:0:0:
64,192,135761,1,0,0:0:0:0:
320,192,135848,1,0,0:0:0:0:
64,192,135936,1,0,0:0:0:0:
320,192,136023,1,0,0:0:0:0:
192,192,136052,1,0,0:0:0:0:
64,192,136066,1,0,0:0:0:0:
448,192,136110,1,0,0:0:0:0:
192,192,136168,1,0,0:0:0:0:
64,192,136226,1,0,0:0:0:0:
448,192,136284,128,0,136372:0:0:0:0:
320,192,136314,1,0,0:0:0:0:
192,192,136430,1,0,0:0:0:0:
64,192,136459,1,0,0:0:0:0:
448,192,136459,128,0,136546:0:0:0:0:
320,192,136488,1,0,0:0:0:0:
448,192,136633,128,0,136721:0:0:0:0:
64,192,136633,1,0,0:0:0:0:
320,192,136662,1,0,0:0:0:0:
448,192,136808,1,0,0:0:0:0:
192,192,136808,1,0,0:0:0:0:
64,192,136851,1,0,0:0:0:0:
320,192,136866,1,0,0:0:0:0:
192,192,136924,1,0,0:0:0:0:
448,192,136982,1,0,0:0:0:0:
320,192,137040,1,0,0:0:0:0:
64,192,137098,1,0,0:0:0:0:
192,192,137157,1,0,0:0:0:0:
320,192,137157,1,0,0:0:0:0:
448,192,137331,1,0,0:0:0:0:
192,192,137331,1,0,0:0:0:0:
448,192,137418,1,0,0:0:0:0:
320,192,137418,1,0,0:0:0:0:
64,192,137505,1,0,0:0:0:0:
192,192,137593,1,0,0:0:0:0:
320,192,137622,1,0,0:0:0:0:
64,192,137680,1,0,0:0:0:0:
448,192,137680,1,0,0:0:0:0:
64,192,137767,1,0,0:0:0:0:
320,192,137796,1,0,0:0:0:0:
192,192,137825,1,0,0:0:0:0:
448,192,137854,1,0,0:0:0:0:
448,192,137941,1,0,0:0:0:0:
192,192,138029,1,0,0:0:0:0:
64,192,138029,1,0,0:0:0:0:
320,192,138029,1,0,0:0:0:0:
320,192,138290,1,0,0:0:0:0:
448,192,138290,1,0,0:0:0:0:
320,192,138552,1,0,0:0:0:0:
64,192,138552,1,0,0:0:0:0:
192,192,138574,1,0,0:0:0:0:
448,192,138814,1,0,0:0:0:0:
320,192,138814,1,0,0:0:0:0:
192,192,138901,1,0,0:0:0:0:
64,192,138988,1,0,0:0:0:0:
192,192,139075,1,0,0:0:0:0:
320,192,139119,1,0,0:0:0:0:
448,192,139133,128,0,139250:0:0:0:0:
192,192,139250,1,0,0:0:0:0:
64,192,139250,1,0,0:0:0:0:
448,192,139308,1,0,0:0:0:0:
320,192,139366,1,0,0:0:0:0:
192,192,139380,1,0,0:0:0:0:
64,192,139395,1,0,0:0:0:0:
448,192,139511,1,0,0:0:0:0:
320,192,139526,1,0,0:0:0:0:
192,192,139540,1,0,0:0:0:0:
64,192,139598,1,0,0:0:0:0:
192,192,139773,1,0,0:0:0:0:
320,192,139860,1,0,0:0:0:0:
64,192,139947,1,0,0:0:0:0:
448,192,139947,1,0,0:0:0:0:
192,192,140122,1,0,0:0:0:0:
64,192,140122,1,0,0:0:0:0:
64,192,140209,1,0,0:0:0:0:
320,192,140209,1,0,0:0:0:0:
448,192,140383,1,0,0:0:0:0:
448,192,140471,1,0,0:0:0:0:
192,192,140471,1,0,0:0:0:0:
192,192,140558,1,0,0:0:0:0:
320,192,140645,1,0,0:0:0:0:
64,192,140689,128,0,140819:0:0:0:0:
192,192,140703,1,0,0:0:0:0:
320,192,140819,1,0,0:0:0:0:
448,192,140819,1,0,0:0:0:0:
64,192,140994,1,0,0:0:0:0:
192,192,141081,1,0,0:0:0:0:
448,192,141110,1,0,0:0:0:0:
320,192,141125,1,0,0:0:0:0:
64,192,141168,1,0,0:0:0:0:
192,192,141226,1,0,0:0:0:0:
448,192,141284,1,0,0:0:0:0:
64,192,141343,1,0,0:0:0:0:
320,192,141343,1,0,0:0:0:0:
192,192,141430,1,0,0:0:0:0:
448,192,141517,1,0,0:0:0:0:
192,192,141604,1,0,0:0:0:0:
64,192,141633,1,0,0:0:0:0:
320,192,141648,1,0,0:0:0:0:
448,192,141691,1,0,0:0:0:0:
192,192,141750,1,0,0:0:0:0:
64,192,141808,1,0,0:0:0:0:
448,192,141866,1,0,0:0:0:0:
192,192,141909,128,0,141997:0:0:0:0:
64,192,141924,1,0,0:0:0:0:
320,192,141931,1,0,0:0:0:0:
448,192,142040,1,0,0:0:0:0:
320,192,142040,1,0,0:0:0:0:
64,192,142127,128,0,142215:0:0:0:0:
192,192,142157,1,0,0:0:0:0:
448,192,142215,1,0,0:0:0:0:
64,192,142302,128,0,142389:0:0:0:0:
192,192,142331,1,0,0:0:0:0:
448,192,142389,1,0,0:0:0:0:
320,192,142389,128,0,142680:0:0:0:0:
448,192,142738,1,0,0:0:0:0:
320,192,142738,1,0,0:0:0:0:
64,192,142912,1,0,0:0:0:0:
448,192,142912,1,0,0:0:0:0:
448,192,143000,1,0,0:0:0:0:
320,192,143000,1,0,0:0:0:0:
64,192,143087,1,0,0:0:0:0:
192,192,143174,1,0,0:0:0:0:
448,192,143203,1,0,0:0:0:0:
320,192,143261,1,0,0:0:0:0:
64,192,143261,1,0,0:0:0:0:
64,192,143348,1,0,0:0:0:0:
448,192,143377,1,0,0:0:0:0:
192,192,143407,1,0,0:0:0:0:
320,192,143436,1,0,0:0:0:0:
320,192,143523,1,0,0:0:0:0:
192,192,143610,1,0,0:0:0:0:
64,192,143610,1,0,0:0:0:0:
448,192,143610,1,0,0:0:0:0:
320,192,143872,1,0,0:0:0:0:
192,192,143872,1,0,0:0:0:0:
64,192,143959,1,0,0:0:0:0:
192,192,144046,1,0,0:0:0:0:
64,192,144133,1,0,0:0:0:0:
320,192,144133,1,0,0:0:0:0:
448,192,144133,1,0,0:0:0:0:
192,192,144395,1,0,0:0:0:0:
320,192,144395,1,0,0:0:0:0:
192,192,144482,1,0,0:0:0:0:
64,192,144569,1,0,0:0:0:0:
64,192,144657,1,0,0:0:0:0:
448,192,144657,1,0,0:0:0:0:
320,192,144686,1,0,0:0:0:0:
320,192,144918,1,0,0:0:0:0:
192,192,144918,1,0,0:0:0:0:
448,192,145093,1,0,0:0:0:0:
320,192,145180,1,0,0:0:0:0:
192,192,145180,128,0,145383:0:0:0:0:
320,192,145398,1,0,0:0:0:0:
192,192,145441,1,0,0:0:0:0:
64,192,145471,1,0,0:0:0:0:
320,192,145529,1,0,0:0:0:0:
448,192,145529,1,0,0:0:0:0:
64,192,145703,1,0,0:0:0:0:
320,192,145703,1,0,0:0:0:0:
448,192,145790,1,0,0:0:0:0:
320,192,145790,1,0,0:0:0:0:
64,192,145965,1,0,0:0:0:0:
64,192,146052,1,0,0:0:0:0:
448,192,146052,1,0,0:0:0:0:
448,192,146139,1,0,0:0:0:0:
320,192,146226,1,0,0:0:0:0:
192,192,146270,128,0,146401:0:0:0:0:
64,192,146284,1,0,0:0:0:0:
320,192,146401,1,0,0:0:0:0:
448,192,146401,1,0,0:0:0:0:
64,192,146575,1,0,0:0:0:0:
320,192,146662,1,0,0:0:0:0:
192,192,146691,1,0,0:0:0:0:
64,192,146706,1,0,0:0:0:0:
448,192,146750,1,0,0:0:0:0:
320,192,146808,1,0,0:0:0:0:
192,192,146866,1,0,0:0:0:0:
64,192,146924,1,0,0:0:0:0:
448,192,146924,1,0,0:0:0:0:
320,192,147011,1,0,0:0:0:0:
64,192,147098,1,0,0:0:0:0:
192,192,147186,1,0,0:0:0:0:
448,192,147215,1,0,0:0:0:0:
320,192,147229,1,0,0:0:0:0:
64,192,147273,1,0,0:0:0:0:
192,192,147331,1,0,0:0:0:0:
448,192,147389,1,0,0:0:0:0:
320,192,147447,1,0,0:0:0:0:
192,192,147534,1,0,0:0:0:0:
64,192,147578,1,0,0:0:0:0:
320,192,147622,128,0,147738:0:0:0:0:
448,192,147651,1,0,0:0:0:0:
320,192,147796,128,0,147912:0:0:0:0:
64,192,147796,1,0,0:0:0:0:
448,192,147825,1,0,0:0:0:0:
320,192,147971,1,0,0:0:0:0:
192,192,147971,128,0,148261:0:0:0:0:
192,192,148319,1,0,0:0:0:0:
64,192,148319,1,0,0:0:0:0:
320,192,148494,1,0,0:0:0:0:
448,192,148494,1,0,0:0:0:0:
320,192,148581,1,0,0:0:0:0:
64,192,148581,1,0,0:0:0:0:
448,192,148668,1,0,0:0:0:0:
320,192,148755,1,0,0:0:0:0:
192,192,148784,1,0,0:0:0:0:
448,192,148843,1,0,0:0:0:0:
64,192,148843,1,0,0:0:0:0:
448,192,148930,1,0,0:0:0:0:
192,192,148959,1,0,0:0:0:0:
320,192,148988,1,0,0:0:0:0:
64,192,149017,1,0,0:0:0:0:
64,192,149104,1,0,0:0:0:0:
192,192,149191,1,0,0:0:0:0:
320,192,149191,1,0,0:0:0:0:
448,192,149191,1,0,0:0:0:0:
320,192,149453,1,0,0:0:0:0:
192,192,149453,1,0,0:0:0:0:
448,192,149540,1,0,0:0:0:0:
320,192,149627,1,0,0:0:0:0:
448,192,149715,1,0,0:0:0:0:
64,192,149715,1,0,0:0:0:0:
192,192,149744,1,0,0:0:0:0:
320,192,149976,1,0,0:0:0:0:
192,192,149976,128,0,150151:0:0:0:0:
320,192,150064,1,0,0:0:0:0:
448,192,150151,1,0,0:0:0:0:
448,192,150238,1,0,0:0:0:0:
192,192,150267,1,0,0:0:0:0:
64,192,150282,128,0,150398:0:0:0:0:
320,192,150398,1,0,0:0:0:0:
192,192,150398,1,0,0:0:0:0:
448,192,150456,1,0,0:0:0:0:
64,192,150500,1,0,0:0:0:0:
192,192,150515,1,0,0:0:0:0:
320,192,150529,1,0,0:0:0:0:
448,192,150645,1,0,0:0:0:0:
320,192,150660,1,0,0:0:0:0:
192,192,150674,1,0,0:0:0:0:
64,192,150761,1,0,0:0:0:0:
448,192,150936,1,0,0:0:0:0:
192,192,150979,1,0,0:0:0:0:
320,192,151023,1,0,0:0:0:0:
448,192,151052,1,0,0:0:0:0:
192,192,151110,1,0,0:0:0:0:
64,192,151110,1,0,0:0:0:0:
192,192,151284,1,0,0:0:0:0:
320,192,151284,1,0,0:0:0:0:
192,192,151372,1,0,0:0:0:0:
64,192,151372,1,0,0:0:0:0:
448,192,151546,1,0,0:0:0:0:
448,192,151633,1,0,0:0:0:0:
64,192,151633,1,0,0:0:0:0:
64,192,151721,1,0,0:0:0:0:
192,192,151808,1,0,0:0:0:0:
448,192,151851,128,0,151982:0:0:0:0:
320,192,151866,1,0,0:0:0:0:
64,192,151982,1,0,0:0:0:0:
192,192,151982,1,0,0:0:0:0:
320,192,152157,1,0,0:0:0:0:
448,192,152157,1,0,0:0:0:0:
64,192,152331,1,0,0:0:0:0:
320,192,152375,1,0,0:0:0:0:
192,192,152418,1,0,0:0:0:0:
64,192,152447,1,0,0:0:0:0:
320,192,152505,1,0,0:0:0:0:
448,192,152505,1,0,0:0:0:0:
320,192,152680,1,0,0:0:0:0:
192,192,152680,1,0,0:0:0:0:
320,192,152767,1,0,0:0:0:0:
448,192,152767,1,0,0:0:0:0:
192,192,152941,1,0,0:0:0:0:
192,192,153029,1,0,0:0:0:0:
320,192,153029,1,0,0:0:0:0:
320,192,153116,1,0,0:0:0:0:
192,192,153203,1,0,0:0:0:0:
448,192,153247,128,0,153377:0:0:0:0:
320,192,153261,1,0,0:0:0:0:
192,192,153377,1,0,0:0:0:0:
64,192,153377,1,0,0:0:0:0:
192,192,153552,1,0,0:0:0:0:
448,192,153552,1,0,0:0:0:0:
64,192,153639,128,0,153814:0:0:0:0:
192,192,153814,1,0,0:0:0:0:
448,192,153901,1,0,0:0:0:0:
320,192,153944,1,0,0:0:0:0:
192,192,153959,1,0,0:0:0:0:
64,192,154017,1,0,0:0:0:0:
448,192,154032,128,0,154090:0:0:0:0:
448,192,154162,128,0,154221:0:0:0:0:
320,192,154176,1,0,0:0:0:0:
192,192,154206,1,0,0:0:0:0:
448,192,154337,128,0,154395:0:0:0:0:
320,192,154351,1,0,0:0:0:0:
192,192,154380,1,0,0:0:0:0:
64,192,154424,1,0,0:0:0:0:
192,192,154511,1,0,0:0:0:0:
320,192,154598,1,0,0:0:0:0:
448,192,154598,1,0,0:0:0:0:
192,192,154686,1,0,0:0:0:0:
64,192,154773,1,0,0:0:0:0:
320,192,154795,1,0,0:0:0:0:
448,192,154802,1,0,0:0:0:0:
192,192,154860,1,0,0:0:0:0:
448,192,154947,1,0,0:0:0:0:
64,192,154947,1,0,0:0:0:0:
192,192,155034,1,0,0:0:0:0:
64,192,155122,1,0,0:0:0:0:
448,192,155143,1,0,0:0:0:0:
320,192,155151,1,0,0:0:0:0:
192,192,155209,1,0,0:0:0:0:
64,192,155296,1,0,0:0:0:0:
448,192,155296,1,0,0:0:0:0:
320,192,155340,1,0,0:0:0:0:
192,192,155361,1,0,0:0:0:0:
64,192,155412,1,0,0:0:0:0:
320,192,155529,1,0,0:0:0:0:
64,192,155558,1,0,0:0:0:0:
448,192,155587,1,0,0:0:0:0:
320,192,155645,1,0,0:0:0:0:
192,192,155703,1,0,0:0:0:0:
64,192,155761,1,0,0:0:0:0:
320,192,155819,1,0,0:0:0:0:
192,192,155863,1,0,0:0:0:0:
448,192,155877,1,0,0:0:0:0:
320,192,155936,1,0,0:0:0:0:
192,192,155994,128,0,156168:0:0:0:0:
64,192,156168,1,0,0:0:0:0:
192,192,156226,1,0,0:0:0:0:
320,192,156284,1,0,0:0:0:0:
64,192,156343,1,0,0:0:0:0:
448,192,156343,128,0,156459:0:0:0:0:
192,192,156401,1,0,0:0:0:0:
320,192,156459,1,0,0:0:0:0:
448,192,156517,1,0,0:0:0:0:
64,192,156517,128,0,156633:0:0:0:0:
192,192,156575,1,0,0:0:0:0:
448,192,156662,1,0,0:0:0:0:
64,192,156691,1,0,0:0:0:0:
320,192,156691,1,0,0:0:0:0:
192,192,156866,1,0,0:0:0:0:
64,192,156866,1,0,0:0:0:0:
320,192,156953,1,0,0:0:0:0:
192,192,156953,1,0,0:0:0:0:
448,192,157011,1,0,0:0:0:0:
320,192,157069,1,0,0:0:0:0:
64,192,157127,1,0,0:0:0:0:
64,192,157215,1,0,0:0:0:0:
448,192,157215,1,0,0:0:0:0:
448,192,157302,1,0,0:0:0:0:
192,192,157389,1,0,0:0:0:0:
64,192,157389,128,0,157505:0:0:0:0:
320,192,157447,1,0,0:0:0:0:
448,192,157476,1,0,0:0:0:0:
192,192,157520,1,0,0:0:0:0:
320,192,157564,1,0,0:0:0:0:
64,192,157564,1,0,0:0:0:0:
192,192,157651,1,0,0:0:0:0:
448,192,157738,1,0,0:0:0:0:
320,192,157825,1,0,0:0:0:0:
192,192,157854,1,0,0:0:0:0:
64,192,157912,1,0,0:0:0:0:
192,192,157971,1,0,0:0:0:0:
64,192,158087,1,0,0:0:0:0:
320,192,158087,1,0,0:0:0:0:
448,192,158145,1,0,0:0:0:0:
320,192,158203,1,0,0:0:0:0:
192,192,158261,1,0,0:0:0:0:
64,192,158290,1,0,0:0:0:0:
448,192,158377,1,0,0:0:0:0:
192,192,158392,1,0,0:0:0:0:
64,192,158457,1,0,0:0:0:0:
192,192,158523,1,0,0:0:0:0:
320,192,158552,1,0,0:0:0:0:
448,192,158610,1,0,0:0:0:0:
64,192,158668,1,0,0:0:0:0:
192,192,158697,1,0,0:0:0:0:
448,192,158784,1,0,0:0:0:0:
320,192,158784,1,0,0:0:0:0:
64,192,158872,1,0,0:0:0:0:
320,192,158959,128,0,159133:0:0:0:0:
192,192,159017,1,0,0:0:0:0:
64,192,159046,1,0,0:0:0:0:
448,192,159133,1,0,0:0:0:0:
320,192,159191,1,0,0:0:0:0:
64,192,159250,1,0,0:0:0:0:
192,192,159308,1,0,0:0:0:0:
448,192,159395,1,0,0:0:0:0:
320,192,159482,1,0,0:0:0:0:
64,192,159482,1,0,0:0:0:0:
320,192,159657,1,0,0:0:0:0:
448,192,159657,1,0,0:0:0:0:
320,192,159744,1,0,0:0:0:0:
192,192,159744,1,0,0:0:0:0:
64,192,159802,1,0,0:0:0:0:
192,192,159860,128,0,160005:0:0:0:0:
320,192,159918,1,0,0:0:0:0:
448,192,160005,1,0,0:0:0:0:
64,192,160005,128,0,160093:0:0:0:0:
448,192,160093,1,0,0:0:0:0:
320,192,160180,128,0,160267:0:0:0:0:
64,192,160180,1,0,0:0:0:0:
64,192,160267,1,0,0:0:0:0:
192,192,160354,1,0,0:0:0:0:
320,192,160354,1,0,0:0:0:0:
64,192,160441,1,0,0:0:0:0:
448,192,160529,1,0,0:0:0:0:
320,192,160616,1,0,0:0:0:0:
192,192,160645,1,0,0:0:0:0:
64,192,160703,1,0,0:0:0:0:
192,192,160761,1,0,0:0:0:0:
320,192,160790,1,0,0:0:0:0:
448,192,160877,1,0,0:0:0:0:
64,192,160877,1,0,0:0:0:0:
192,192,160965,1,0,0:0:0:0:
320,192,160994,1,0,0:0:0:0:
448,192,161052,1,0,0:0:0:0:
320,192,161110,1,0,0:0:0:0:
64,192,161168,1,0,0:0:0:0:
448,192,161226,1,0,0:0:0:0:
192,192,161255,1,0,0:0:0:0:
64,192,161314,1,0,0:0:0:0:
192,192,161372,1,0,0:0:0:0:
320,192,161401,128,0,161575:0:0:0:0:
448,192,161488,1,0,0:0:0:0:
192,192,161517,1,0,0:0:0:0:
64,192,161575,128,0,161793:0:0:0:0:
320,192,161662,1,0,0:0:0:0:
320,192,161793,1,0,0:0:0:0:
448,192,161793,1,0,0:0:0:0:
320,192,161924,1,0,0:0:0:0:
448,192,161982,1,0,0:0:0:0:
64,192,162040,1,0,0:0:0:0:
192,192,162098,1,0,0:0:0:0:
320,192,162186,1,0,0:0:0:0:
448,192,162273,1,0,0:0:0:0:
192,192,162273,1,0,0:0:0:0:
448,192,162447,1,0,0:0:0:0:
320,192,162447,1,0,0:0:0:0:
448,192,162534,1,0,0:0:0:0:
192,192,162534,1,0,0:0:0:0:
64,192,162593,1,0,0:0:0:0:
192,192,162651,1,0,0:0:0:0:
320,192,162709,1,0,0:0:0:0:
320,192,162796,1,0,0:0:0:0:
64,192,162796,1,0,0:0:0:0:
64,192,162883,1,0,0:0:0:0:
448,192,162971,128,0,163087:0:0:0:0:
320,192,162971,1,0,0:0:0:0:
64,192,163029,1,0,0:0:0:0:
192,192,163058,1,0,0:0:0:0:
320,192,163101,1,0,0:0:0:0:
448,192,163145,1,0,0:0:0:0:
64,192,163145,1,0,0:0:0:0:
192,192,163232,1,0,0:0:0:0:
448,192,163319,1,0,0:0:0:0:
64,192,163377,1,0,0:0:0:0:
448,192,163436,1,0,0:0:0:0:
192,192,163494,1,0,0:0:0:0:
448,192,163581,1,0,0:0:0:0:
320,192,163639,1,0,0:0:0:0:
192,192,163668,1,0,0:0:0:0:
448,192,163697,1,0,0:0:0:0:
64,192,163755,1,0,0:0:0:0:
320,192,163843,1,0,0:0:0:0:
192,192,163901,1,0,0:0:0:0:
64,192,163959,1,0,0:0:0:0:
192,192,164017,1,0,0:0:0:0:
448,192,164104,1,0,0:0:0:0:
320,192,164191,1,0,0:0:0:0:
64,192,164191,1,0,0:0:0:0:
192,192,164279,1,0,0:0:0:0:
448,192,164366,1,0,0:0:0:0:
320,192,164366,128,0,164482:0:0:0:0:
64,192,164424,1,0,0:0:0:0:
192,192,164482,1,0,0:0:0:0:
448,192,164540,1,0,0:0:0:0:
320,192,164540,1,0,0:0:0:0:
64,192,164584,128,0,164715:0:0:0:0:
448,192,164715,1,0,0:0:0:0:
320,192,164773,1,0,0:0:0:0:
192,192,164831,1,0,0:0:0:0:
64,192,164889,1,0,0:0:0:0:
320,192,164976,1,0,0:0:0:0:
448,192,165064,1,0,0:0:0:0:
64,192,165064,1,0,0:0:0:0:
64,192,165238,1,0,0:0:0:0:
192,192,165238,1,0,0:0:0:0:
64,192,165325,1,0,0:0:0:0:
448,192,165325,1,0,0:0:0:0:
320,192,165383,1,0,0:0:0:0:
192,192,165456,128,0,165587:0:0:0:0:
448,192,165500,1,0,0:0:0:0:
64,192,165587,1,0,0:0:0:0:
448,192,165587,1,0,0:0:0:0:
64,192,165674,1,0,0:0:0:0:
192,192,165761,1,0,0:0:0:0:
320,192,165761,128,0,165877:0:0:0:0:
448,192,165819,1,0,0:0:0:0:
64,192,165877,1,0,0:0:0:0:
192,192,165936,1,0,0:0:0:0:
320,192,165936,1,0,0:0:0:0:
64,192,166023,1,0,0:0:0:0:
448,192,166110,1,0,0:0:0:0:
320,192,166168,1,0,0:0:0:0:
192,192,166197,1,0,0:0:0:0:
64,192,166226,1,0,0:0:0:0:
448,192,166284,1,0,0:0:0:0:
192,192,166328,1,0,0:0:0:0:
64,192,166343,1,0,0:0:0:0:
320,192,166401,1,0,0:0:0:0:
448,192,166459,1,0,0:0:0:0:
192,192,166459,128,0,166895:0:0:0:0:
64,192,166721,1,0,0:0:0:0:
320,192,166721,1,0,0:0:0:0:
448,192,166808,1,0,0:0:0:0:
64,192,166895,1,0,0:0:0:0:
192,192,166982,1,0,0:0:0:0:
320,192,167069,1,0,0:0:0:0:
64,192,167157,1,0,0:0:0:0:
448,192,167186,1,0,0:0:0:0:
320,192,167215,128,0,167447:0:0:0:0:
192,192,167244,1,0,0:0:0:0:
192,192,167375,1,0,0:0:0:0:
192,192,167505,1,0,0:0:0:0:
64,192,167505,128,0,167622:0:0:0:0:
448,192,167564,1,0,0:0:0:0:
320,192,167622,1,0,0:0:0:0:
192,192,167680,1,0,0:0:0:0:
448,192,167723,128,0,167854:0:0:0:0:
64,192,167738,1,0,0:0:0:0:
320,192,167825,1,0,0:0:0:0:
192,192,167854,1,0,0:0:0:0:
64,192,167854,1,0,0:0:0:0:
192,192,168029,1,0,0:0:0:0:
64,192,168029,1,0,0:0:0:0:
320,192,168116,1,0,0:0:0:0:
192,192,168116,1,0,0:0:0:0:
448,192,168174,1,0,0:0:0:0:
320,192,168232,1,0,0:0:0:0:
64,192,168290,1,0,0:0:0:0:
64,192,168377,1,0,0:0:0:0:
320,192,168377,1,0,0:0:0:0:
320,192,168465,1,0,0:0:0:0:
192,192,168552,1,0,0:0:0:0:
448,192,168552,128,0,168668:0:0:0:0:
64,192,168610,1,0,0:0:0:0:
320,192,168639,1,0,0:0:0:0:
192,192,168683,1,0,0:0:0:0:
64,192,168726,1,0,0:0:0:0:
448,192,168726,1,0,0:0:0:0:
320,192,168814,1,0,0:0:0:0:
192,192,168901,1,0,0:0:0:0:
64,192,168988,1,0,0:0:0:0:
320,192,169017,1,0,0:0:0:0:
448,192,169075,1,0,0:0:0:0:
320,192,169133,1,0,0:0:0:0:
448,192,169250,1,0,0:0:0:0:
192,192,169250,1,0,0:0:0:0:
64,192,169308,1,0,0:0:0:0:
192,192,169366,1,0,0:0:0:0:
320,192,169402,1,0,0:0:0:0:
448,192,169453,1,0,0:0:0:0:
64,192,169540,1,0,0:0:0:0:
320,192,169555,1,0,0:0:0:0:
448,192,169620,1,0,0:0:0:0:
320,192,169686,1,0,0:0:0:0:
192,192,169715,1,0,0:0:0:0:
64,192,169773,1,0,0:0:0:0:
448,192,169831,1,0,0:0:0:0:
192,192,169860,1,0,0:0:0:0:
64,192,169947,1,0,0:0:0:0:
320,192,169947,1,0,0:0:0:0:
448,192,170034,1,0,0:0:0:0:
192,192,170122,128,0,170296:0:0:0:0:
320,192,170180,1,0,0:0:0:0:
448,192,170209,1,0,0:0:0:0:
64,192,170296,1,0,0:0:0:0:
192,192,170354,1,0,0:0:0:0:
448,192,170412,1,0,0:0:0:0:
320,192,170471,1,0,0:0:0:0:
64,192,170558,1,0,0:0:0:0:
192,192,170645,1,0,0:0:0:0:
448,192,170645,1,0,0:0:0:0:
192,192,170819,1,0,0:0:0:0:
64,192,170819,1,0,0:0:0:0:
192,192,170907,1,0,0:0:0:0:
320,192,170907,1,0,0:0:0:0:
448,192,170965,1,0,0:0:0:0:
320,192,171023,128,0,171168:0:0:0:0:
64,192,171081,1,0,0:0:0:0:
192,192,171168,128,0,171255:0:0:0:0:
448,192,171168,1,0,0:0:0:0:
448,192,171255,1,0,0:0:0:0:
320,192,171343,128,0,171430:0:0:0:0:
64,192,171343,1,0,0:0:0:0:
64,192,171430,1,0,0:0:0:0:
320,192,171517,1,0,0:0:0:0:
192,192,171517,1,0,0:0:0:0:
448,192,171604,1,0,0:0:0:0:
64,192,171691,1,0,0:0:0:0:
192,192,171779,1,0,0:0:0:0:
320,192,171808,1,0,0:0:0:0:
448,192,171866,1,0,0:0:0:0:
320,192,171924,1,0,0:0:0:0:
192,192,171953,1,0,0:0:0:0:
64,192,172040,1,0,0:0:0:0:
448,192,172040,1,0,0:0:0:0:
320,192,172127,1,0,0:0:0:0:
192,192,172157,1,0,0:0:0:0:
64,192,172215,1,0,0:0:0:0:
192,192,172273,1,0,0:0:0:0:
448,192,172331,1,0,0:0:0:0:
320,192,172389,1,0,0:0:0:0:
192,192,172433,1,0,0:0:0:0:
64,192,172491,1,0,0:0:0:0:
192,192,172549,1,0,0:0:0:0:
320,192,172564,128,0,172738:0:0:0:0:
448,192,172651,1,0,0:0:0:0:
64,192,172680,1,0,0:0:0:0:
192,192,172738,1,0,0:0:0:0:
320,192,172825,1,0,0:0:0:0:
64,192,172854,128,0,172919:0:0:0:0:
448,192,172956,1,0,0:0:0:0:
320,192,172956,1,0,0:0:0:0:
64,192,173000,128,0,173065:0:0:0:0:
320,192,173087,1,0,0:0:0:0:
448,192,173145,128,0,173377:0:0:0:0:
64,192,173174,1,0,0:0:0:0:
320,192,173261,1,0,0:0:0:0:
64,192,173319,1,0,0:0:0:0:
192,192,173377,1,0,0:0:0:0:
320,192,173436,1,0,0:0:0:0:
448,192,173436,1,0,0:0:0:0:
448,192,173610,1,0,0:0:0:0:
320,192,173610,1,0,0:0:0:0:
192,192,173697,1,0,0:0:0:0:
320,192,173697,1,0,0:0:0:0:
64,192,173755,1,0,0:0:0:0:
192,192,173814,1,0,0:0:0:0:
448,192,173872,1,0,0:0:0:0:
448,192,173959,1,0,0:0:0:0:
64,192,173959,1,0,0:0:0:0:
64,192,174046,1,0,0:0:0:0:
448,192,174133,128,0,174250:0:0:0:0:
320,192,174133,1,0,0:0:0:0:
192,192,174191,1,0,0:0:0:0:
64,192,174221,1,0,0:0:0:0:
320,192,174264,1,0,0:0:0:0:
448,192,174308,1,0,0:0:0:0:
192,192,174308,1,0,0:0:0:0:
320,192,174395,1,0,0:0:0:0:
64,192,174482,1,0,0:0:0:0:
448,192,174540,1,0,0:0:0:0:
64,192,174598,1,0,0:0:0:0:
320,192,174657,1,0,0:0:0:0:
64,192,174744,1,0,0:0:0:0:
192,192,174802,1,0,0:0:0:0:
320,192,174831,1,0,0:0:0:0:
64,192,174860,1,0,0:0:0:0:
448,192,174918,1,0,0:0:0:0:
192,192,175005,1,0,0:0:0:0:
320,192,175064,1,0,0:0:0:0:
448,192,175122,1,0,0:0:0:0:
320,192,175180,1,0,0:0:0:0:
64,192,175238,1,0,0:0:0:0:
320,192,175311,1,0,0:0:0:0:
192,192,175354,1,0,0:0:0:0:
448,192,175369,1,0,0:0:0:0:
320,192,175427,1,0,0:0:0:0:
192,192,175529,1,0,0:0:0:0:
64,192,175529,128,0,175645:0:0:0:0:
448,192,175587,1,0,0:0:0:0:
320,192,175645,1,0,0:0:0:0:
192,192,175703,1,0,0:0:0:0:
64,192,175703,1,0,0:0:0:0:
448,192,175761,128,0,175877:0:0:0:0:
320,192,175877,1,0,0:0:0:0:
64,192,175936,1,0,0:0:0:0:
192,192,175994,1,0,0:0:0:0:
448,192,176052,1,0,0:0:0:0:
320,192,176226,1,0,0:0:0:0:
64,192,176226,1,0,0:0:0:0:
320,192,176401,1,0,0:0:0:0:
448,192,176401,1,0,0:0:0:0:
192,192,176488,1,0,0:0:0:0:
64,192,176488,1,0,0:0:0:0:
192,192,176662,1,0,0:0:0:0:
64,192,176750,1,0,0:0:0:0:
448,192,176750,1,0,0:0:0:0:
320,192,176837,1,0,0:0:0:0:
64,192,176924,1,0,0:0:0:0:
448,192,176924,1,0,0:0:0:0:
64,192,177098,1,0,0:0:0:0:
320,192,177098,1,0,0:0:0:0:
448,192,177273,5,0,0:0:0:0:
192,192,177360,1,0,0:0:0:0:
320,192,177389,1,0,0:0:0:0:
448,192,177447,1,0,0:0:0:0:
192,192,177505,1,0,0:0:0:0:
320,192,177564,1,0,0:0:0:0:
64,192,177622,1,0,0:0:0:0:
448,192,177622,1,0,0:0:0:0:
192,192,177709,1,0,0:0:0:0:
320,192,177796,1,0,0:0:0:0:
64,192,177883,1,0,0:0:0:0:
192,192,177971,128,0,178029:0:0:0:0:
192,192,178189,5,0,0:0:0:0:
192,192,178407,1,0,0:0:0:0:
192,192,178537,1,0,0:0:0:0:
192,192,178668,128,0,178712:0:0:0:0:
64,192,178668,128,0,178734:0:0:0:0:
192,192,179017,128,0,179061:0:0:0:0:
64,192,179366,128,0,179431:0:0:0:0:
192,192,179715,128,0,179736:0:0:0:0:
64,192,180064,1,0,0:0:0:0:
192,192,180412,128,0,180456:0:0:0:0:
64,192,180761,128,0,180827:0:0:0:0:
192,192,181110,128,0,181132:0:0:0:0:
64,192,181459,128,0,181524:0:0:0:0:
192,192,181808,128,0,181851:0:0:0:0:
64,192,182157,128,0,182222:0:0:0:0:
192,192,182505,128,0,182527:0:0:0:0:
64,192,182854,1,0,0:0:0:0:
192,192,183203,128,0,183247:0:0:0:0:
64,192,183552,128,0,183617:0:0:0:0:
192,192,183901,128,0,183923:0:0:0:0:
448,192,184250,128,0,184315:0:0:0:0:
320,192,184598,128,0,184642:0:0:0:0:
448,192,184947,128,0,185013:0:0:0:0:
320,192,185296,128,0,185318:0:0:0:0:
448,192,185645,1,0,0:0:0:0:
320,192,185994,128,0,186037:0:0:0:0:
448,192,186343,128,0,186408:0:0:0:0:
320,192,186691,128,0,186713:0:0:0:0:
448,192,187040,128,0,187106:0:0:0:0:
320,192,187389,128,0,187433:0:0:0:0:
448,192,187738,128,0,187803:0:0:0:0:
320,192,188087,128,0,188109:0:0:0:0:
448,192,188436,1,0,0:0:0:0:
320,192,188784,128,0,188828:0:0:0:0:
448,192,189133,128,0,189199:0:0:0:0:
320,192,189482,128,0,189504:0:0:0:0:
192,192,189831,128,0,189896:0:0:0:0:
64,192,190180,128,0,190223:0:0:0:0:
192,192,190529,128,0,190594:0:0:0:0:
64,192,190877,128,0,190899:0:0:0:0:
192,192,191226,1,0,0:0:0:0:
64,192,191575,128,0,191619:0:0:0:0:
192,192,191924,128,0,191989:0:0:0:0:
64,192,192273,128,0,192295:0:0:0:0:
192,192,192622,128,0,192687:0:0:0:0:
64,192,192971,128,0,193014:0:0:0:0:
192,192,193319,128,0,193385:0:0:0:0:
64,192,193668,128,0,193690:0:0:0:0:
192,192,194017,1,0,0:0:0:0:
64,192,194366,128,0,194409:0:0:0:0:
192,192,194715,128,0,194780:0:0:0:0:
64,192,195064,128,0,195085:0:0:0:0:
320,192,195412,128,0,195478:0:0:0:0:
448,192,195761,128,0,195805:0:0:0:0:
320,192,196110,128,0,196175:0:0:0:0:
448,192,196459,128,0,196481:0:0:0:0:
320,192,196808,1,0,0:0:0:0:
448,192,197157,128,0,197200:0:0:0:0:
320,192,197505,128,0,197571:0:0:0:0:
448,192,197854,128,0,197876:0:0:0:0:
320,192,198203,128,0,198268:0:0:0:0:
448,192,198552,128,0,198596:0:0:0:0:
320,192,198901,128,0,198966:0:0:0:0:
448,192,199250,128,0,199271:0:0:0:0:
320,192,199598,1,0,0:0:0:0:
64,192,200296,1,0,0:0:0:0:
448,192,200296,1,0,0:0:0:0:
192,192,200993,1,0,0:0:0:0:
320,192,200994,1,0,0:0:0:0:
448,192,201255,1,0,0:0:0:0:
320,192,201342,1,0,0:0:0:0:
448,192,201604,1,0,0:0:0:0:
320,192,201691,1,0,0:0:0:0:
448,192,201952,1,0,0:0:0:0:
320,192,202040,1,0,0:0:0:0:
448,192,202301,128,0,202388:0:0:0:0:
320,192,202388,1,0,0:0:0:0:
448,192,202650,128,0,202737:0:0:0:0:
320,192,202737,1,0,0:0:0:0:
448,192,202999,128,0,203086:0:0:0:0:
320,192,203086,128,0,203173:0:0:0:0:
448,192,203348,128,0,203435:0:0:0:0:
64,192,203348,1,0,0:0:0:0:
320,192,203435,128,0,203522:0:0:0:0:
64,192,203435,1,0,0:0:0:0:
192,192,203609,1,0,0:0:0:0:
448,192,203609,1,0,0:0:0:0:
448,192,203697,1,0,0:0:0:0:
192,192,203784,1,0,0:0:0:0:
64,192,203784,1,0,0:0:0:0:
64,192,204045,1,0,0:0:0:0:
192,192,204133,1,0,0:0:0:0:
64,192,204394,1,0,0:0:0:0:
192,192,204481,1,0,0:0:0:0:
64,192,204743,1,0,0:0:0:0:
192,192,204830,1,0,0:0:0:0:
64,192,205092,128,0,205179:0:0:0:0:
192,192,205179,1,0,0:0:0:0:
64,192,205441,128,0,205528:0:0:0:0:
192,192,205528,1,0,0:0:0:0:
64,192,205790,128,0,205877:0:0:0:0:
192,192,205877,128,0,205964:0:0:0:0:
64,192,206138,128,0,206226:0:0:0:0:
448,192,206138,1,0,0:0:0:0:
192,192,206226,128,0,206313:0:0:0:0:
448,192,206226,1,0,0:0:0:0:
448,192,206400,1,0,0:0:0:0:
64,192,206400,1,0,0:0:0:0:
64,192,206487,1,0,0:0:0:0:
320,192,206574,1,0,0:0:0:0:
448,192,206574,1,0,0:0:0:0:
320,192,206836,1,0,0:0:0:0:
448,192,206923,1,0,0:0:0:0:
320,192,207185,1,0,0:0:0:0:
448,192,207272,1,0,0:0:0:0:
320,192,207534,1,0,0:0:0:0:
448,192,207621,1,0,0:0:0:0:
320,192,207883,128,0,207970:0:0:0:0:
448,192,207970,1,0,0:0:0:0:
320,192,208231,128,0,208319:0:0:0:0:
448,192,208319,1,0,0:0:0:0:
320,192,208580,128,0,208668:0:0:0:0:
448,192,208668,128,0,208755:0:0:0:0:
320,192,208929,128,0,209016:0:0:0:0:
64,192,208929,1,0,0:0:0:0:
448,192,209016,128,0,209104:0:0:0:0:
64,192,209016,1,0,0:0:0:0:
192,192,209191,1,0,0:0:0:0:
448,192,209191,1,0,0:0:0:0:
448,192,209278,1,0,0:0:0:0:
192,192,209365,1,0,0:0:0:0:
64,192,209365,1,0,0:0:0:0:
192,192,209627,1,0,0:0:0:0:
64,192,209714,1,0,0:0:0:0:
192,192,209976,1,0,0:0:0:0:
64,192,210063,1,0,0:0:0:0:
192,192,210324,1,0,0:0:0:0:
64,192,210412,1,0,0:0:0:0:
192,192,210673,128,0,210761:0:0:0:0:
64,192,210761,1,0,0:0:0:0:
192,192,211022,128,0,211109:0:0:0:0:
64,192,211109,1,0,0:0:0:0:
192,192,211371,128,0,211458:0:0:0:0:
64,192,211458,128,0,211545:0:0:0:0:
192,192,211720,128,0,211807:0:0:0:0:
64,192,211807,128,0,211894:0:0:0:0:
192,192,212069,128,0,212156:0:0:0:0:
64,192,212156,128,0,212243:0:0:0:0:
448,192,212156,1,0,0:0:0:0:
448,192,212330,1,0,0:0:0:0:
320,192,212418,1,0,0:0:0:0:
448,192,212505,1,0,0:0:0:0:
64,192,212505,1,0,0:0:0:0:
64,192,212592,1,0,0:0:0:0:
448,192,212679,1,0,0:0:0:0:
320,192,212766,1,0,0:0:0:0:
448,192,212854,1,0,0:0:0:0:
64,192,212854,1,0,0:0:0:0:
448,192,213028,1,0,0:0:0:0:
320,192,213115,1,0,0:0:0:0:
448,192,213202,1,0,0:0:0:0:
64,192,213202,1,0,0:0:0:0:
448,192,213377,1,0,0:0:0:0:
192,192,213377,1,0,0:0:0:0:
192,192,213464,1,0,0:0:0:0:
64,192,213551,1,0,0:0:0:0:
448,192,213551,1,0,0:0:0:0:
64,192,213726,1,0,0:0:0:0:
192,192,213813,1,0,0:0:0:0:
64,192,213900,1,0,0:0:0:0:
448,192,213900,1,0,0:0:0:0:
448,192,213987,1,0,0:0:0:0:
64,192,214074,1,0,0:0:0:0:
192,192,214162,1,0,0:0:0:0:
64,192,214249,1,0,0:0:0:0:
448,192,214249,1,0,0:0:0:0:
64,192,214423,1,0,0:0:0:0:
192,192,214511,1,0,0:0:0:0:
64,192,214598,1,0,0:0:0:0:
448,192,214598,1,0,0:0:0:0:
64,192,214772,1,0,0:0:0:0:
320,192,214772,1,0,0:0:0:0:
320,192,214859,1,0,0:0:0:0:
64,192,214947,1,0,0:0:0:0:
448,192,214947,1,0,0:0:0:0:
448,192,215121,1,0,0:0:0:0:
320,192,215208,1,0,0:0:0:0:
448,192,215295,1,0,0:0:0:0:
192,192,215295,1,0,0:0:0:0:
192,192,215383,1,0,0:0:0:0:
448,192,215470,1,0,0:0:0:0:
320,192,215557,1,0,0:0:0:0:
448,192,215644,1,0,0:0:0:0:
192,192,215644,1,0,0:0:0:0:
448,192,215819,1,0,0:0:0:0:
320,192,215906,1,0,0:0:0:0:
448,192,215993,1,0,0:0:0:0:
192,192,215993,1,0,0:0:0:0:
448,192,216168,1,0,0:0:0:0:
192,192,216168,1,0,0:0:0:0:
192,192,216255,1,0,0:0:0:0:
448,192,216342,1,0,0:0:0:0:
64,192,216342,1,0,0:0:0:0:
64,192,216516,1,0,0:0:0:0:
192,192,216604,1,0,0:0:0:0:
64,192,216691,1,0,0:0:0:0:
320,192,216691,1,0,0:0:0:0:
320,192,216778,1,0,0:0:0:0:
64,192,216865,1,0,0:0:0:0:
192,192,216952,1,0,0:0:0:0:
64,192,217040,1,0,0:0:0:0:
320,192,217040,1,0,0:0:0:0:
64,192,217214,1,0,0:0:0:0:
192,192,217301,1,0,0:0:0:0:
64,192,217388,1,0,0:0:0:0:
320,192,217388,1,0,0:0:0:0:
64,192,217563,1,0,0:0:0:0:
320,192,217563,1,0,0:0:0:0:
320,192,217650,1,0,0:0:0:0:
64,192,217737,1,0,0:0:0:0:
192,192,217737,1,0,0:0:0:0:
192,192,217824,1,0,0:0:0:0:
448,192,217912,1,0,0:0:0:0:
192,192,217999,1,0,0:0:0:0:
64,192,218086,1,0,0:0:0:0:
320,192,218086,1,0,0:0:0:0:
320,192,218173,1,0,0:0:0:0:
64,192,218261,128,0,218304:0:0:0:0:
320,192,218348,128,0,218391:0:0:0:0:
192,192,218435,1,0,0:0:0:0:
448,192,218435,1,0,0:0:0:0:
192,192,218522,1,0,0:0:0:0:
448,192,218609,1,0,0:0:0:0:
192,192,218697,1,0,0:0:0:0:
320,192,218784,1,0,0:0:0:0:
64,192,218784,1,0,0:0:0:0:
320,192,218871,1,0,0:0:0:0:
64,192,218958,128,0,219002:0:0:0:0:
320,192,219045,128,0,219089:0:0:0:0:
448,192,219133,1,0,0:0:0:0:
192,192,219133,1,0,0:0:0:0:
192,192,219220,1,0,0:0:0:0:
448,192,219307,1,0,0:0:0:0:
192,192,219394,1,0,0:0:0:0:
64,192,219481,1,0,0:0:0:0:
320,192,219481,1,0,0:0:0:0:
320,192,219569,1,0,0:0:0:0:
64,192,219656,128,0,219699:0:0:0:0:
320,192,219743,128,0,219787:0:0:0:0:
192,192,219830,1,0,0:0:0:0:
448,192,219830,1,0,0:0:0:0:
192,192,219918,1,0,0:0:0:0:
448,192,220005,1,0,0:0:0:0:
192,192,220092,1,0,0:0:0:0:
320,192,220179,1,0,0:0:0:0:
64,192,220179,1,0,0:0:0:0:
320,192,220266,1,0,0:0:0:0:
64,192,220354,128,0,220397:0:0:0:0:
320,192,220441,128,0,220484:0:0:0:0:
448,192,220528,1,0,0:0:0:0:
192,192,220528,1,0,0:0:0:0:
192,192,220615,1,0,0:0:0:0:
448,192,220702,1,0,0:0:0:0:
192,192,220790,1,0,0:0:0:0:
64,192,220877,1,0,0:0:0:0:
320,192,220877,1,0,0:0:0:0:
320,192,220964,1,0,0:0:0:0:
64,192,221051,128,0,221095:0:0:0:0:
320,192,221138,128,0,221182:0:0:0:0:
192,192,221226,1,0,0:0:0:0:
448,192,221226,1,0,0:0:0:0:
192,192,221313,1,0,0:0:0:0:
448,192,221400,5,0,0:0:0:0:
192,192,221487,1,0,0:0:0:0:
320,192,221574,1,0,0:0:0:0:
64,192,221574,1,0,0:0:0:0:
320,192,221662,1,0,0:0:0:0:
192,192,221749,1,0,0:0:0:0:
64,192,221749,1,0,0:0:0:0:
192,192,221836,1,0,0:0:0:0:
320,192,221923,1,0,0:0:0:0:
64,192,222011,1,0,0:0:0:0:
192,192,222011,1,0,0:0:0:0:
448,192,222098,128,0,222185:0:0:0:0:
192,192,222272,1,0,0:0:0:0:
448,192,222359,128,0,222447:0:0:0:0:
192,192,222534,1,0,0:0:0:0:
448,192,222621,128,0,222708:0:0:0:0:
192,192,222795,1,0,0:0:0:0:
320,192,222883,1,0,0:0:0:0:
448,192,222970,1,0,0:0:0:0:
448,192,223057,1,0,0:0:0:0:
448,192,223144,1,0,0:0:0:0:
320,192,223231,1,0,0:0:0:0:
64,192,223319,1,0,0:0:0:0:
448,192,223377,1,0,0:0:0:0:
320,192,223435,1,0,0:0:0:0:
192,192,223493,1,0,0:0:0:0:
448,192,223537,128,0,223668:0:0:0:0:
64,192,223551,1,0,0:0:0:0:
320,192,223638,1,0,0:0:0:0:
64,192,223668,1,0,0:0:0:0:
192,192,223668,1,0,0:0:0:0:
320,192,223842,1,0,0:0:0:0:
448,192,223842,1,0,0:0:0:0:
192,192,223929,1,0,0:0:0:0:
320,192,223929,1,0,0:0:0:0:
64,192,223987,1,0,0:0:0:0:
192,192,224045,1,0,0:0:0:0:
448,192,224104,1,0,0:0:0:0:
448,192,224191,1,0,0:0:0:0:
64,192,224191,1,0,0:0:0:0:
64,192,224278,1,0,0:0:0:0:
320,192,224365,128,0,224481:0:0:0:0:
448,192,224365,1,0,0:0:0:0:
64,192,224423,1,0,0:0:0:0:
192,192,224452,1,0,0:0:0:0:
448,192,224496,1,0,0:0:0:0:
320,192,224540,1,0,0:0:0:0:
64,192,224540,1,0,0:0:0:0:
192,192,224714,1,0,0:0:0:0:
320,192,224714,1,0,0:0:0:0:
64,192,224801,1,0,0:0:0:0:
448,192,224888,1,0,0:0:0:0:
192,192,224976,1,0,0:0:0:0:
320,192,225063,1,0,0:0:0:0:
448,192,225063,1,0,0:0:0:0:
448,192,225150,1,0,0:0:0:0:
192,192,225150,1,0,0:0:0:0:
320,192,225237,128,0,225586:0:0:0:0:
192,192,225586,1,0,0:0:0:0:
64,192,225586,1,0,0:0:0:0:
192,192,225673,1,0,0:0:0:0:
320,192,225761,1,0,0:0:0:0:
448,192,225761,1,0,0:0:0:0:
192,192,225848,1,0,0:0:0:0:
64,192,225848,1,0,0:0:0:0:
64,192,225935,1,0,0:0:0:0:
320,192,226109,1,0,0:0:0:0:
192,192,226168,1,0,0:0:0:0:
448,192,226226,1,0,0:0:0:0:
64,192,226284,1,0,0:0:0:0:
192,192,226327,1,0,0:0:0:0:
448,192,226371,1,0,0:0:0:0:
320,192,226458,1,0,0:0:0:0:
64,192,226458,1,0,0:0:0:0:
64,192,226633,1,0,0:0:0:0:
192,192,226633,1,0,0:0:0:0:
320,192,226720,1,0,0:0:0:0:
64,192,226720,1,0,0:0:0:0:
448,192,226778,1,0,0:0:0:0:
320,192,226836,1,0,0:0:0:0:
192,192,226894,1,0,0:0:0:0:
64,192,226981,1,0,0:0:0:0:
320,192,226981,128,0,227069:0:0:0:0:
64,192,227069,1,0,0:0:0:0:
192,192,227156,128,0,227243:0:0:0:0:
448,192,227156,1,0,0:0:0:0:
448,192,227243,1,0,0:0:0:0:
192,192,227330,1,0,0:0:0:0:
64,192,227330,1,0,0:0:0:0:
320,192,227388,1,0,0:0:0:0:
448,192,227447,1,0,0:0:0:0:
64,192,227505,1,0,0:0:0:0:
192,192,227534,1,0,0:0:0:0:
448,192,227563,1,0,0:0:0:0:
320,192,227621,1,0,0:0:0:0:
192,192,227679,1,0,0:0:0:0:
448,192,227737,1,0,0:0:0:0:
64,192,227766,1,0,0:0:0:0:
320,192,227854,1,0,0:0:0:0:
192,192,227854,1,0,0:0:0:0:
448,192,227897,1,0,0:0:0:0:
64,192,227970,1,0,0:0:0:0:
320,192,228028,128,0,228202:0:0:0:0:
448,192,228086,1,0,0:0:0:0:
192,192,228115,1,0,0:0:0:0:
64,192,228115,1,0,0:0:0:0:
320,192,228377,1,0,0:0:0:0:
448,192,228377,1,0,0:0:0:0:
320,192,228464,1,0,0:0:0:0:
192,192,228551,1,0,0:0:0:0:
64,192,228551,1,0,0:0:0:0:
320,192,228638,1,0,0:0:0:0:
448,192,228638,1,0,0:0:0:0:
448,192,228726,1,0,0:0:0:0:
192,192,228784,1,0,0:0:0:0:
64,192,228813,1,0,0:0:0:0:
448,192,228900,1,0,0:0:0:0:
320,192,228958,1,0,0:0:0:0:
64,192,229016,1,0,0:0:0:0:
192,192,229074,1,0,0:0:0:0:
448,192,229162,1,0,0:0:0:0:
320,192,229191,1,0,0:0:0:0:
192,192,229249,1,0,0:0:0:0:
64,192,229249,1,0,0:0:0:0:
320,192,229423,1,0,0:0:0:0:
448,192,229423,1,0,0:0:0:0:
192,192,229511,1,0,0:0:0:0:
320,192,229511,1,0,0:0:0:0:
64,192,229569,1,0,0:0:0:0:
192,192,229627,1,0,0:0:0:0:
448,192,229656,1,0,0:0:0:0:
64,192,229772,128,0,229859:0:0:0:0:
320,192,229772,1,0,0:0:0:0:
320,192,229859,1,0,0:0:0:0:
448,192,229947,128,0,230034:0:0:0:0:
192,192,229947,1,0,0:0:0:0:
192,192,230034,1,0,0:0:0:0:
64,192,230121,1,0,0:0:0:0:
320,192,230121,1,0,0:0:0:0:
448,192,230179,1,0,0:0:0:0:
192,192,230237,1,0,0:0:0:0:
320,192,230295,1,0,0:0:0:0:
448,192,230383,1,0,0:0:0:0:
64,192,230470,1,0,0:0:0:0:
448,192,230557,1,0,0:0:0:0:
320,192,230557,1,0,0:0:0:0:
192,192,230644,1,0,0:0:0:0:
64,192,230644,1,0,0:0:0:0:
64,192,230731,1,0,0:0:0:0:
320,192,230731,1,0,0:0:0:0:
448,192,230790,1,0,0:0:0:0:
320,192,230848,1,0,0:0:0:0:
192,192,230906,1,0,0:0:0:0:
64,192,230906,1,0,0:0:0:0:
448,192,230964,1,0,0:0:0:0:
64,192,231022,1,0,0:0:0:0:
192,192,231080,1,0,0:0:0:0:
320,192,231080,1,0,0:0:0:0:
448,192,231124,1,0,0:0:0:0:
320,192,231197,1,0,0:0:0:0:
192,192,231255,1,0,0:0:0:0:
64,192,231342,128,0,231458:0:0:0:0:
448,192,231342,1,0,0:0:0:0:
192,192,231400,1,0,0:0:0:0:
320,192,231429,1,0,0:0:0:0:
448,192,231473,1,0,0:0:0:0:
64,192,231516,1,0,0:0:0:0:
192,192,231516,1,0,0:0:0:0:
320,192,231691,1,0,0:0:0:0:
192,192,231749,1,0,0:0:0:0:
64,192,231807,1,0,0:0:0:0:
448,192,231865,1,0,0:0:0:0:
192,192,231909,1,0,0:0:0:0:
320,192,231952,1,0,0:0:0:0:
448,192,232040,1,0,0:0:0:0:
64,192,232040,1,0,0:0:0:0:
192,192,232214,1,0,0:0:0:0:
64,192,232214,1,0,0:0:0:0:
320,192,232301,1,0,0:0:0:0:
192,192,232301,1,0,0:0:0:0:
448,192,232359,1,0,0:0:0:0:
320,192,232418,1,0,0:0:0:0:
192,192,232476,1,0,0:0:0:0:
64,192,232563,128,0,232650:0:0:0:0:
448,192,232563,1,0,0:0:0:0:
448,192,232650,1,0,0:0:0:0:
320,192,232737,128,0,232824:0:0:0:0:
192,192,232737,1,0,0:0:0:0:
192,192,232824,1,0,0:0:0:0:
320,192,232912,1,0,0:0:0:0:
448,192,232912,1,0,0:0:0:0:
64,192,232970,1,0,0:0:0:0:
192,192,233028,1,0,0:0:0:0:
448,192,233086,1,0,0:0:0:0:
64,192,233173,1,0,0:0:0:0:
192,192,233217,1,0,0:0:0:0:
320,192,233261,1,0,0:0:0:0:
448,192,233304,1,0,0:0:0:0:
192,192,233377,1,0,0:0:0:0:
320,192,233435,1,0,0:0:0:0:
448,192,233435,1,0,0:0:0:0:
192,192,233493,1,0,0:0:0:0:
64,192,233551,1,0,0:0:0:0:
320,192,233609,1,0,0:0:0:0:
192,192,233653,1,0,0:0:0:0:
448,192,233697,1,0,0:0:0:0:
64,192,233697,1,0,0:0:0:0:
320,192,233784,1,0,0:0:0:0:
192,192,233842,1,0,0:0:0:0:
64,192,233900,1,0,0:0:0:0:
448,192,233958,1,0,0:0:0:0:
192,192,234016,1,0,0:0:0:0:
320,192,234133,1,0,0:0:0:0:
448,192,234133,1,0,0:0:0:0:
320,192,234220,1,0,0:0:0:0:
192,192,234220,1,0,0:0:0:0:
64,192,234278,128,0,234394:0:0:0:0:
192,192,234336,1,0,0:0:0:0:
320,192,234351,1,0,0:0:0:0:
448,192,234394,1,0,0:0:0:0:
64,192,234481,1,0,0:0:0:0:
192,192,234540,1,0,0:0:0:0:
320,192,234598,1,0,0:0:0:0:
64,192,234656,1,0,0:0:0:0:
448,192,234699,128,0,234830:0:0:0:0:
192,192,234714,1,0,0:0:0:0:
320,192,234801,1,0,0:0:0:0:
192,192,234830,1,0,0:0:0:0:
64,192,234830,1,0,0:0:0:0:
320,192,235005,1,0,0:0:0:0:
448,192,235005,1,0,0:0:0:0:
192,192,235092,1,0,0:0:0:0:
320,192,235092,1,0,0:0:0:0:
64,192,235150,1,0,0:0:0:0:
192,192,235208,1,0,0:0:0:0:
448,192,235266,1,0,0:0:0:0:
448,192,235354,1,0,0:0:0:0:
64,192,235354,1,0,0:0:0:0:
64,192,235441,1,0,0:0:0:0:
320,192,235528,1,0,0:0:0:0:
448,192,235528,128,0,235644:0:0:0:0:
64,192,235586,1,0,0:0:0:0:
192,192,235615,1,0,0:0:0:0:
320,192,235659,1,0,0:0:0:0:
64,192,235702,1,0,0:0:0:0:
448,192,235702,1,0,0:0:0:0:
192,192,235877,1,0,0:0:0:0:
448,192,235877,1,0,0:0:0:0:
64,192,235964,1,0,0:0:0:0:
320,192,236051,1,0,0:0:0:0:
192,192,236138,1,0,0:0:0:0:
64,192,236226,1,0,0:0:0:0:
448,192,236226,1,0,0:0:0:0:
320,192,236313,1,0,0:0:0:0:
64,192,236313,1,0,0:0:0:0:
192,192,236400,128,0,236749:0:0:0:0:
320,192,236749,1,0,0:0:0:0:
448,192,236749,1,0,0:0:0:0:
320,192,236836,1,0,0:0:0:0:
64,192,236923,1,0,0:0:0:0:
192,192,236923,1,0,0:0:0:0:
320,192,237011,1,0,0:0:0:0:
448,192,237011,1,0,0:0:0:0:
448,192,237098,1,0,0:0:0:0:
192,192,237272,1,0,0:0:0:0:
320,192,237330,1,0,0:0:0:0:
448,192,237388,1,0,0:0:0:0:
64,192,237447,1,0,0:0:0:0:
192,192,237490,1,0,0:0:0:0:
448,192,237534,1,0,0:0:0:0:
320,192,237621,1,0,0:0:0:0:
64,192,237621,1,0,0:0:0:0:
320,192,237795,1,0,0:0:0:0:
448,192,237795,1,0,0:0:0:0:
192,192,237883,1,0,0:0:0:0:
320,192,237883,1,0,0:0:0:0:
64,192,237941,1,0,0:0:0:0:
192,192,237999,1,0,0:0:0:0:
320,192,238028,1,0,0:0:0:0:
448,192,238144,128,0,238231:0:0:0:0:
64,192,238144,1,0,0:0:0:0:
64,192,238231,1,0,0:0:0:0:
192,192,238319,128,0,238406:0:0:0:0:
320,192,238319,1,0,0:0:0:0:
320,192,238406,1,0,0:0:0:0:
64,192,238493,1,0,0:0:0:0:
448,192,238493,1,0,0:0:0:0:
320,192,238551,1,0,0:0:0:0:
192,192,238609,1,0,0:0:0:0:
64,192,238668,1,0,0:0:0:0:
448,192,238697,1,0,0:0:0:0:
320,192,238726,1,0,0:0:0:0:
192,192,238784,1,0,0:0:0:0:
64,192,238842,1,0,0:0:0:0:
448,192,238900,1,0,0:0:0:0:
320,192,238929,1,0,0:0:0:0:
64,192,239016,1,0,0:0:0:0:
192,192,239016,1,0,0:0:0:0:
320,192,239060,1,0,0:0:0:0:
448,192,239133,1,0,0:0:0:0:
64,192,239191,128,0,239365:0:0:0:0:
192,192,239249,1,0,0:0:0:0:
320,192,239278,1,0,0:0:0:0:
448,192,239278,1,0,0:0:0:0:
64,192,239540,1,0,0:0:0:0:
192,192,239540,1,0,0:0:0:0:
64,192,239627,1,0,0:0:0:0:
320,192,239714,1,0,0:0:0:0:
448,192,239714,1,0,0:0:0:0:
192,192,239801,1,0,0:0:0:0:
64,192,239801,1,0,0:0:0:0:
192,192,239888,1,0,0:0:0:0:
320,192,239947,1,0,0:0:0:0:
448,192,239976,1,0,0:0:0:0:
64,192,240005,1,0,0:0:0:0:
192,192,240063,1,0,0:0:0:0:
320,192,240121,1,0,0:0:0:0:
448,192,240179,1,0,0:0:0:0:
64,192,240237,1,0,0:0:0:0:
320,192,240324,1,0,0:0:0:0:
448,192,240412,1,0,0:0:0:0:
192,192,240412,128,0,240528:0:0:0:0:
320,192,240470,1,0,0:0:0:0:
448,192,240586,1,0,0:0:0:0:
64,192,240586,1,0,0:0:0:0:
192,192,240673,1,0,0:0:0:0:
64,192,240673,1,0,0:0:0:0:
320,192,240731,1,0,0:0:0:0:
192,192,240790,1,0,0:0:0:0:
64,192,240848,1,0,0:0:0:0:
448,192,240848,1,0,0:0:0:0:
320,192,240935,1,0,0:0:0:0:
64,192,241022,1,0,0:0:0:0:
192,192,241109,128,0,241226:0:0:0:0:
448,192,241109,1,0,0:0:0:0:
320,192,241153,1,0,0:0:0:0:
64,192,241197,1,0,0:0:0:0:
448,192,241255,1,0,0:0:0:0:
192,192,241313,1,0,0:0:0:0:
320,192,241342,1,0,0:0:0:0:
64,192,241400,1,0,0:0:0:0:
192,192,241458,1,0,0:0:0:0:
448,192,241545,1,0,0:0:0:0:
320,192,241545,1,0,0:0:0:0:
192,192,241633,1,0,0:0:0:0:
448,192,241720,1,0,0:0:0:0:
192,192,241807,128,0,241923:0:0:0:0:
64,192,241807,1,0,0:0:0:0:
320,192,241865,1,0,0:0:0:0:
64,192,241981,1,0,0:0:0:0:
448,192,241981,1,0,0:0:0:0:
448,192,242069,1,0,0:0:0:0:
320,192,242069,1,0,0:0:0:0:
192,192,242127,1,0,0:0:0:0:
320,192,242185,1,0,0:0:0:0:
448,192,242243,1,0,0:0:0:0:
64,192,242243,1,0,0:0:0:0:
192,192,242330,1,0,0:0:0:0:
320,192,242418,1,0,0:0:0:0:
448,192,242505,1,0,0:0:0:0:
192,192,242505,128,0,242621:0:0:0:0:
320,192,242563,1,0,0:0:0:0:
64,192,242679,1,0,0:0:0:0:
448,192,242679,1,0,0:0:0:0:
192,192,242766,1,0,0:0:0:0:
64,192,242766,1,0,0:0:0:0:
448,192,242795,1,0,0:0:0:0:
192,192,242912,1,0,0:0:0:0:
64,192,242941,1,0,0:0:0:0:
320,192,242941,1,0,0:0:0:0:
448,192,243028,128,0,243115:0:0:0:0:
192,192,243115,1,0,0:0:0:0:
320,192,243202,1,0,0:0:0:0:
448,192,243202,1,0,0:0:0:0:
192,192,243290,1,0,0:0:0:0:
64,192,243290,1,0,0:0:0:0:
320,192,243377,1,0,0:0:0:0:
448,192,243377,1,0,0:0:0:0:
448,192,243464,1,0,0:0:0:0:
64,192,243464,1,0,0:0:0:0:
192,192,243522,1,0,0:0:0:0:
320,192,243580,1,0,0:0:0:0:
64,192,243638,1,0,0:0:0:0:
448,192,243638,1,0,0:0:0:0:
192,192,243726,1,0,0:0:0:0:
64,192,243726,128,0,243813:0:0:0:0:
320,192,243813,1,0,0:0:0:0:
192,192,243900,1,0,0:0:0:0:
64,192,243900,1,0,0:0:0:0:
320,192,243987,1,0,0:0:0:0:
448,192,243987,1,0,0:0:0:0:
192,192,244074,1,0,0:0:0:0:
64,192,244074,1,0,0:0:0:0:
320,192,244162,1,0,0:0:0:0:
448,192,244162,1,0,0:0:0:0:
192,192,244191,1,0,0:0:0:0:
64,192,244336,1,0,0:0:0:0:
448,192,244423,1,0,0:0:0:0:
320,192,244511,1,0,0:0:0:0:
64,192,244511,1,0,0:0:0:0:
448,192,244598,1,0,0:0:0:0:
320,192,244685,1,0,0:0:0:0:
192,192,244685,128,0,244859:0:0:0:0:
64,192,244859,1,0,0:0:0:0:
448,192,244859,1,0,0:0:0:0:
192,192,244947,1,0,0:0:0:0:
448,192,244947,1,0,0:0:0:0:
320,192,245121,128,0,245412:0:0:0:0:
64,192,245121,128,0,245470:0:0:0:0:
448,192,245426,1,0,0:0:0:0:
320,192,245470,1,0,0:0:0:0:
192,192,245513,1,0,0:0:0:0:
64,192,245557,1,0,0:0:0:0:
448,192,245586,1,0,0:0:0:0:
192,192,245644,1,0,0:0:0:0:
320,192,245702,1,0,0:0:0:0:
64,192,245761,1,0,0:0:0:0:
448,192,245819,1,0,0:0:0:0:
192,192,245862,128,0,245993:0:0:0:0:
320,192,245877,1,0,0:0:0:0:
64,192,245964,1,0,0:0:0:0:
320,192,245993,1,0,0:0:0:0:
448,192,245993,1,0,0:0:0:0:
448,192,246168,1,0,0:0:0:0:
320,192,246168,1,0,0:0:0:0:
192,192,246255,1,0,0:0:0:0:
448,192,246255,1,0,0:0:0:0:
64,192,246313,1,0,0:0:0:0:
192,192,246371,1,0,0:0:0:0:
320,192,246429,1,0,0:0:0:0:
320,192,246516,1,0,0:0:0:0:
64,192,246516,1,0,0:0:0:0:
64,192,246604,1,0,0:0:0:0:
192,192,246691,1,0,0:0:0:0:
320,192,246691,1,0,0:0:0:0:
448,192,246778,1,0,0:0:0:0:
64,192,246778,1,0,0:0:0:0:
192,192,246822,1,0,0:0:0:0:
448,192,246865,1,0,0:0:0:0:
320,192,246865,1,0,0:0:0:0:
64,192,246952,1,0,0:0:0:0:
448,192,247040,1,0,0:0:0:0:
192,192,247127,1,0,0:0:0:0:
320,192,247156,1,0,0:0:0:0:
448,192,247214,1,0,0:0:0:0:
320,192,247272,1,0,0:0:0:0:
448,192,247388,1,0,0:0:0:0:
192,192,247388,1,0,0:0:0:0:
64,192,247447,1,0,0:0:0:0:
192,192,247505,1,0,0:0:0:0:
320,192,247563,1,0,0:0:0:0:
448,192,247592,1,0,0:0:0:0:
64,192,247679,1,0,0:0:0:0:
320,192,247694,1,0,0:0:0:0:
448,192,247759,1,0,0:0:0:0:
320,192,247824,1,0,0:0:0:0:
192,192,247854,1,0,0:0:0:0:
64,192,247912,1,0,0:0:0:0:
448,192,247970,1,0,0:0:0:0:
192,192,247999,1,0,0:0:0:0:
448,192,248086,1,0,0:0:0:0:
320,192,248086,1,0,0:0:0:0:
192,192,248173,1,0,0:0:0:0:
320,192,248261,128,0,248435:0:0:0:0:
64,192,248304,1,0,0:0:0:0:
192,192,248348,1,0,0:0:0:0:
448,192,248435,1,0,0:0:0:0:
192,192,248493,1,0,0:0:0:0:
64,192,248551,1,0,0:0:0:0:
320,192,248609,1,0,0:0:0:0:
448,192,248653,1,0,0:0:0:0:
64,192,248697,1,0,0:0:0:0:
192,192,248784,1,0,0:0:0:0:
320,192,248784,1,0,0:0:0:0:
192,192,248958,1,0,0:0:0:0:
64,192,248958,1,0,0:0:0:0:
192,192,249045,1,0,0:0:0:0:
320,192,249045,1,0,0:0:0:0:
448,192,249104,1,0,0:0:0:0:
320,192,249162,128,0,249307:0:0:0:0:
64,192,249220,1,0,0:0:0:0:
192,192,249307,128,0,249394:0:0:0:0:
448,192,249307,1,0,0:0:0:0:
448,192,249394,1,0,0:0:0:0:
320,192,249481,128,0,249569:0:0:0:0:
64,192,249481,1,0,0:0:0:0:
64,192,249569,1,0,0:0:0:0:
320,192,249656,1,0,0:0:0:0:
448,192,249656,1,0,0:0:0:0:
192,192,249714,1,0,0:0:0:0:
64,192,249772,1,0,0:0:0:0:
448,192,249830,1,0,0:0:0:0:
320,192,249918,1,0,0:0:0:0:
448,192,249918,1,0,0:0:0:0:
192,192,249976,1,0,0:0:0:0:
320,192,250034,1,0,0:0:0:0:
64,192,250092,1,0,0:0:0:0:
448,192,250179,1,0,0:0:0:0:
64,192,250179,1,0,0:0:0:0:
192,192,250295,1,0,0:0:0:0:
320,192,250354,1,0,0:0:0:0:
192,192,250412,1,0,0:0:0:0:
448,192,250441,1,0,0:0:0:0:
448,192,250528,1,0,0:0:0:0:
320,192,250528,1,0,0:0:0:0:
192,192,250586,1,0,0:0:0:0:
320,192,250644,1,0,0:0:0:0:
64,192,250702,1,0,0:0:0:0:
192,192,250761,1,0,0:0:0:0:
448,192,250790,128,0,250920:0:0:0:0:
320,192,250906,1,0,0:0:0:0:
64,192,250935,128,0,251168:0:0:0:0:
192,192,250964,1,0,0:0:0:0:
448,192,251095,1,0,0:0:0:0:
192,192,251095,1,0,0:0:0:0:
192,192,251226,1,0,0:0:0:0:
448,192,251284,1,0,0:0:0:0:
320,192,251342,1,0,0:0:0:0:
64,192,251400,1,0,0:0:0:0:
448,192,251444,1,0,0:0:0:0:
192,192,251487,1,0,0:0:0:0:
320,192,251574,1,0,0:0:0:0:
64,192,251574,1,0,0:0:0:0:
64,192,251749,1,0,0:0:0:0:
192,192,251749,1,0,0:0:0:0:
320,192,251836,1,0,0:0:0:0:
64,192,251836,1,0,0:0:0:0:
448,192,251894,1,0,0:0:0:0:
320,192,251952,1,0,0:0:0:0:
64,192,252011,1,0,0:0:0:0:
64,192,252098,1,0,0:0:0:0:
448,192,252098,1,0,0:0:0:0:
448,192,252185,1,0,0:0:0:0:
320,192,252272,1,0,0:0:0:0:
64,192,252272,128,0,252388:0:0:0:0:
192,192,252330,1,0,0:0:0:0:
448,192,252359,1,0,0:0:0:0:
320,192,252403,1,0,0:0:0:0:
64,192,252447,1,0,0:0:0:0:
192,192,252447,1,0,0:0:0:0:
448,192,252534,1,0,0:0:0:0:
192,192,252621,1,0,0:0:0:0:
64,192,252679,1,0,0:0:0:0:
192,192,252737,1,0,0:0:0:0:
320,192,252795,1,0,0:0:0:0:
192,192,252883,1,0,0:0:0:0:
448,192,252941,1,0,0:0:0:0:
64,192,252970,1,0,0:0:0:0:
192,192,252999,1,0,0:0:0:0:
320,192,253057,1,0,0:0:0:0:
64,192,253144,1,0,0:0:0:0:
320,192,253202,1,0,0:0:0:0:
448,192,253261,1,0,0:0:0:0:
320,192,253319,1,0,0:0:0:0:
64,192,253406,1,0,0:0:0:0:
320,192,253493,1,0,0:0:0:0:
192,192,253493,1,0,0:0:0:0:
448,192,253580,1,0,0:0:0:0:
320,192,253668,128,0,253784:0:0:0:0:
64,192,253668,1,0,0:0:0:0:
192,192,253726,1,0,0:0:0:0:
448,192,253784,1,0,0:0:0:0:
320,192,253842,1,0,0:0:0:0:
64,192,253842,1,0,0:0:0:0:
192,192,253886,128,0,254016:0:0:0:0:
448,192,254016,1,0,0:0:0:0:
320,192,254074,1,0,0:0:0:0:
64,192,254133,1,0,0:0:0:0:
192,192,254191,1,0,0:0:0:0:
448,192,254234,1,0,0:0:0:0:
320,192,254278,1,0,0:0:0:0:
192,192,254365,1,0,0:0:0:0:
448,192,254365,1,0,0:0:0:0:
320,192,254540,1,0,0:0:0:0:
448,192,254540,1,0,0:0:0:0:
448,192,254627,1,0,0:0:0:0:
192,192,254627,1,0,0:0:0:0:
64,192,254685,1,0,0:0:0:0:
192,192,254743,128,0,254888:0:0:0:0:
448,192,254801,1,0,0:0:0:0:
448,192,254888,1,0,0:0:0:0:
64,192,254888,1,0,0:0:0:0:
64,192,254976,1,0,0:0:0:0:
320,192,255005,1,0,0:0:0:0:
448,192,255063,1,0,0:0:0:0:
192,192,255063,1,0,0:0:0:0:
64,192,255150,1,0,0:0:0:0:
320,192,255179,1,0,0:0:0:0:
448,192,255237,1,0,0:0:0:0:
192,192,255237,128,0,255354:0:0:0:0:
64,192,255295,1,0,0:0:0:0:
320,192,255354,1,0,0:0:0:0:
448,192,255412,128,0,255557:0:0:0:0:
64,192,255470,1,0,0:0:0:0:
192,192,255528,1,0,0:0:0:0:
320,192,255586,1,0,0:0:0:0:
448,192,255615,1,0,0:0:0:0:
64,192,255644,1,0,0:0:0:0:
192,192,255702,1,0,0:0:0:0:
320,192,255717,1,0,0:0:0:0:
448,192,255761,1,0,0:0:0:0:
64,192,255761,128,0,256197:0:0:0:0:
192,192,256022,1,0,0:0:0:0:
320,192,256022,1,0,0:0:0:0:
448,192,256109,1,0,0:0:0:0:
320,192,256197,1,0,0:0:0:0:
192,192,256284,1,0,0:0:0:0:
64,192,256284,1,0,0:0:0:0:
320,192,256371,1,0,0:0:0:0:
64,192,256458,1,0,0:0:0:0:
192,192,256480,1,0,0:0:0:0:
448,192,256487,1,0,0:0:0:0:
64,192,256574,1,0,0:0:0:0:
320,192,256589,1,0,0:0:0:0:
448,192,256604,1,0,0:0:0:0:
64,192,256691,1,0,0:0:0:0:
192,192,256713,1,0,0:0:0:0:
448,192,256720,1,0,0:0:0:0:
320,192,256807,1,0,0:0:0:0:
192,192,256865,1,0,0:0:0:0:
448,192,256923,1,0,0:0:0:0:
64,192,256981,1,0,0:0:0:0:
192,192,257025,128,0,257156:0:0:0:0:
320,192,257040,1,0,0:0:0:0:
64,192,257127,1,0,0:0:0:0:
448,192,257156,1,0,0:0:0:0:
320,192,257156,1,0,0:0:0:0:
320,192,257330,1,0,0:0:0:0:
448,192,257330,1,0,0:0:0:0:
320,192,257418,1,0,0:0:0:0:
192,192,257418,1,0,0:0:0:0:
64,192,257476,1,0,0:0:0:0:
192,192,257534,1,0,0:0:0:0:
320,192,257592,1,0,0:0:0:0:
320,192,257679,1,0,0:0:0:0:
64,192,257679,1,0,0:0:0:0:
64,192,257766,1,0,0:0:0:0:
448,192,257854,128,0,257970:0:0:0:0:
320,192,257854,1,0,0:0:0:0:
192,192,257912,1,0,0:0:0:0:
64,192,257941,1,0,0:0:0:0:
320,192,257984,1,0,0:0:0:0:
448,192,258028,1,0,0:0:0:0:
192,192,258028,1,0,0:0:0:0:
64,192,258144,1,0,0:0:0:0:
320,192,258202,1,0,0:0:0:0:
448,192,258290,1,0,0:0:0:0:
192,192,258319,1,0,0:0:0:0:
64,192,258377,1,0,0:0:0:0:
192,192,258435,1,0,0:0:0:0:
64,192,258551,1,0,0:0:0:0:
320,192,258551,1,0,0:0:0:0:
448,192,258609,1,0,0:0:0:0:
320,192,258668,1,0,0:0:0:0:
64,192,258726,1,0,0:0:0:0:
448,192,258755,1,0,0:0:0:0:
320,192,258842,1,0,0:0:0:0:
192,192,258856,1,0,0:0:0:0:
64,192,258922,1,0,0:0:0:0:
192,192,258987,1,0,0:0:0:0:
320,192,259016,1,0,0:0:0:0:
448,192,259074,1,0,0:0:0:0:
64,192,259133,1,0,0:0:0:0:
320,192,259162,1,0,0:0:0:0:
64,192,259249,1,0,0:0:0:0:
192,192,259249,1,0,0:0:0:0:
320,192,259336,1,0,0:0:0:0:
192,192,259423,128,0,259598:0:0:0:0:
448,192,259467,1,0,0:0:0:0:
64,192,259511,1,0,0:0:0:0:
320,192,259598,1,0,0:0:0:0:
448,192,259656,1,0,0:0:0:0:
192,192,259714,1,0,0:0:0:0:
320,192,259772,1,0,0:0:0:0:
64,192,259816,1,0,0:0:0:0:
192,192,259859,1,0,0:0:0:0:
448,192,259947,1,0,0:0:0:0:
320,192,259947,1,0,0:0:0:0:
192,192,260121,1,0,0:0:0:0:
64,192,260121,1,0,0:0:0:0:
320,192,260208,1,0,0:0:0:0:
64,192,260208,1,0,0:0:0:0:
448,192,260266,1,0,0:0:0:0:
320,192,260324,128,0,260470:0:0:0:0:
64,192,260470,1,0,0:0:0:0:
448,192,260470,128,0,260557:0:0:0:0:
64,192,260557,1,0,0:0:0:0:
192,192,260644,128,0,260731:0:0:0:0:
320,192,260644,1,0,0:0:0:0:
320,192,260731,1,0,0:0:0:0:
64,192,260819,1,0,0:0:0:0:
448,192,260819,1,0,0:0:0:0:
320,192,260906,1,0,0:0:0:0:
64,192,260993,1,0,0:0:0:0:
192,192,261080,1,0,0:0:0:0:
320,192,261109,1,0,0:0:0:0:
448,192,261168,1,0,0:0:0:0:
320,192,261226,1,0,0:0:0:0:
192,192,261255,1,0,0:0:0:0:
64,192,261342,1,0,0:0:0:0:
448,192,261342,1,0,0:0:0:0:
320,192,261429,1,0,0:0:0:0:
192,192,261458,1,0,0:0:0:0:
64,192,261516,1,0,0:0:0:0:
192,192,261574,1,0,0:0:0:0:
448,192,261633,1,0,0:0:0:0:
64,192,261691,1,0,0:0:0:0:
320,192,261720,1,0,0:0:0:0:
448,192,261778,1,0,0:0:0:0:
320,192,261836,1,0,0:0:0:0:
192,192,261865,1,0,0:0:0:0:
64,192,261909,128,0,262040:0:0:0:0:
448,192,261952,1,0,0:0:0:0:
320,192,262040,128,0,262345:0:0:0:0:
192,192,262040,1,0,0:0:0:0:
448,192,262127,1,0,0:0:0:0:
448,192,262258,1,0,0:0:0:0:
64,192,262258,1,0,0:0:0:0:
448,192,262388,1,0,0:0:0:0:
192,192,262447,1,0,0:0:0:0:
320,192,262505,1,0,0:0:0:0:
64,192,262563,1,0,0:0:0:0:
192,192,262606,1,0,0:0:0:0:
448,192,262650,1,0,0:0:0:0:
320,192,262737,1,0,0:0:0:0:
64,192,262737,1,0,0:0:0:0:
320,192,262912,1,0,0:0:0:0:
448,192,262912,1,0,0:0:0:0:
320,192,262999,1,0,0:0:0:0:
192,192,262999,1,0,0:0:0:0:
64,192,263057,1,0,0:0:0:0:
192,192,263115,1,0,0:0:0:0:
320,192,263173,1,0,0:0:0:0:
320,192,263261,1,0,0:0:0:0:
64,192,263261,1,0,0:0:0:0:
64,192,263348,1,0,0:0:0:0:
192,192,263435,1,0,0:0:0:0:
320,192,263435,128,0,263551:0:0:0:0:
448,192,263493,1,0,0:0:0:0:
64,192,263522,1,0,0:0:0:0:
192,192,263566,1,0,0:0:0:0:
448,192,263609,1,0,0:0:0:0:
320,192,263609,1,0,0:0:0:0:
64,192,263697,1,0,0:0:0:0:
320,192,263784,1,0,0:0:0:0:
448,192,263842,1,0,0:0:0:0:
320,192,263900,1,0,0:0:0:0:
192,192,263958,1,0,0:0:0:0:
320,192,264045,1,0,0:0:0:0:
64,192,264104,1,0,0:0:0:0:
448,192,264133,1,0,0:0:0:0:
320,192,264162,1,0,0:0:0:0:
192,192,264220,1,0,0:0:0:0:
448,192,264307,1,0,0:0:0:0:
192,192,264365,1,0,0:0:0:0:
64,192,264423,1,0,0:0:0:0:
192,192,264481,1,0,0:0:0:0:
448,192,264569,1,0,0:0:0:0:
320,192,264656,1,0,0:0:0:0:
192,192,264656,1,0,0:0:0:0:
64,192,264714,1,0,0:0:0:0:
448,192,264743,1,0,0:0:0:0:
320,192,264772,1,0,0:0:0:0:
192,192,264830,1,0,0:0:0:0:
64,192,264830,1,0,0:0:0:0:
448,192,264961,1,0,0:0:0:0:
320,192,265005,128,0,265179:0:0:0:0:
192,192,265179,1,0,0:0:0:0:
64,192,265237,1,0,0:0:0:0:
320,192,265295,1,0,0:0:0:0:
192,192,265354,1,0,0:0:0:0:
448,192,265397,1,0,0:0:0:0:
64,192,265441,1,0,0:0:0:0:
320,192,265528,128,0,265586:0:0:0:0:
448,192,265528,128,0,265557:0:0:0:0:
192,192,265702,1,0,0:0:0:0:
64,192,265702,1,0,0:0:0:0:
64,192,265790,1,0,0:0:0:0:
320,192,265790,1,0,0:0:0:0:
192,192,265877,128,0,266051:0:0:0:0:
448,192,265964,1,0,0:0:0:0:
448,192,266051,1,0,0:0:0:0:
64,192,266051,1,0,0:0:0:0:
64,192,266138,1,0,0:0:0:0:
320,192,266226,1,0,0:0:0:0:
448,192,266226,1,0,0:0:0:0:
192,192,266400,1,0,0:0:0:0:
64,192,266400,1,0,0:0:0:0:
320,192,266574,1,0,0:0:0:0:
448,192,266662,1,0,0:0:0:0:
64,192,266691,1,0,0:0:0:0:
192,192,266705,1,0,0:0:0:0:
320,192,266749,1,0,0:0:0:0:
448,192,266807,1,0,0:0:0:0:
64,192,266865,1,0,0:0:0:0:
192,192,266880,1,0,0:0:0:0:
320,192,266923,1,0,0:0:0:0:
448,192,266923,1,0,0:0:0:0:
64,192,267011,1,0,0:0:0:0:
64,192,267098,1,0,0:0:0:0:
64,192,267185,1,0,0:0:0:0:
320,192,267272,1,0,0:0:0:0:
448,192,267316,1,0,0:0:0:0:
64,192,267330,1,0,0:0:0:0:
192,192,267359,128,0,267534:0:0:0:0:
448,192,267534,1,0,0:0:0:0:
320,192,267563,1,0,0:0:0:0:
64,192,267577,1,0,0:0:0:0:
192,192,267621,1,0,0:0:0:0:
448,192,267708,1,0,0:0:0:0:
64,192,267737,1,0,0:0:0:0:
192,192,267752,1,0,0:0:0:0:
320,192,267824,1,0,0:0:0:0:
448,192,267854,1,0,0:0:0:0:
64,192,267883,1,0,0:0:0:0:
320,192,267970,128,0,268202:0:0:0:0:
64,192,268188,1,0,0:0:0:0:
192,192,268231,1,0,0:0:0:0:
320,192,268275,1,0,0:0:0:0:
64,192,268319,1,0,0:0:0:0:
448,192,268319,1,0,0:0:0:0:
192,192,268493,1,0,0:0:0:0:
320,192,268493,1,0,0:0:0:0:
320,192,268580,1,0,0:0:0:0:
448,192,268580,1,0,0:0:0:0:
192,192,268755,1,0,0:0:0:0:
192,192,268842,1,0,0:0:0:0:
320,192,268842,1,0,0:0:0:0:
320,192,268929,1,0,0:0:0:0:
64,192,269016,1,0,0:0:0:0:
192,192,269060,128,0,269191:0:0:0:0:
320,192,269074,1,0,0:0:0:0:
448,192,269191,1,0,0:0:0:0:
64,192,269191,1,0,0:0:0:0:
64,192,269365,1,0,0:0:0:0:
320,192,269452,1,0,0:0:0:0:
192,192,269481,1,0,0:0:0:0:
64,192,269496,1,0,0:0:0:0:
448,192,269540,1,0,0:0:0:0:
192,192,269598,1,0,0:0:0:0:
64,192,269656,1,0,0:0:0:0:
320,192,269714,1,0,0:0:0:0:
448,192,269714,1,0,0:0:0:0:
192,192,269801,1,0,0:0:0:0:
448,192,269888,1,0,0:0:0:0:
192,192,269976,1,0,0:0:0:0:
320,192,270005,1,0,0:0:0:0:
448,192,270019,1,0,0:0:0:0:
64,192,270063,1,0,0:0:0:0:
320,192,270121,1,0,0:0:0:0:
448,192,270179,1,0,0:0:0:0:
192,192,270237,128,0,270354:0:0:0:0:
64,192,270266,1,0,0:0:0:0:
192,192,270412,1,0,0:0:0:0:
320,192,270412,1,0,0:0:0:0:
192,192,270586,1,0,0:0:0:0:
448,192,270586,1,0,0:0:0:0:
320,192,270673,1,0,0:0:0:0:
64,192,270761,1,0,0:0:0:0:
448,192,270761,1,0,0:0:0:0:
192,192,270790,1,0,0:0:0:0:
320,192,270819,1,0,0:0:0:0:
64,192,270877,1,0,0:0:0:0:
192,192,270935,1,0,0:0:0:0:
448,192,270993,1,0,0:0:0:0:
320,192,271051,1,0,0:0:0:0:
192,192,271109,1,0,0:0:0:0:
64,192,271109,1,0,0:0:0:0:
448,192,271284,1,0,0:0:0:0:
320,192,271284,1,0,0:0:0:0:
320,192,271371,1,0,0:0:0:0:
64,192,271371,1,0,0:0:0:0:
192,192,271458,1,0,0:0:0:0:
448,192,271545,1,0,0:0:0:0:
64,192,271574,1,0,0:0:0:0:
320,192,271633,1,0,0:0:0:0:
192,192,271633,1,0,0:0:0:0:
320,192,271720,1,0,0:0:0:0:
448,192,271749,1,0,0:0:0:0:
192,192,271778,1,0,0:0:0:0:
64,192,271807,1,0,0:0:0:0:
64,192,271894,1,0,0:0:0:0:
448,192,271981,1,0,0:0:0:0:
320,192,271981,1,0,0:0:0:0:
192,192,271981,1,0,0:0:0:0:
64,192,272243,1,0,0:0:0:0:
192,192,272243,128,0,272418:0:0:0:0:
192,192,272505,1,0,0:0:0:0:
448,192,272505,1,0,0:0:0:0:
320,192,272534,1,0,0:0:0:0:
64,192,272534,128,0,272679:0:0:0:0:
64,192,272766,128,0,272970:0:0:0:0:
192,192,272795,1,0,0:0:0:0:
448,192,272941,1,0,0:0:0:0:
320,192,273028,1,0,0:0:0:0:
192,192,273072,1,0,0:0:0:0:
448,192,273086,128,0,273202:0:0:0:0:
64,192,273202,1,0,0:0:0:0:
320,192,273202,1,0,0:0:0:0:
192,192,273261,1,0,0:0:0:0:
448,192,273319,1,0,0:0:0:0:
320,192,273333,1,0,0:0:0:0:
64,192,273348,1,0,0:0:0:0:
64,192,273486,1,0,0:0:0:0:
192,192,273493,1,0,0:0:0:0:
320,192,273551,128,0,273813:0:0:0:0:
448,192,273595,1,0,0:0:0:0:
192,192,273638,128,0,273726:0:0:0:0:
448,192,273769,1,0,0:0:0:0:
192,192,273813,1,0,0:0:0:0:
64,192,273856,1,0,0:0:0:0:
320,192,273900,1,0,0:0:0:0:
448,192,273900,1,0,0:0:0:0:
192,192,274074,1,0,0:0:0:0:
448,192,274074,1,0,0:0:0:0:
192,192,274162,1,0,0:0:0:0:
64,192,274162,1,0,0:0:0:0:
320,192,274336,1,0,0:0:0:0:
192,192,274423,1,0,0:0:0:0:
448,192,274423,1,0,0:0:0:0:
192,192,274511,1,0,0:0:0:0:
64,192,274598,1,0,0:0:0:0:
320,192,274598,1,0,0:0:0:0:
448,192,274641,128,0,274772:0:0:0:0:
64,192,274685,1,0,0:0:0:0:
320,192,274772,1,0,0:0:0:0:
192,192,274772,1,0,0:0:0:0:
448,192,274947,1,0,0:0:0:0:
192,192,275034,1,0,0:0:0:0:
320,192,275063,1,0,0:0:0:0:
64,192,275077,1,0,0:0:0:0:
448,192,275121,1,0,0:0:0:0:
192,192,275179,1,0,0:0:0:0:
320,192,275237,1,0,0:0:0:0:
64,192,275295,1,0,0:0:0:0:
448,192,275295,1,0,0:0:0:0:
192,192,275383,1,0,0:0:0:0:
448,192,275470,1,0,0:0:0:0:
320,192,275513,1,0,0:0:0:0:
192,192,275557,128,0,275644:0:0:0:0:
64,192,275586,1,0,0:0:0:0:
448,192,275644,1,0,0:0:0:0:
320,192,275702,1,0,0:0:0:0:
64,192,275775,1,0,0:0:0:0:
192,192,275819,128,0,275906:0:0:0:0:
448,192,275877,1,0,0:0:0:0:
320,192,275935,1,0,0:0:0:0:
192,192,275993,1,0,0:0:0:0:
64,192,276037,128,0,276168:0:0:0:0:
320,192,276080,1,0,0:0:0:0:
448,192,276168,128,0,276298:0:0:0:0:
320,192,276197,1,0,0:0:0:0:
192,192,276342,128,0,276633:0:0:0:0:
320,192,276342,128,0,276633:0:0:0:0:
64,192,276342,1,0,0:0:0:0:
192,192,276691,1,0,0:0:0:0:
64,192,276691,1,0,0:0:0:0:
320,192,276865,1,0,0:0:0:0:
448,192,276865,1,0,0:0:0:0:
320,192,276952,1,0,0:0:0:0:
64,192,276952,1,0,0:0:0:0:
192,192,277127,1,0,0:0:0:0:
320,192,277214,1,0,0:0:0:0:
448,192,277214,1,0,0:0:0:0:
448,192,277301,1,0,0:0:0:0:
192,192,277345,1,0,0:0:0:0:
64,192,277388,1,0,0:0:0:0:
320,192,277476,1,0,0:0:0:0:
448,192,277476,1,0,0:0:0:0:
320,192,277563,1,0,0:0:0:0:
64,192,277563,128,0,277679:0:0:0:0:
192,192,277606,1,0,0:0:0:0:
448,192,277650,1,0,0:0:0:0:
64,192,277737,1,0,0:0:0:0:
192,192,277737,1,0,0:0:0:0:
192,192,277824,1,0,0:0:0:0:
448,192,277824,1,0,0:0:0:0:
320,192,277912,1,0,0:0:0:0:
192,192,277970,1,0,0:0:0:0:
64,192,278028,1,0,0:0:0:0:
448,192,278086,1,0,0:0:0:0:
320,192,278086,1,0,0:0:0:0:
320,192,278348,1,0,0:0:0:0:
192,192,278348,1,0,0:0:0:0:
192,192,278435,1,0,0:0:0:0:
64,192,278522,1,0,0:0:0:0:
320,192,278522,1,0,0:0:0:0:
64,192,278609,1,0,0:0:0:0:
448,192,278609,1,0,0:0:0:0:
192,192,278871,1,0,0:0:0:0:
448,192,278871,1,0,0:0:0:0:
448,192,278958,1,0,0:0:0:0:
64,192,278958,1,0,0:0:0:0:
64,192,279133,1,0,0:0:0:0:
320,192,279133,128,0,279423:0:0:0:0:
192,192,279394,1,0,0:0:0:0:
320,192,279481,1,0,0:0:0:0:
448,192,279481,1,0,0:0:0:0:
448,192,279656,1,0,0:0:0:0:
64,192,279656,1,0,0:0:0:0:
448,192,279743,1,0,0:0:0:0:
320,192,279743,1,0,0:0:0:0:
64,192,279918,1,0,0:0:0:0:
64,192,280005,1,0,0:0:0:0:
320,192,280005,1,0,0:0:0:0:
320,192,280092,1,0,0:0:0:0:
192,192,280179,1,0,0:0:0:0:
320,192,280223,128,0,280354:0:0:0:0:
448,192,280266,1,0,0:0:0:0:
192,192,280354,1,0,0:0:0:0:
64,192,280354,1,0,0:0:0:0:
448,192,280528,1,0,0:0:0:0:
192,192,280615,1,0,0:0:0:0:
320,192,280644,1,0,0:0:0:0:
448,192,280659,1,0,0:0:0:0:
64,192,280702,1,0,0:0:0:0:
320,192,280761,1,0,0:0:0:0:
448,192,280819,1,0,0:0:0:0:
192,192,280877,1,0,0:0:0:0:
64,192,280877,1,0,0:0:0:0:
320,192,280964,1,0,0:0:0:0:
64,192,281051,1,0,0:0:0:0:
320,192,281138,1,0,0:0:0:0:
192,192,281168,1,0,0:0:0:0:
64,192,281182,1,0,0:0:0:0:
448,192,281226,1,0,0:0:0:0:
192,192,281284,1,0,0:0:0:0:
64,192,281342,1,0,0:0:0:0:
320,192,281400,128,0,281516:0:0:0:0:
448,192,281429,1,0,0:0:0:0:
320,192,281574,1,0,0:0:0:0:
192,192,281574,128,0,281691:0:0:0:0:
64,192,281618,1,0,0:0:0:0:
192,192,281749,128,0,281865:0:0:0:0:
448,192,281749,1,0,0:0:0:0:
64,192,281793,1,0,0:0:0:0:
448,192,281923,1,0,0:0:0:0:
320,192,281923,128,0,282272:0:0:0:0:
64,192,282185,1,0,0:0:0:0:
192,192,282272,1,0,0:0:0:0:
448,192,282272,1,0,0:0:0:0:
192,192,282447,1,0,0:0:0:0:
64,192,282447,1,0,0:0:0:0:
448,192,282534,1,0,0:0:0:0:
192,192,282534,1,0,0:0:0:0:
320,192,282621,1,0,0:0:0:0:
64,192,282708,1,0,0:0:0:0:
448,192,282737,1,0,0:0:0:0:
320,192,282795,1,0,0:0:0:0:
192,192,282795,1,0,0:0:0:0:
192,192,282883,1,0,0:0:0:0:
64,192,282912,1,0,0:0:0:0:
320,192,282941,1,0,0:0:0:0:
448,192,282970,1,0,0:0:0:0:
448,192,283057,1,0,0:0:0:0:
192,192,283144,1,0,0:0:0:0:
64,192,283144,1,0,0:0:0:0:
320,192,283144,1,0,0:0:0:0:
320,192,283406,1,0,0:0:0:0:
192,192,283406,1,0,0:0:0:0:
448,192,283493,1,0,0:0:0:0:
320,192,283580,1,0,0:0:0:0:
448,192,283668,1,0,0:0:0:0:
192,192,283668,1,0,0:0:0:0:
64,192,283668,1,0,0:0:0:0:
320,192,283929,1,0,0:0:0:0:
192,192,283929,128,0,284220:0:0:0:0:
448,192,284104,1,0,0:0:0:0:
448,192,284191,1,0,0:0:0:0:
64,192,284191,1,0,0:0:0:0:
192,192,284278,1,0,0:0:0:0:
320,192,284336,128,0,284394:0:0:0:0:
448,192,284365,1,0,0:0:0:0:
64,192,284365,1,0,0:0:0:0:
192,192,284452,128,0,284511:0:0:0:0:
64,192,284481,1,0,0:0:0:0:
448,192,284481,1,0,0:0:0:0:
320,192,284569,128,0,284627:0:0:0:0:
448,192,284598,1,0,0:0:0:0:
64,192,284598,1,0,0:0:0:0:
64,192,284888,1,0,0:0:0:0:
320,192,284932,1,0,0:0:0:0:
448,192,284976,1,0,0:0:0:0:
64,192,285005,1,0,0:0:0:0:
320,192,285063,1,0,0:0:0:0:
192,192,285063,1,0,0:0:0:0:
320,192,285237,1,0,0:0:0:0:
448,192,285237,1,0,0:0:0:0:
192,192,285324,1,0,0:0:0:0:
448,192,285324,1,0,0:0:0:0:
64,192,285499,1,0,0:0:0:0:
64,192,285586,1,0,0:0:0:0:
448,192,285586,1,0,0:0:0:0:
448,192,285673,1,0,0:0:0:0:
320,192,285761,1,0,0:0:0:0:
64,192,285804,128,0,285935:0:0:0:0:
192,192,285819,1,0,0:0:0:0:
448,192,285935,1,0,0:0:0:0:
320,192,285935,1,0,0:0:0:0:
192,192,286109,1,0,0:0:0:0:
64,192,286109,1,0,0:0:0:0:
448,192,286284,1,0,0:0:0:0:
192,192,286327,1,0,0:0:0:0:
64,192,286371,1,0,0:0:0:0:
448,192,286400,1,0,0:0:0:0:
192,192,286458,1,0,0:0:0:0:
320,192,286458,1,0,0:0:0:0:
192,192,286633,1,0,0:0:0:0:
64,192,286633,1,0,0:0:0:0:
192,192,286720,1,0,0:0:0:0:
448,192,286720,1,0,0:0:0:0:
320,192,286894,1,0,0:0:0:0:
192,192,286981,1,0,0:0:0:0:
320,192,286981,1,0,0:0:0:0:
192,192,287069,1,0,0:0:0:0:
448,192,287156,1,0,0:0:0:0:
64,192,287199,128,0,287330:0:0:0:0:
192,192,287214,1,0,0:0:0:0:
320,192,287330,1,0,0:0:0:0:
448,192,287330,1,0,0:0:0:0:
320,192,287505,1,0,0:0:0:0:
64,192,287505,1,0,0:0:0:0:
448,192,287592,128,0,287766:0:0:0:0:
320,192,287766,1,0,0:0:0:0:
192,192,287854,1,0,0:0:0:0:
64,192,287854,128,0,287941:0:0:0:0:
320,192,287912,1,0,0:0:0:0:
448,192,287970,1,0,0:0:0:0:
64,192,288028,128,0,288231:0:0:0:0:
192,192,288028,1,0,0:0:0:0:
320,192,288115,1,0,0:0:0:0:
448,192,288202,1,0,0:0:0:0:
448,192,288290,1,0,0:0:0:0:
64,192,288319,128,0,288464:0:0:0:0:
320,192,288377,1,0,0:0:0:0:
320,192,288464,1,0,0:0:0:0:
192,192,288551,1,0,0:0:0:0:
64,192,288551,1,0,0:0:0:0:
448,192,288638,1,0,0:0:0:0:
320,192,288726,1,0,0:0:0:0:
192,192,288726,1,0,0:0:0:0:
448,192,288813,128,0,289074:0:0:0:0:
320,192,288987,1,0,0:0:0:0:
64,192,288987,1,0,0:0:0:0:
192,192,289074,1,0,0:0:0:0:
64,192,289162,1,0,0:0:0:0:
448,192,289162,1,0,0:0:0:0:
192,192,289249,1,0,0:0:0:0:
320,192,289307,1,0,0:0:0:0:
448,192,289336,1,0,0:0:0:0:
64,192,289380,1,0,0:0:0:0:
192,192,289423,128,0,289641:0:0:0:0:
320,192,289641,1,0,0:0:0:0:
192,192,289685,1,0,0:0:0:0:
448,192,289729,1,0,0:0:0:0:
64,192,289772,1,0,0:0:0:0:
192,192,289830,1,0,0:0:0:0:
320,192,289859,128,0,290034:0:0:0:0:
64,192,290034,1,0,0:0:0:0:
320,192,290077,1,0,0:0:0:0:
448,192,290121,1,0,0:0:0:0:
320,192,290179,1,0,0:0:0:0:
64,192,290295,128,0,290339:0:0:0:0:
448,192,290295,128,0,290339:0:0:0:0:
192,192,290295,128,0,290339:0:0:0:0:
448,192,290470,128,0,290586:0:0:0:0:
64,192,290528,1,0,0:0:0:0:
192,192,290557,1,0,0:0:0:0:
320,192,290644,1,0,0:0:0:0:
448,192,290644,1,0,0:0:0:0:
64,192,290819,1,0,0:0:0:0:
192,192,290819,1,0,0:0:0:0:
192,192,290906,1,0,0:0:0:0:
320,192,290906,1,0,0:0:0:0:
448,192,290964,1,0,0:0:0:0:
320,192,291022,1,0,0:0:0:0:
64,192,291080,1,0,0:0:0:0:
64,192,291168,1,0,0:0:0:0:
448,192,291168,1,0,0:0:0:0:
448,192,291255,1,0,0:0:0:0:
192,192,291342,1,0,0:0:0:0:
64,192,291342,1,0,0:0:0:0:
448,192,291400,1,0,0:0:0:0:
320,192,291429,1,0,0:0:0:0:
192,192,291516,1,0,0:0:0:0:
320,192,291516,1,0,0:0:0:0:
64,192,291604,1,0,0:0:0:0:
320,192,291691,1,0,0:0:0:0:
192,192,291778,1,0,0:0:0:0:
448,192,291836,1,0,0:0:0:0:
192,192,291894,1,0,0:0:0:0:
64,192,291952,1,0,0:0:0:0:
320,192,291996,1,0,0:0:0:0:
192,192,292040,1,0,0:0:0:0:
64,192,292098,1,0,0:0:0:0:
192,192,292156,1,0,0:0:0:0:
448,192,292214,1,0,0:0:0:0:
64,192,292272,1,0,0:0:0:0:
320,192,292330,1,0,0:0:0:0:
448,192,292388,1,0,0:0:0:0:
320,192,292447,1,0,0:0:0:0:
192,192,292476,1,0,0:0:0:0:
64,192,292519,1,0,0:0:0:0:
448,192,292563,1,0,0:0:0:0:
320,192,292592,1,0,0:0:0:0:
192,192,292650,1,0,0:0:0:0:
320,192,292708,1,0,0:0:0:0:
64,192,292737,128,0,292912:0:0:0:0:
448,192,292912,1,0,0:0:0:0:
320,192,292955,1,0,0:0:0:0:
64,192,292999,1,0,0:0:0:0:
192,192,293086,1,0,0:0:0:0:
320,192,293144,1,0,0:0:0:0:
448,192,293202,1,0,0:0:0:0:
192,192,293261,1,0,0:0:0:0:
64,192,293304,1,0,0:0:0:0:
320,192,293348,1,0,0:0:0:0:
448,192,293435,1,0,0:0:0:0:
64,192,293435,1,0,0:0:0:0:
320,192,293609,1,0,0:0:0:0:
448,192,293609,1,0,0:0:0:0:
192,192,293697,1,0,0:0:0:0:
320,192,293697,1,0,0:0:0:0:
64,192,293755,1,0,0:0:0:0:
192,192,293813,128,0,293958:0:0:0:0:
448,192,293958,128,0,294045:0:0:0:0:
320,192,293958,1,0,0:0:0:0:
320,192,294045,1,0,0:0:0:0:
64,192,294133,128,0,294220:0:0:0:0:
192,192,294133,1,0,0:0:0:0:
192,192,294220,1,0,0:0:0:0:
320,192,294307,1,0,0:0:0:0:
448,192,294307,1,0,0:0:0:0:
64,192,294365,1,0,0:0:0:0:
192,192,294423,1,0,0:0:0:0:
448,192,294481,1,0,0:0:0:0:
64,192,294569,1,0,0:0:0:0:
320,192,294627,1,0,0:0:0:0:
64,192,294685,1,0,0:0:0:0:
448,192,294699,1,0,0:0:0:0:
192,192,294772,1,0,0:0:0:0:
320,192,294830,1,0,0:0:0:0:
448,192,294874,1,0,0:0:0:0:
64,192,294888,1,0,0:0:0:0:
192,192,294947,1,0,0:0:0:0:
64,192,295005,1,0,0:0:0:0:
320,192,295063,1,0,0:0:0:0:
192,192,295121,1,0,0:0:0:0:
448,192,295179,1,0,0:0:0:0:
320,192,295237,1,0,0:0:0:0:
448,192,295295,1,0,0:0:0:0:
64,192,295324,1,0,0:0:0:0:
192,192,295354,128,0,295528:0:0:0:0:
320,192,295441,1,0,0:0:0:0:
448,192,295528,128,0,295877:0:0:0:0:
192,192,295615,1,0,0:0:0:0:
192,192,295746,1,0,0:0:0:0:
192,192,295877,1,0,0:0:0:0:
64,192,295935,1,0,0:0:0:0:
448,192,295993,1,0,0:0:0:0:
192,192,296051,1,0,0:0:0:0:
64,192,296095,1,0,0:0:0:0:
320,192,296138,1,0,0:0:0:0:
192,192,296226,1,0,0:0:0:0:
448,192,296226,1,0,0:0:0:0:
192,192,296400,1,0,0:0:0:0:
64,192,296400,1,0,0:0:0:0:
64,192,296487,1,0,0:0:0:0:
320,192,296487,1,0,0:0:0:0:
448,192,296545,1,0,0:0:0:0:
320,192,296604,1,0,0:0:0:0:
192,192,296662,1,0,0:0:0:0:
192,192,296749,1,0,0:0:0:0:
448,192,296749,1,0,0:0:0:0:
448,192,296836,1,0,0:0:0:0:
192,192,296923,1,0,0:0:0:0:
64,192,296923,1,0,0:0:0:0:
320,192,296967,1,0,0:0:0:0:
448,192,297011,1,0,0:0:0:0:
192,192,297040,1,0,0:0:0:0:
64,192,297098,1,0,0:0:0:0:
320,192,297098,1,0,0:0:0:0:
448,192,297156,1,0,0:0:0:0:
192,192,297214,1,0,0:0:0:0:
64,192,297272,1,0,0:0:0:0:
320,192,297330,1,0,0:0:0:0:
64,192,297388,1,0,0:0:0:0:
448,192,297418,1,0,0:0:0:0:
320,192,297490,1,0,0:0:0:0:
64,192,297534,1,0,0:0:0:0:
192,192,297592,1,0,0:0:0:0:
320,192,297621,1,0,0:0:0:0:
64,192,297650,1,0,0:0:0:0:
192,192,297737,1,0,0:0:0:0:
448,192,297795,1,0,0:0:0:0:
320,192,297854,1,0,0:0:0:0:
448,192,297912,1,0,0:0:0:0:
192,192,297970,1,0,0:0:0:0:
320,192,298013,1,0,0:0:0:0:
64,192,298057,1,0,0:0:0:0:
448,192,298057,1,0,0:0:0:0:
192,192,298144,1,0,0:0:0:0:
64,192,298144,1,0,0:0:0:0:
320,192,298231,1,0,0:0:0:0:
192,192,298319,1,0,0:0:0:0:
448,192,298319,1,0,0:0:0:0:
320,192,298435,1,0,0:0:0:0:
64,192,298493,1,0,0:0:0:0:
192,192,298493,128,0,298668:0:0:0:0:
320,192,298668,1,0,0:0:0:0:
448,192,298726,1,0,0:0:0:0:
192,192,298784,1,0,0:0:0:0:
320,192,298842,1,0,0:0:0:0:
448,192,298886,1,0,0:0:0:0:
64,192,298929,1,0,0:0:0:0:
192,192,299016,1,0,0:0:0:0:
320,192,299016,1,0,0:0:0:0:
64,192,299191,1,0,0:0:0:0:
192,192,299191,1,0,0:0:0:0:
320,192,299278,1,0,0:0:0:0:
192,192,299278,1,0,0:0:0:0:
448,192,299336,1,0,0:0:0:0:
320,192,299394,128,0,299540:0:0:0:0:
64,192,299452,1,0,0:0:0:0:
64,192,299540,1,0,0:0:0:0:
448,192,299540,1,0,0:0:0:0:
448,192,299627,1,0,0:0:0:0:
320,192,299627,1,0,0:0:0:0:
192,192,299714,1,0,0:0:0:0:
64,192,299714,1,0,0:0:0:0:
192,192,299888,1,0,0:0:0:0:
448,192,299888,1,0,0:0:0:0:
64,192,299947,1,0,0:0:0:0:
320,192,300005,1,0,0:0:0:0:
192,192,300063,1,0,0:0:0:0:
448,192,300121,1,0,0:0:0:0:
64,192,300150,1,0,0:0:0:0:
192,192,300194,1,0,0:0:0:0:
320,192,300237,1,0,0:0:0:0:
448,192,300295,1,0,0:0:0:0:
192,192,300354,1,0,0:0:0:0:
448,192,300412,1,0,0:0:0:0:
320,192,300412,128,0,300935:0:0:0:0:
64,192,300586,1,0,0:0:0:0:
192,192,300673,1,0,0:0:0:0:
448,192,300673,1,0,0:0:0:0:
64,192,300761,1,0,0:0:0:0:
448,192,300848,1,0,0:0:0:0:
192,192,300935,1,0,0:0:0:0:
64,192,300979,128,0,301109:0:0:0:0:
448,192,301022,1,0,0:0:0:0:
320,192,301109,1,0,0:0:0:0:
192,192,301109,128,0,301415:0:0:0:0:
64,192,301327,1,0,0:0:0:0:
320,192,301327,1,0,0:0:0:0:
448,192,301371,1,0,0:0:0:0:
320,192,301458,1,0,0:0:0:0:
64,192,301458,1,0,0:0:0:0:
192,192,301516,1,0,0:0:0:0:
448,192,301574,1,0,0:0:0:0:
64,192,301633,128,0,301749:0:0:0:0:
448,192,301691,1,0,0:0:0:0:
320,192,301720,1,0,0:0:0:0:
64,192,301807,1,0,0:0:0:0:
192,192,301807,1,0,0:0:0:0:
448,192,301981,1,0,0:0:0:0:
320,192,301981,1,0,0:0:0:0:
320,192,302069,1,0,0:0:0:0:
192,192,302069,1,0,0:0:0:0:
64,192,302127,1,0,0:0:0:0:
192,192,302185,1,0,0:0:0:0:
448,192,302243,1,0,0:0:0:0:
64,192,302330,1,0,0:0:0:0:
448,192,302330,1,0,0:0:0:0:
64,192,302418,1,0,0:0:0:0:
192,192,302505,1,0,0:0:0:0:
320,192,302505,1,0,0:0:0:0:
64,192,302563,1,0,0:0:0:0:
448,192,302592,1,0,0:0:0:0:
192,192,302679,1,0,0:0:0:0:
448,192,302679,1,0,0:0:0:0:
64,192,302766,1,0,0:0:0:0:
192,192,302854,1,0,0:0:0:0:
320,192,302941,1,0,0:0:0:0:
64,192,302999,1,0,0:0:0:0:
320,192,303057,1,0,0:0:0:0:
448,192,303115,1,0,0:0:0:0:
192,192,303159,1,0,0:0:0:0:
320,192,303202,1,0,0:0:0:0:
448,192,303261,1,0,0:0:0:0:
320,192,303319,1,0,0:0:0:0:
64,192,303377,1,0,0:0:0:0:
448,192,303435,1,0,0:0:0:0:
192,192,303493,1,0,0:0:0:0:
64,192,303551,1,0,0:0:0:0:
192,192,303609,1,0,0:0:0:0:
320,192,303638,1,0,0:0:0:0:
448,192,303682,1,0,0:0:0:0:
64,192,303726,1,0,0:0:0:0:
192,192,303755,1,0,0:0:0:0:
320,192,303813,1,0,0:0:0:0:
192,192,303871,1,0,0:0:0:0:
448,192,303900,128,0,304074:0:0:0:0:
64,192,304074,1,0,0:0:0:0:
192,192,304118,1,0,0:0:0:0:
448,192,304162,1,0,0:0:0:0:
320,192,304249,1,0,0:0:0:0:
192,192,304307,1,0,0:0:0:0:
64,192,304365,1,0,0:0:0:0:
320,192,304423,1,0,0:0:0:0:
448,192,304467,1,0,0:0:0:0:
192,192,304511,1,0,0:0:0:0:
64,192,304598,1,0,0:0:0:0:
448,192,304598,1,0,0:0:0:0:
320,192,304772,1,0,0:0:0:0:
448,192,304772,1,0,0:0:0:0:
192,192,304859,1,0,0:0:0:0:
320,192,304859,1,0,0:0:0:0:
64,192,304918,1,0,0:0:0:0:
192,192,304976,128,0,305121:0:0:0:0:
320,192,305005,1,0,0:0:0:0:
320,192,305121,128,0,305208:0:0:0:0:
448,192,305121,1,0,0:0:0:0:
448,192,305208,1,0,0:0:0:0:
192,192,305295,128,0,305383:0:0:0:0:
64,192,305295,1,0,0:0:0:0:
64,192,305383,1,0,0:0:0:0:
320,192,305470,1,0,0:0:0:0:
448,192,305470,1,0,0:0:0:0:
192,192,305528,1,0,0:0:0:0:
64,192,305586,1,0,0:0:0:0:
320,192,305644,1,0,0:0:0:0:
448,192,305731,1,0,0:0:0:0:
192,192,305790,1,0,0:0:0:0:
448,192,305848,1,0,0:0:0:0:
64,192,305862,1,0,0:0:0:0:
320,192,305935,1,0,0:0:0:0:
192,192,305993,1,0,0:0:0:0:
64,192,306037,1,0,0:0:0:0:
448,192,306051,1,0,0:0:0:0:
320,192,306109,1,0,0:0:0:0:
448,192,306168,1,0,0:0:0:0:
192,192,306226,1,0,0:0:0:0:
320,192,306284,1,0,0:0:0:0:
64,192,306342,1,0,0:0:0:0:
192,192,306400,1,0,0:0:0:0:
64,192,306458,1,0,0:0:0:0:
320,192,306487,1,0,0:0:0:0:
448,192,306516,128,0,306691:0:0:0:0:
192,192,306604,1,0,0:0:0:0:
64,192,306691,128,0,307040:0:0:0:0:
448,192,306778,1,0,0:0:0:0:
448,192,306909,1,0,0:0:0:0:
448,192,307040,1,0,0:0:0:0:
320,192,307098,1,0,0:0:0:0:
64,192,307156,1,0,0:0:0:0:
192,192,307214,1,0,0:0:0:0:
64,192,307258,1,0,0:0:0:0:
320,192,307301,1,0,0:0:0:0:
192,192,307388,1,0,0:0:0:0:
448,192,307388,1,0,0:0:0:0:
64,192,307563,1,0,0:0:0:0:
192,192,307563,1,0,0:0:0:0:
448,192,307650,1,0,0:0:0:0:
192,192,307650,1,0,0:0:0:0:
64,192,307708,1,0,0:0:0:0:
192,192,307766,1,0,0:0:0:0:
320,192,307824,1,0,0:0:0:0:
320,192,307912,1,0,0:0:0:0:
64,192,307912,1,0,0:0:0:0:
64,192,307999,1,0,0:0:0:0:
320,192,308086,1,0,0:0:0:0:
448,192,308086,1,0,0:0:0:0:
192,192,308130,1,0,0:0:0:0:
64,192,308173,1,0,0:0:0:0:
320,192,308202,1,0,0:0:0:0:
448,192,308261,1,0,0:0:0:0:
192,192,308261,1,0,0:0:0:0:
64,192,308319,1,0,0:0:0:0:
320,192,308377,1,0,0:0:0:0:
448,192,308435,1,0,0:0:0:0:
192,192,308493,1,0,0:0:0:0:
448,192,308551,1,0,0:0:0:0:
64,192,308580,1,0,0:0:0:0:
192,192,308653,1,0,0:0:0:0:
448,192,308697,1,0,0:0:0:0:
320,192,308755,1,0,0:0:0:0:
192,192,308784,1,0,0:0:0:0:
448,192,308813,1,0,0:0:0:0:
320,192,308900,1,0,0:0:0:0:
64,192,308958,1,0,0:0:0:0:
192,192,309016,1,0,0:0:0:0:
64,192,309074,1,0,0:0:0:0:
320,192,309133,1,0,0:0:0:0:
192,192,309176,1,0,0:0:0:0:
448,192,309220,1,0,0:0:0:0:
64,192,309220,1,0,0:0:0:0:
320,192,309307,1,0,0:0:0:0:
448,192,309307,1,0,0:0:0:0:
192,192,309394,1,0,0:0:0:0:
320,192,309481,1,0,0:0:0:0:
64,192,309481,1,0,0:0:0:0:
192,192,309598,1,0,0:0:0:0:
448,192,309656,1,0,0:0:0:0:
64,192,309656,128,0,309830:0:0:0:0:
320,192,309830,1,0,0:0:0:0:
448,192,309888,1,0,0:0:0:0:
192,192,309947,1,0,0:0:0:0:
64,192,310005,1,0,0:0:0:0:
320,192,310092,1,0,0:0:0:0:
192,192,310179,1,0,0:0:0:0:
448,192,310179,1,0,0:0:0:0:
192,192,310354,1,0,0:0:0:0:
64,192,310354,1,0,0:0:0:0:
320,192,310441,1,0,0:0:0:0:
448,192,310441,1,0,0:0:0:0:
320,192,310615,1,0,0:0:0:0:
320,192,310702,1,0,0:0:0:0:
192,192,310702,1,0,0:0:0:0:
192,192,310790,1,0,0:0:0:0:
64,192,310877,1,0,0:0:0:0:
448,192,310877,1,0,0:0:0:0:
192,192,311051,1,0,0:0:0:0:
64,192,311051,1,0,0:0:0:0:
320,192,311226,5,0,0:0:0:0:
64,192,311356,1,0,0:0:0:0:
320,192,311400,1,0,0:0:0:0:
448,192,311444,1,0,0:0:0:0:
192,192,311458,1,0,0:0:0:0:
320,192,311531,1,0,0:0:0:0:
192,192,311574,1,0,0:0:0:0:
64,192,311575,1,0,0:0:0:0:
448,192,311618,1,0,0:0:0:0:
320,192,311662,1,0,0:0:0:0:
192,192,311705,1,0,0:0:0:0:
64,192,311749,1,0,0:0:0:0:
448,192,311793,1,0,0:0:0:0:
320,192,311836,1,0,0:0:0:0:
192,192,311880,1,0,0:0:0:0:
448,192,311953,1,0,0:0:0:0:
320,192,311960,1,0,0:0:0:0:
64,192,312040,1,0,0:0:0:0:
192,192,312047,1,0,0:0:0:0:
448,192,312127,1,0,0:0:0:0:
320,192,312134,1,0,0:0:0:0:
64,192,312207,1,0,0:0:0:0:
192,192,312215,1,0,0:0:0:0:
448,192,312273,1,0,0:0:0:0:
320,192,312280,1,0,0:0:0:0:
192,192,312360,128,0,312418:0:0:0:0:
448,192,312490,128,0,312534:0:0:0:0:
320,192,312490,128,0,312534:0:0:0:0:
64,192,312490,128,0,312534:0:0:0:0:
320,192,323519,132,0,323780:0:0:0:0:
