osu file format v14

[General]
AudioFilename: audio.mp3
AudioLeadIn: 0
PreviewTime: 770
Countdown: 0
SampleSet: Soft
StackLeniency: 0.5
Mode: 0
LetterboxInBreaks: 0
WidescreenStoryboard: 0

[Editor]
Bookmarks: 895,16895,32895,48895,64895,78895,94895,110895,126895,142895,157323
DistanceSpacing: 2.25
BeatDivisor: 4
GridSize: 32
TimelineZoom: 1.5

[Metadata]
Title:Neige Immaculee
TitleUnicode:Neige Immaculée
Artist:Raven's Jig
ArtistUnicode:Raven's Jig
Creator:Maardhen
Version:Un Tresor Depose par le Vent d'Hiver
Source:東方妖々夢 ~ Perfect Cherry Blossom.
Tags:Saison des cerises クリスタライズシルバー Crystallized Silver kao2 白銀桜華の降る郷 Japan Expo Paris 2019 redtails akhts french Team Shanghai Alice 上海アリス幻樂団 ZUN video game 東方project touhou stage 1 boss theme Letty Whiterock Cirno
BeatmapID:2240357
BeatmapSetID:1070288

[Difficulty]
HPDrainRate:5
CircleSize:4
OverallDifficulty:7
ApproachRate:8
SliderMultiplier:2
SliderTickRate:1

[Events]
//Background and Video events
0,0,"31454951_p00.jpg",0,0
//Break Periods
//Storyboard Layer 0 (Background)
//Storyboard Layer 1 (Fail)
//Storyboard Layer 2 (Pass)
//Storyboard Layer 3 (Foreground)
//Storyboard Layer 4 (Overlay)
//Storyboard Sound Samples

[TimingPoints]
895,500,4,2,1,40,1,0
895,-250.000000000001,4,2,1,40,0,0
1145,-250.000000000001,4,2,1,20,0,0
1645,-166.666666666667,4,2,1,40,0,0
1895,-166.666666666667,4,2,1,20,0,0
2145,-166.666666666667,4,2,1,40,0,0
2895,-250.000000000001,4,2,1,40,0,0
3145,-250.000000000001,4,2,1,20,0,0
3645,-166.666666666667,4,2,1,40,0,0
3895,-166.666666666667,4,2,1,20,0,0
4145,-166.666666666667,4,2,1,40,0,0
4895,-250.000000000001,4,2,1,40,0,0
5145,-250.000000000001,4,2,1,20,0,0
5645,-166.666666666667,4,2,1,40,0,0
5895,-166.666666666667,4,2,1,20,0,0
6145,-166.666666666667,4,2,1,40,0,0
6895,-250.000000000001,4,2,1,40,0,0
7145,-250.000000000001,4,2,1,20,0,0
7645,-166.666666666667,4,2,1,40,0,0
7895,-166.666666666667,4,2,1,20,0,0
8145,-166.666666666667,4,2,1,40,0,0
8895,-250.000000000001,4,2,1,40,0,0
9145,-250.000000000001,4,2,1,20,0,0
9645,-166.666666666667,4,2,1,40,0,0
9895,-166.666666666667,4,2,1,20,0,0
10145,-166.666666666667,4,2,1,40,0,0
10895,-250.000000000001,4,2,1,40,0,0
11145,-250.000000000001,4,2,1,20,0,0
11645,-166.666666666667,4,2,1,40,0,0
11895,-166.666666666667,4,2,1,20,0,0
12145,-166.666666666667,4,2,1,40,0,0
12895,-250.000000000001,4,2,1,40,0,0
13395,-250.000000000001,4,2,1,20,0,0
13645,-166.666666666667,4,2,1,40,0,0
13895,-166.666666666667,4,2,1,20,0,0
14145,-166.666666666667,4,2,1,40,0,0
14895,-250.000000000001,4,2,1,40,0,0
15145,-250.000000000001,4,2,1,20,0,0
15645,-166.666666666667,4,2,1,40,0,0
16895,-250.000000000001,4,2,1,40,0,0
17145,-250.000000000001,4,2,1,20,0,0
17645,-166.666666666667,4,2,1,40,0,0
17895,-166.666666666667,4,2,1,20,0,0
18145,-166.666666666667,4,2,1,40,0,0
18895,-250.000000000001,4,2,1,40,0,0
19145,-250.000000000001,4,2,1,20,0,0
19645,-166.666666666667,4,2,1,40,0,0
19895,-166.666666666667,4,2,1,20,0,0
20145,-166.666666666667,4,2,1,40,0,0
20895,-250.000000000001,4,2,1,40,0,0
21145,-250.000000000001,4,2,1,20,0,0
21645,-166.666666666667,4,2,1,40,0,0
21895,-166.666666666667,4,2,1,20,0,0
22145,-166.666666666667,4,2,1,40,0,0
22895,-250.000000000001,4,2,1,40,0,0
23145,-250.000000000001,4,2,1,20,0,0
23645,-166.666666666667,4,2,1,40,0,0
23895,-166.666666666667,4,2,1,20,0,0
24145,-166.666666666667,4,2,1,40,0,0
24895,-250.000000000001,4,2,1,40,0,0
25145,-250.000000000001,4,2,1,20,0,0
25645,-166.666666666667,4,2,1,40,0,0
26895,-250.000000000001,4,2,1,40,0,0
27145,-250.000000000001,4,2,1,20,0,0
27645,-166.666666666667,4,2,1,40,0,0
27895,-166.666666666667,4,2,1,20,0,0
28145,-166.666666666667,4,2,1,40,0,0
28895,-250.000000000001,4,2,1,40,0,0
29145,-250.000000000001,4,2,1,20,0,0
29645,-166.666666666667,4,2,1,40,0,0
29895,-166.666666666667,4,2,1,20,0,0
30145,-166.666666666667,4,2,1,40,0,0
30895,-166.666666666667,4,2,1,40,0,0
31145,-166.666666666667,4,2,1,20,0,0
31645,-166.666666666667,4,2,1,40,0,0
32895,-111.111111111111,4,2,1,50,0,0
47895,-166.666666666667,4,2,1,50,0,0
48270,-166.666666666667,4,2,1,10,0,0
48395,-166.666666666667,4,2,1,50,0,0
48770,-166.666666666667,4,2,1,10,0,0
48895,-200,4,2,1,40,0,0
49395,-200,4,2,1,30,0,0
49645,-200,4,2,1,10,0,0
49895,-200,4,2,1,30,0,0
50145,-200,4,2,1,10,0,0
50395,-200,4,2,1,30,0,0
50645,-200,4,2,1,10,0,0
50895,-200,4,2,1,40,0,0
51395,-200,4,2,1,30,0,0
51645,-200,4,2,1,10,0,0
51895,-200,4,2,1,30,0,0
52145,-200,4,2,1,10,0,0
52395,-200,4,2,1,30,0,0
52645,-200,4,2,1,10,0,0
52895,-200,4,2,1,40,0,0
53145,-200,4,2,1,10,0,0
53395,-200,4,2,1,30,0,0
53645,-200,4,2,1,10,0,0
53895,-200,4,2,1,30,0,0
54895,-200,4,2,1,40,0,0
55145,-200,4,2,1,10,0,0
55395,-200,4,2,1,30,0,0
55645,-200,4,2,1,10,0,0
55895,-200,4,2,1,30,0,0
56895,-200,4,2,1,40,0,0
57395,-200,4,2,1,30,0,0
57645,-200,4,2,1,10,0,0
57895,-200,4,2,1,30,0,0
58645,-200,4,2,1,10,0,0
58895,-200,4,2,1,40,0,0
59395,-200,4,2,1,30,0,0
59645,-200,4,2,1,10,0,0
59895,-200,4,2,1,30,0,0
60645,-200,4,2,1,10,0,0
60895,-333.333333333333,4,2,1,40,0,0
61895,-333.333333333333,4,2,1,30,0,0
64895,-142.857142857143,4,2,2,40,0,0
65145,-142.857142857143,4,2,2,20,0,0
65395,-142.857142857143,4,2,2,40,0,0
65895,-142.857142857143,4,2,1,40,0,0
66145,-142.857142857143,4,2,1,20,0,0
66395,-142.857142857143,4,2,1,40,0,0
66645,-142.857142857143,4,2,1,20,0,0
66895,-142.857142857143,4,2,2,40,0,0
67145,-142.857142857143,4,2,2,20,0,0
67395,-333.333333333333,4,2,2,40,0,0
67895,-142.857142857143,4,2,1,40,0,0
68145,-142.857142857143,4,2,1,20,0,0
68395,-142.857142857143,4,2,1,40,0,0
68645,-142.857142857143,4,2,1,20,0,0
68895,-142.857142857143,4,2,2,40,0,0
69145,-142.857142857143,4,2,2,20,0,0
69395,-333.333333333333,4,2,2,40,0,0
69895,-142.857142857143,4,2,1,40,0,0
70770,-142.857142857143,4,2,1,20,0,0
70895,-166.666666666667,4,2,2,40,0,0
71895,-166.666666666667,4,2,2,20,0,0
72395,-200,4,2,1,40,0,0
72645,-200,4,2,1,20,0,0
72895,-200,4,2,1,40,0,0
73895,-200,4,2,1,20,0,0
74395,-200,4,2,1,40,0,0
75395,-200,4,2,1,20,0,0
75645,-200,4,2,1,40,0,0
76145,-200,4,2,1,20,0,0
76395,-200,4,2,1,40,0,0
77895,-200,4,2,1,20,0,0
78395,-200,4,2,1,40,0,0
78895,-166.666666666667,4,2,1,40,0,0
79145,-250.000000000001,4,2,1,20,0,0
79645,-166.666666666667,4,2,1,40,0,0
79895,-166.666666666667,4,2,1,20,0,0
80145,-166.666666666667,4,2,1,40,0,0
80895,-250.000000000001,4,2,1,40,0,0
81145,-250.000000000001,4,2,1,20,0,0
81645,-166.666666666667,4,2,1,40,0,0
81895,-166.666666666667,4,2,1,20,0,0
82145,-166.666666666667,4,2,1,40,0,0
82895,-250.000000000001,4,2,1,40,0,0
83145,-250.000000000001,4,2,1,20,0,0
83645,-166.666666666667,4,2,1,40,0,0
83895,-166.666666666667,4,2,1,20,0,0
84145,-166.666666666667,4,2,1,40,0,0
84895,-250.000000000001,4,2,1,40,0,0
85395,-250.000000000001,4,2,1,20,0,0
85645,-166.666666666667,4,2,1,40,0,0
85895,-166.666666666667,4,2,1,20,0,0
86145,-166.666666666667,4,2,1,40,0,0
86895,-250.000000000001,4,2,1,40,0,0
87395,-250.000000000001,4,2,1,20,0,0
87645,-166.666666666667,4,2,1,40,0,0
87895,-166.666666666667,4,2,1,20,0,0
88145,-166.666666666667,4,2,1,40,0,0
88895,-250.000000000001,4,2,1,40,0,0
89145,-250.000000000001,4,2,1,20,0,0
89645,-166.666666666667,4,2,1,40,0,0
89895,-166.666666666667,4,2,1,20,0,0
90145,-166.666666666667,4,2,1,40,0,0
90895,-250.000000000001,4,2,1,40,0,0
91145,-250.000000000001,4,2,1,20,0,0
91645,-166.666666666667,4,2,1,40,0,0
91895,-166.666666666667,4,2,1,20,0,0
92145,-166.666666666667,4,2,1,40,0,0
92895,-250.000000000001,4,2,1,40,0,0
93395,-250.000000000001,4,2,1,20,0,0
93645,-166.666666666667,4,2,1,40,0,0
94895,-250.000000000001,4,2,1,40,0,0
95145,-250.000000000001,4,2,1,20,0,0
95645,-166.666666666667,4,2,1,40,0,0
95895,-166.666666666667,4,2,1,20,0,0
96145,-166.666666666667,4,2,1,40,0,0
96895,-250.000000000001,4,2,1,40,0,0
97145,-250.000000000001,4,2,1,20,0,0
97645,-166.666666666667,4,2,1,40,0,0
97895,-166.666666666667,4,2,1,20,0,0
98145,-166.666666666667,4,2,1,40,0,0
98895,-250.000000000001,4,2,1,40,0,0
99145,-250.000000000001,4,2,1,20,0,0
99645,-166.666666666667,4,2,1,40,0,0
99895,-166.666666666667,4,2,1,20,0,0
100145,-166.666666666667,4,2,1,40,0,0
100895,-250.000000000001,4,2,1,40,0,0
101145,-250.000000000001,4,2,1,20,0,0
101645,-166.666666666667,4,2,1,40,0,0
101895,-166.666666666667,4,2,1,20,0,0
102145,-166.666666666667,4,2,1,40,0,0
102895,-250.000000000001,4,2,1,40,0,0
103145,-250.000000000001,4,2,1,20,0,0
103645,-166.666666666667,4,2,1,40,0,0
104895,-250.000000000001,4,2,1,40,0,0
105145,-250.000000000001,4,2,1,20,0,0
105645,-166.666666666667,4,2,1,40,0,0
105895,-166.666666666667,4,2,1,20,0,0
106145,-166.666666666667,4,2,1,40,0,0
106895,-250.000000000001,4,2,1,40,0,0
107145,-250.000000000001,4,2,1,20,0,0
107645,-166.666666666667,4,2,1,40,0,0
107895,-166.666666666667,4,2,1,20,0,0
108145,-166.666666666667,4,2,1,40,0,0
108895,-166.666666666667,4,2,1,40,0,0
109145,-166.666666666667,4,2,1,20,0,0
109645,-166.666666666667,4,2,1,40,0,0
110895,-111.111111111111,4,2,1,50,0,0
125895,-166.666666666667,4,2,1,50,0,0
126895,-200,4,2,1,40,0,0
127395,-200,4,2,1,30,0,0
127645,-333.333333333333,4,2,1,10,0,0
127895,-200,4,2,1,30,0,0
128645,-333.333333333333,4,2,1,10,0,0
128895,-200,4,2,1,40,0,0
129395,-200,4,2,1,30,0,0
129645,-333.333333333333,4,2,1,10,0,0
129895,-200,4,2,1,30,0,0
130395,-333.333333333333,4,2,1,10,0,0
130645,-200,4,2,1,30,0,0
130895,-200,4,2,1,40,0,0
131145,-333.333333333333,4,2,1,10,0,0
131395,-200,4,2,1,30,0,0
131645,-333.333333333333,4,2,1,10,0,0
131895,-200,4,2,1,30,0,0
132395,-333.333333333333,4,2,1,10,0,0
132645,-200,4,2,1,30,0,0
132895,-200,4,2,1,40,0,0
133145,-200,4,2,1,30,0,0
133645,-333.333333333333,4,2,1,30,0,0
134395,-333.333333333333,4,2,1,10,0,0
134895,-200,4,2,1,40,0,0
135395,-200,4,2,1,30,0,0
135645,-333.333333333333,4,2,1,10,0,0
135895,-200,4,2,1,30,0,0
136645,-333.333333333333,4,2,1,10,0,0
136895,-200,4,2,1,40,0,0
137395,-200,4,2,1,30,0,0
137645,-333.333333333333,4,2,1,10,0,0
137895,-200,4,2,1,30,0,0
138645,-333.333333333333,4,2,1,10,0,0
138895,-333.333333333333,4,2,1,40,0,0
139895,-333.333333333333,4,2,1,10,0,0
140895,-200,4,2,1,30,0,0
142895,-166.666666666667,4,2,2,30,0,0
143895,-166.666666666667,4,2,1,30,0,0
144145,-166.666666666667,4,2,1,10,0,0
144395,-166.666666666667,4,2,1,30,0,0
144645,-166.666666666667,4,2,1,10,0,0
144895,-166.666666666667,4,2,2,30,0,0
145895,-166.666666666667,4,2,1,30,0,0
146145,-166.666666666667,4,2,1,10,0,0
146395,-166.666666666667,4,2,1,30,0,0
146645,-166.666666666667,4,2,1,10,0,0
146895,-166.666666666667,4,2,2,30,0,0
147145,-166.666666666667,4,2,2,10,0,0
147395,-166.666666666667,4,2,2,30,0,0
147895,-166.666666666667,4,2,1,30,0,0
148770,-166.666666666667,4,2,1,10,0,0
148895,-250,4,2,2,30,0,0
149895,-250,4,2,2,10,0,0
150395,-250,4,2,1,30,0,0
150895,-200,4,2,1,30,0,0
151645,-200,4,2,1,10,0,0
151895,-200,4,2,1,30,0,0
153520,-200,4,2,1,10,0,0
153645,-200,4,2,1,30,0,0
154270,-200,4,2,1,10,0,0
154395,-200,4,2,1,30,0,0
154770,-200,4,2,1,10,0,0
154895,-333.333333333333,4,2,1,30,0,0
156645,-333.333333333333,4,2,1,10,0,0
156895,571.428571428571,4,2,1,30,1,0
156895,-100,4,2,1,30,0,0
157180,-100,4,2,1,40,0,0
157323,-100,4,2,1,50,0,0

[Colours]
Combo1 : 179,116,199
Combo2 : 0,103,206
Combo3 : 232,163,87
Combo4 : 61,196,235

[HitObjects]
204,181,895,6,0,P|220:199|231:228,2,40,2|0|0,0:0|0:0|0:0,0:0:0:0:
70,169,1645,2,0,P|103:159|129:133,1,59.9999981689454,8|0,0:0|0:0,0:0:0:0:
186,60,2145,1,2,0:0:0:0:
311,142,2395,1,2,0:0:0:0:
392,90,2645,1,0,0:0:0:0:
380,246,2895,6,0,P|396:259|425:264,2,40,2|0|0,0:0|0:0|0:0,0:0:0:0:
314,322,3645,2,0,P|289:336|237:335,1,59.9999981689454,8|0,0:0|0:0,0:0:0:0:
68,333,4145,1,2,0:0:0:0:
199,262,4395,1,2,0:0:0:0:
218,174,4645,1,0,0:0:0:0:
118,48,4895,6,0,P|94:54|70:70,2,40,2|0|0,0:0|0:0|0:0,0:0:0:0:
86,191,5645,2,0,P|47:177|25:159,1,59.9999981689454,8|0,0:0|0:0,0:0:0:0:
180,140,6145,1,2,0:0:0:0:
285,245,6395,1,2,0:0:0:0:
419,182,6645,1,0,0:0:0:0:
342,45,6895,6,0,P|325:70|318:92,2,40,2|0|0,0:0|0:0|0:0,0:0:0:0:
419,182,7645,2,0,P|444:229|448:258,1,59.9999981689454,8|0,0:0|0:0,0:0:0:0:
363,360,8145,1,2,0:0:0:0:
235,286,8395,1,2,0:0:0:0:
148,327,8645,1,0,0:0:0:0:
237,175,8895,6,0,P|246:155|248:122,2,40,2|0|0,0:0|0:0|0:0,0:0:0:0:
78,217,9645,2,0,P|131:220|150:227,1,59.9999981689454,8|0,0:0|0:0,0:0:0:0:
236,265,10145,1,2,0:0:0:0:
326,145,10395,1,2,0:0:0:0:
244,93,10645,1,0,0:0:0:0:
349,252,10895,6,0,P|373:255|401:254,2,40,2|0|0,0:0|0:0|0:0,0:0:0:0:
326,145,11645,2,0,P|332:116|324:82,1,59.9999981689454,8|0,0:0|0:0,0:0:0:0:
226,1,12145,1,2,0:0:0:0:
97,76,12395,1,2,0:0:0:0:
17,20,12645,1,0,0:0:0:0:
118,170,12895,6,0,P|120:223|109:265,1,80,2|0,0:0|0:0,0:0:0:0:
6,365,13645,2,0,P|37:353|71:358,1,59.9999981689454,8|0,0:0|0:0,0:0:0:0:
165,377,14145,1,2,0:0:0:0:
271,273,14395,1,2,0:0:0:0:
408,329,14645,1,0,0:0:0:0:
508,195,14895,6,0,P|514:175|511:142,2,40,2|0|0,0:0|0:0|0:0,0:0:0:0:
328,184,15645,1,8,0:0:0:0:
357,268,15895,1,2,0:0:0:0:
357,268,16395,5,2,0:0:0:0:
340,269,16520,1,2,0:0:0:0:
324,269,16645,1,2,0:0:0:0:
124,272,16895,6,0,P|105:298|100:318,2,40,2|0|0,0:0|0:0|0:0,0:0:0:0:
215,219,17645,2,0,P|252:209|278:188,1,59.9999981689454,8|0,0:0|0:0,0:0:0:0:
286,59,18145,1,2,0:0:0:0:
399,158,18395,1,2,0:0:0:0:
488,126,18645,1,0,0:0:0:0:
463,293,18895,6,0,P|443:301|419:302,2,40,2|0|0,0:0|0:0|0:0,0:0:0:0:
341,347,19645,2,0,P|300:344|273:351,1,59.9999981689454,8|0,0:0|0:0,0:0:0:0:
141,373,20145,1,2,0:0:0:0:
198,234,20395,1,2,0:0:0:0:
125,171,20645,1,0,0:0:0:0:
44,312,20895,6,0,P|34:329|30:362,2,40,2|0|0,0:0|0:0|0:0,0:0:0:0:
243,293,21645,2,0,P|249:322|249:352,1,59.9999981689454,8|0,0:0|0:0,0:0:0:0:
102,260,22145,1,2,0:0:0:0:
224,176,22395,1,2,0:0:0:0:
155,45,22645,1,0,0:0:0:0:
312,101,22895,6,0,P|338:106|360:102,2,40,2|0|0,0:0|0:0|0:0,0:0:0:0:
155,45,23645,2,0,P|173:73|176:115,1,59.9999981689454,8|0,0:0|0:0,0:0:0:0:
115,232,24145,1,2,0:0:0:0:
231,323,24395,1,2,0:0:0:0:
317,281,24645,1,0,0:0:0:0:
463,371,24895,6,0,P|464:348|476:328,2,40,2|0|0,0:0|0:0|0:0,0:0:0:0:
502,198,25645,1,8,0:0:0:0:
503,183,26145,1,2,0:0:0:0:
366,242,26395,1,2,0:0:0:0:
269,210,26645,1,0,0:0:0:0:
174,351,26895,6,0,P|152:351|129:343,2,40,2|0|0,0:0|0:0|0:0,0:0:0:0:
163,232,27645,2,0,P|162:202|174:174,1,59.9999981689454,8|0,0:0|0:0,0:0:0:0:
292,116,28145,1,2,0:0:0:0:
430,175,28395,1,2,0:0:0:0:
506,116,28645,1,0,0:0:0:0:
395,3,28895,6,0,P|374:0|348:3,2,40,2|0|0,0:0|0:0|0:0,0:0:0:0:
430,175,29645,2,0,P|431:205|416:242,1,59.9999981689454,8|0,0:0|0:0,0:0:0:0:
234,293,30145,1,2,0:0:0:0:
234,293,30270,1,2,0:0:0:0:
234,293,30395,1,2,0:0:0:0:
328,178,30645,1,0,0:0:0:0:
241,58,30895,6,0,P|234:32|243:-3,2,59.9999981689454,2|0|0,0:0|0:0|0:0,0:0:0:0:
430,175,31645,1,8,0:0:0:0:
397,276,31895,1,2,0:0:0:0:
184,348,32895,5,10,0:0:0:0:
169,343,33020,1,0,0:0:0:0:
154,342,33145,1,0,0:0:0:0:
139,344,33270,1,0,0:0:0:0:
125,349,33395,5,2,0:0:0:0:
136,290,33520,1,2,0:0:0:0:
172,244,33645,1,2,0:0:0:0:
227,219,33770,1,2,0:0:0:0:
286,223,33895,5,2,0:0:0:0:
306,244,34020,1,0,0:0:0:0:
333,257,34145,1,0,0:0:0:0:
363,259,34270,1,0,0:0:0:0:
391,249,34395,6,0,L|407:198,1,44.999998626709,2|0,0:0|0:0,0:0:0:0:
292,336,34645,2,0,L|276:384,1,44.999998626709,2|0,0:0|0:0,0:0:0:0:
227,219,34895,5,10,0:0:0:0:
223,204,35020,1,0,0:0:0:0:
222,189,35145,1,0,0:0:0:0:
223,174,35270,1,0,0:0:0:0:
225,159,35395,5,2,0:0:0:0:
202,138,35520,1,2,0:0:0:0:
174,128,35645,1,2,0:0:0:0:
145,130,35770,1,2,0:0:0:0:
118,143,35895,6,0,L|109:214,1,44.999998626709,2|0,0:0|0:0,0:0:0:0:
58,270,36145,2,0,L|123:299,1,44.999998626709,2|0,0:0|0:0,0:0:0:0:
161,367,36395,2,0,L|209:314,1,44.999998626709,2|0,0:0|0:0,0:0:0:0:
284,298,36645,2,0,L|248:235,1,44.999998626709,2|0,0:0|0:0,0:0:0:0:
225,159,36895,5,10,0:0:0:0:
253,151,37020,1,0,0:0:0:0:
283,153,37145,1,0,0:0:0:0:
311,164,37270,1,0,0:0:0:0:
334,182,37395,1,2,0:0:0:0:
357,200,37520,1,0,0:0:0:0:
385,211,37645,1,0,0:0:0:0:
415,213,37770,1,0,0:0:0:0:
444,206,37895,6,0,L|459:150,1,44.999998626709,2|0,0:0|0:0,0:0:0:0:
378,113,38145,2,0,L|362:57,1,44.999998626709,2|0,0:0|0:0,0:0:0:0:
274,65,38395,2,0,L|233:24,1,44.999998626709,2|0,0:0|0:0,0:0:0:0:
160,75,38645,2,0,L|104:60,1,44.999998626709,2|0,0:0|0:0,0:0:0:0:
29,121,38895,5,10,0:0:0:0:
18,149,39020,1,0,0:0:0:0:
20,178,39145,1,0,0:0:0:0:
32,206,39270,1,0,0:0:0:0:
53,226,39395,1,2,0:0:0:0:
74,246,39520,1,0,0:0:0:0:
86,274,39645,1,0,0:0:0:0:
88,303,39770,1,0,0:0:0:0:
78,332,39895,6,0,L|27:342,1,44.999998626709,2|0,0:0|0:0,0:0:0:0:
169,372,40145,2,0,L|221:383,1,44.999998626709,2|0,0:0|0:0,0:0:0:0:
292,336,40395,2,0,L|344:325,1,44.999998626709,2|0,0:0|0:0,0:0:0:0:
421,371,40645,1,2,0:0:0:0:
421,371,40770,1,2,0:0:0:0:
421,371,40895,5,10,0:0:0:0:
418,341,41020,1,0,0:0:0:0:
424,312,41145,1,0,0:0:0:0:
440,286,41270,1,0,0:0:0:0:
507,231,41395,5,2,0:0:0:0:
510,201,41520,1,0,0:0:0:0:
504,172,41645,1,0,0:0:0:0:
488,146,41770,1,0,0:0:0:0:
401,147,41895,5,2,0:0:0:0:
371,150,42020,1,0,0:0:0:0:
342,144,42145,1,0,0:0:0:0:
316,128,42270,1,0,0:0:0:0:
261,61,42395,6,0,L|271:11,1,44.999998626709,2|0,0:0|0:0,0:0:0:0:
451,32,42645,2,0,L|438:82,1,44.999998626709,2|0,0:0|0:0,0:0:0:0:
308,210,42895,5,10,0:0:0:0:
278,209,43020,1,0,0:0:0:0:
250,198,43145,1,0,0:0:0:0:
230,176,43270,1,0,0:0:0:0:
174,109,43395,5,2,0:0:0:0:
164,137,43520,1,0,0:0:0:0:
144,159,43645,1,0,0:0:0:0:
118,172,43770,1,0,0:0:0:0:
36,205,43895,5,2,0:0:0:0:
60,223,44020,1,0,0:0:0:0:
74,249,44145,1,0,0:0:0:0:
79,277,44270,1,0,0:0:0:0:
85,365,44395,6,0,L|136:371,1,44.999998626709,2|0,0:0|0:0,0:0:0:0:
236,330,44645,2,0,L|285:336,1,44.999998626709,2|0,0:0|0:0,0:0:0:0:
394,327,44895,6,0,L|383:379,4,44.999998626709,10|0|0|0|0,0:0|0:0|0:0|0:0|0:0,0:0:0:0:
314,263,45520,6,0,L|302:207,1,44.999998626709,2|0,0:0|0:0,0:0:0:0:
231,148,45770,1,0,0:0:0:0:
223,150,45895,2,0,L|211:206,1,44.999998626709
365,168,46145,1,0,0:0:0:0:
370,162,46270,6,0,L|414:169,2,44.999998626709,2|0|0,0:0|0:0|0:0,0:0:0:0:
326,72,46645,6,0,L|281:79,1,44.999998626709,2|0,0:0|0:0,0:0:0:0:
420,252,46895,5,10,0:0:0:0:
427,251,47020,1,0,0:0:0:0:
434,251,47145,1,0,0:0:0:0:
442,250,47270,1,0,0:0:0:0:
449,250,47395,5,2,0:0:0:0:
422,214,47520,1,2,0:0:0:0:
416,170,47645,1,2,0:0:0:0:
431,128,47770,1,2,0:0:0:0:
464,99,47895,2,0,P|479:80|483:10,1,89.9999972534181,2|0,0:0|0:0,0:0:0:0:
405,41,48395,6,0,P|360:42|321:20,1,89.9999972534181,2|0,0:0|0:0,0:0:0:0:
240,42,48895,5,8,0:0:0:0:
122,131,49395,2,0,L|182:117,1,50,2|0,0:0|0:0,0:0:0:0:
254,129,49895,2,0,L|314:115,1,50,2|0,0:0|0:0,0:0:0:0:
386,127,50395,2,0,L|446:113,1,50,2|0,0:0|0:0,0:0:0:0:
490,193,50895,5,8,0:0:0:0:
512,338,51395,2,0,L|452:324,1,50,2|0,0:0|0:0,0:0:0:0:
380,336,51895,2,0,L|320:322,1,50,2|0,0:0|0:0,0:0:0:0:
248,334,52395,2,0,L|188:320,1,50,2|0,0:0|0:0,0:0:0:0:
121,234,52895,6,0,P|124:269|132:285,1,50,10|0,0:0|0:0,0:0:0:0:
208,241,53395,2,0,P|216:217|217:192,1,50,2|0,0:0|0:0,0:0:0:0:
203,115,53895,1,2,0:0:0:0:
0,39,54645,1,2,0:0:0:0:
85,1,54895,6,0,L|90:63,1,50,10|0,0:0|0:0,0:0:0:0:
43,115,55395,2,0,L|38:177,1,50,2|0,0:0|0:0,0:0:0:0:
119,229,55895,2,0,P|79:232|30:277,1,100,2|0,0:0|0:0,0:0:0:0:
2,380,56895,5,8,0:0:0:0:
108,317,57395,2,0,L|169:328,1,50,2|0,0:0|0:0,0:0:0:0:
237,301,57895,1,2,0:0:0:0:
237,301,58145,2,0,P|289:298|337:314,1,100,2|0,0:0|0:0,0:0:0:0:
392,367,58895,5,8,0:0:0:0:
486,286,59395,2,0,L|495:227,1,50,2|0,0:0|0:0,0:0:0:0:
452,164,59895,1,2,0:0:0:0:
452,164,60145,2,0,P|442:124|461:69,1,100,2|0,0:0|0:0,0:0:0:0:
504,9,60895,6,0,P|448:27|392:8,1,119.999996337891,10|0,0:0|0:0,0:0:0:0:
391,7,62895,5,2,0:0:0:0:
391,7,63895,5,2,0:0:0:0:
266,87,64395,1,2,0:0:0:0:
62,18,64895,6,0,P|22:41|0:72,1,69.9999978637696,8|0,0:0|0:0,0:0:0:0:
66,223,65395,1,2,0:0:0:0:
12,83,65645,1,2,0:0:0:0:
194,197,65895,2,0,P|238:188|263:174,1,69.9999978637696,2|0,0:0|0:0,0:0:0:0:
362,126,66395,2,0,P|406:135|431:149,1,69.9999978637696,2|0,0:0|0:0,0:0:0:0:
426,372,66895,6,0,P|411:331|425:275,1,69.9999978637696,8|0,0:0|0:0,0:0:0:0:
508,161,67395,1,2,0:0:0:0:
423,284,67645,1,2,0:0:0:0:
290,110,67895,2,0,P|236:106|199:133,1,69.9999978637696,2|0,0:0|0:0,0:0:0:0:
160,208,68395,2,0,P|106:212|69:185,1,69.9999978637696,2|0,0:0|0:0,0:0:0:0:
39,17,68895,6,0,P|68:63|68:93,1,69.9999978637696,8|0,0:0|0:0,0:0:0:0:
13,242,69395,1,2,0:0:0:0:
60,100,69645,1,2,0:0:0:0:
134,290,69895,2,0,B|249:348|252:230|386:293,1,244.999992523194,2|0,0:0|0:0,0:0:0:0:
401,300,70895,6,0,P|368:262|470:140,1,239.999992675781,8|0,0:0|0:0,0:0:0:0:
461,138,72395,2,0,L|390:135,1,50,2|0,0:0|0:0,0:0:0:0:
267,230,72895,6,0,B|289:132|289:132|260:30,1,200,8|2,0:0|0:0,0:0:0:0:
261,36,74395,1,2,0:0:0:0:
22,13,74895,6,0,L|29:128,1,100,8|0,0:0|0:0,0:0:0:0:
134,262,75645,2,0,L|140:162,1,100,2|0,0:0|0:0,0:0:0:0:
149,23,76395,1,2,0:0:0:0:
149,23,76895,6,0,P|170:69|272:9,1,200,8|0,0:0|0:0,0:0:0:0:
364,79,78395,2,0,L|420:75,1,50,2|2,0:0|0:0,0:0:0:0:
505,12,78895,6,0,P|492:40|494:78,2,59.9999981689454,2|0|0,0:0|0:0|0:0,0:0:0:0:
505,148,79645,2,0,P|507:181|490:228,1,59.9999981689454,8|0,0:0|0:0,0:0:0:0:
400,286,80145,1,2,0:0:0:0:
261,230,80395,1,2,0:0:0:0:
197,302,80645,1,0,0:0:0:0:
61,209,80895,6,0,P|23:213|10:220,2,40,2|0|0,0:0|0:0|0:0,0:0:0:0:
183,226,81645,2,0,P|196:189|192:160,1,59.9999981689454,8|0,0:0|0:0,0:0:0:0:
41,36,82145,1,2,0:0:0:0:
183,84,82395,1,2,0:0:0:0:
270,40,82645,1,0,0:0:0:0:
433,177,82895,6,0,P|431:203|422:224,2,40,2|0|0,0:0|0:0|0:0,0:0:0:0:
452,63,83645,2,0,P|409:65|383:76,1,59.9999981689454,8|0,0:0|0:0,0:0:0:0:
263,122,84145,1,2,0:0:0:0:
254,270,84395,1,2,0:0:0:0:
396,314,84645,1,0,0:0:0:0:
512,182,84895,6,0,P|469:173|424:180,1,80,2|0,0:0|0:0,0:0:0:0:
396,314,85645,2,0,P|364:324|333:320,1,59.9999981689454,8|0,0:0|0:0,0:0:0:0:
235,231,86145,1,2,0:0:0:0:
141,345,86395,1,2,0:0:0:0:
5,288,86645,1,0,0:0:0:0:
65,134,86895,6,0,P|55:77|37:53,1,80,2|0,0:0|0:0,0:0:0:0:
132,214,87645,2,0,P|169:221|194:214,1,59.9999981689454,8|0,0:0|0:0,0:0:0:0:
292,108,88145,1,2,0:0:0:0:
439,136,88395,1,2,0:0:0:0:
495,58,88645,1,0,0:0:0:0:
474,224,88895,6,0,P|476:253|480:266,2,40,2|0|0,0:0|0:0|0:0,0:0:0:0:
375,229,89645,2,0,P|348:200|327:188,1,59.9999981689454,8|0,0:0|0:0,0:0:0:0:
158,158,90145,1,2,0:0:0:0:
160,308,90395,1,2,0:0:0:0:
75,353,90645,1,0,0:0:0:0:
3,191,90895,6,0,P|25:189|43:195,2,40,2|0|0,0:0|0:0|0:0,0:0:0:0:
2,70,91645,2,0,P|2:32|11:4,1,59.9999981689454,8|0,0:0|0:0,0:0:0:0:
155,115,92145,1,2,0:0:0:0:
297,75,92395,1,2,0:0:0:0:
377,198,92645,1,0,0:0:0:0:
297,345,92895,6,0,P|257:350|219:340,1,80,2|0,0:0|0:0,0:0:0:0:
125,230,93645,1,8,0:0:0:0:
212,250,93895,1,2,0:0:0:0:
212,250,94395,5,2,0:0:0:0:
216,233,94520,1,2,0:0:0:0:
222,218,94645,1,2,0:0:0:0:
250,68,94895,6,0,P|243:36|233:22,2,40,2|0|0,0:0|0:0|0:0,0:0:0:0:
178,133,95645,2,0,P|139:143|107:139,1,59.9999981689454,8|0,0:0|0:0,0:0:0:0:
0,82,96145,1,2,0:0:0:0:
67,216,96395,1,2,0:0:0:0:
20,299,96645,1,0,0:0:0:0:
143,378,96895,6,0,P|175:381|192:377,2,40,2|0|0,0:0|0:0|0:0,0:0:0:0:
165,236,97645,2,0,P|184:212|216:202,1,59.9999981689454,8|0,0:0|0:0,0:0:0:0:
338,222,98145,1,2,0:0:0:0:
374,77,98395,1,2,0:0:0:0:
289,33,98645,1,0,0:0:0:0:
472,60,98895,6,0,P|481:26|488:13,2,40,2|0|0,0:0|0:0|0:0,0:0:0:0:
493,185,99645,2,0,P|453:154|424:156,1,59.9999981689454,8|0,0:0|0:0,0:0:0:0:
299,180,100145,1,2,0:0:0:0:
192,282,100395,1,2,0:0:0:0:
52,233,100645,1,0,0:0:0:0:
115,61,100895,6,0,P|121:31|119:15,2,40,2|0|0,0:0|0:0|0:0,0:0:0:0:
214,180,101645,2,0,P|186:192|156:194,1,59.9999981689454,8|0,0:0|0:0,0:0:0:0:
69,136,102145,1,2,0:0:0:0:
196,57,102395,1,2,0:0:0:0:
285,97,102645,1,0,0:0:0:0:
468,72,102895,6,0,P|475:103|475:116,2,40,2|0|0,0:0|0:0|0:0,0:0:0:0:
454,249,103645,1,8,0:0:0:0:
445,236,104145,1,2,0:0:0:0:
306,296,104395,1,2,0:0:0:0:
243,222,104645,1,0,0:0:0:0:
167,362,104895,6,0,P|145:368|125:366,2,40,2|0|0,0:0|0:0|0:0,0:0:0:0:
49,319,105645,2,0,P|30:295|28:254,1,59.9999981689454,8|0,0:0|0:0,0:0:0:0:
44,136,106145,1,2,0:0:0:0:
172,215,106395,1,2,0:0:0:0:
248,156,106645,1,0,0:0:0:0:
368,249,106895,6,0,P|397:247|413:242,2,40,2|0|0,0:0|0:0|0:0,0:0:0:0:
296,370,107645,2,0,P|295:331|286:302,1,59.9999981689454,8|0,0:0|0:0,0:0:0:0:
128,235,108145,1,2,0:0:0:0:
275,216,108395,1,2,0:0:0:0:
317,74,108645,1,0,0:0:0:0:
105,7,108895,6,0,P|77:19|55:39,2,59.9999981689454,2|0|0,0:0|0:0|0:0,0:0:0:0:
317,74,109645,1,10,0:0:0:0:
400,138,109895,1,2,0:0:0:0:
395,245,110145,1,2,0:0:0:0:
322,298,110395,1,2,0:0:0:0:
246,284,110645,1,2,0:0:0:0:
216,164,110895,5,10,0:0:0:0:
230,161,111020,1,0,0:0:0:0:
245,160,111145,1,0,0:0:0:0:
260,161,111270,1,0,0:0:0:0:
275,164,111395,1,2,0:0:0:0:
289,168,111520,1,0,0:0:0:0:
303,174,111645,1,0,0:0:0:0:
316,182,111770,1,0,0:0:0:0:
328,191,111895,5,2,0:0:0:0:
357,194,112020,1,0,0:0:0:0:
386,186,112145,1,0,0:0:0:0:
411,168,112270,1,0,0:0:0:0:
427,144,112395,6,0,L|437:91,1,44.999998626709,2|0,0:0|0:0,0:0:0:0:
293,89,112645,2,0,L|301:38,1,44.999998626709,2|0,0:0|0:0,0:0:0:0:
329,192,112895,5,10,0:0:0:0:
344,217,113020,1,0,0:0:0:0:
351,246,113145,1,0,0:0:0:0:
349,276,113270,1,0,0:0:0:0:
339,305,113395,5,2,0:0:0:0:
291,269,113520,1,2,0:0:0:0:
233,254,113645,1,2,0:0:0:0:
174,261,113770,1,2,0:0:0:0:
121,290,113895,6,0,L|83:249,1,44.999998626709,2|0,0:0|0:0,0:0:0:0:
6,206,114145,2,0,L|33:157,1,44.999998626709,2|0,0:0|0:0,0:0:0:0:
51,70,114395,2,0,L|105:80,1,44.999998626709,2|0,0:0|0:0,0:0:0:0:
194,70,114645,2,0,L|200:125,1,44.999998626709,2|0,0:0|0:0,0:0:0:0:
211,225,114895,5,10,0:0:0:0:
238,238,115020,1,0,0:0:0:0:
268,243,115145,1,0,0:0:0:0:
297,239,115270,1,0,0:0:0:0:
325,226,115395,1,2,0:0:0:0:
352,213,115520,1,0,0:0:0:0:
381,209,115645,1,0,0:0:0:0:
411,214,115770,1,0,0:0:0:0:
437,227,115895,6,0,L|437:300,1,44.999998626709,2|0,0:0|0:0,0:0:0:0:
352,314,116145,2,0,L|315:377,1,44.999998626709,2|0,0:0|0:0,0:0:0:0:
236,345,116395,2,0,L|172:381,1,44.999998626709,2|0,0:0|0:0,0:0:0:0:
120,314,116645,2,0,L|47:314,1,44.999998626709,2|0,0:0|0:0,0:0:0:0:
12,237,116895,5,10,0:0:0:0:
7,207,117020,1,0,0:0:0:0:
10,177,117145,1,0,0:0:0:0:
24,150,117270,1,0,0:0:0:0:
46,130,117395,1,2,0:0:0:0:
67,108,117520,1,0,0:0:0:0:
80,82,117645,1,0,0:0:0:0:
84,52,117770,1,0,0:0:0:0:
77,23,117895,6,0,L|25:30,1,44.999998626709,2|0,0:0|0:0,0:0:0:0:
174,57,118145,2,0,L|229:66,1,44.999998626709,2|0,0:0|0:0,0:0:0:0:
301,29,118395,2,0,L|356:20,1,44.999998626709,2|0,0:0|0:0,0:0:0:0:
454,38,118645,1,2,0:0:0:0:
454,38,118770,1,2,0:0:0:0:
454,38,118895,5,10,0:0:0:0:
440,64,119020,1,0,0:0:0:0:
434,93,119145,1,0,0:0:0:0:
435,123,119270,1,0,0:0:0:0:
484,197,119395,5,2,0:0:0:0:
497,223,119520,1,0,0:0:0:0:
503,252,119645,1,0,0:0:0:0:
502,282,119770,1,0,0:0:0:0:
423,320,119895,5,2,0:0:0:0:
393,318,120020,1,0,0:0:0:0:
363,324,120145,1,0,0:0:0:0:
337,338,120270,1,0,0:0:0:0:
240,378,120395,6,0,L|191:374,1,44.999998626709,2|0,0:0|0:0,0:0:0:0:
329,239,120645,2,0,L|381:240,1,44.999998626709,2|0,0:0|0:0,0:0:0:0:
185,297,120895,5,10,0:0:0:0:
168,272,121020,1,0,0:0:0:0:
145,252,121145,1,0,0:0:0:0:
118,239,121270,1,0,0:0:0:0:
34,218,121395,5,2,0:0:0:0:
52,194,121520,1,0,0:0:0:0:
63,166,121645,1,0,0:0:0:0:
68,137,121770,1,0,0:0:0:0:
62,50,121895,5,2,0:0:0:0:
90,59,122020,1,0,0:0:0:0:
120,61,122145,1,0,0:0:0:0:
150,57,122270,1,0,0:0:0:0:
230,25,122395,6,0,L|250:69,1,44.999998626709,2|0,0:0|0:0,0:0:0:0:
321,162,122645,2,0,L|293:220,1,44.999998626709,2|0,0:0|0:0,0:0:0:0:
206,300,122895,6,0,L|257:291,3,44.999998626709,10|0|0|0,0:0|0:0|0:0|0:0,0:0:0:0:
202,377,123395,2,0,L|251:368,3,44.999998626709,2|0|0|0,0:0|0:0|0:0|0:0,0:0:0:0:
359,302,123895,6,0,L|409:291,1,44.999998626709,2|0,0:0|0:0,0:0:0:0:
234,222,124145,2,0,L|182:230,1,44.999998626709,2|0,0:0|0:0,0:0:0:0:
357,212,124395,2,0,L|365:162,1,44.999998626709,2|0,0:0|0:0,0:0:0:0:
256,324,124645,2,0,L|244:378,1,44.999998626709,2|0,0:0|0:0,0:0:0:0:
411,370,124895,5,10,0:0:0:0:
418,371,125020,1,0,0:0:0:0:
425,372,125145,1,0,0:0:0:0:
433,374,125270,1,0,0:0:0:0:
440,375,125395,5,2,0:0:0:0:
417,319,125520,1,2,0:0:0:0:
420,260,125645,1,2,0:0:0:0:
447,207,125770,1,2,0:0:0:0:
495,171,125895,2,0,L|513:189,1,14.9999995422363,2|0,0:0|0:0,0:0:0:0:
326,23,126395,6,0,L|336:33,2,14.9999995422363,2|0|0,0:0|0:0|0:0,0:0:0:0:
140,2,126895,5,8,0:0:0:0:
279,78,127395,2,0,L|288:151,1,50,2|0,0:0|0:0,0:0:0:0:
249,204,127895,1,2,0:0:0:0:
249,204,128145,2,0,L|263:323,1,100,2|0,0:0|0:0,0:0:0:0:
331,352,128895,5,8,0:0:0:0:
453,250,129395,2,0,L|388:244,1,50,2|0,0:0|0:0,0:0:0:0:
337,193,129895,1,2,0:0:0:0:
337,193,130145,2,0,L|272:187,1,50,2|0,0:0|0:0,0:0:0:0:
221,136,130645,1,2,0:0:0:0:
116,210,130895,6,0,P|147:207|175:186,1,50,8|0,0:0|0:0,0:0:0:0:
118,128,131395,2,0,P|95:117|70:116,1,50,2|0,0:0|0:0,0:0:0:0:
9,172,131895,2,0,L|4:283,1,100,2|0,0:0|0:0,0:0:0:0:
1,350,132645,1,2,0:0:0:0:
124,282,132895,5,8,0:0:0:0:
186,333,133145,1,2,0:0:0:0:
265,331,133395,1,2,0:0:0:0:
325,278,133645,2,0,P|350:268|423:282,1,89.9999972534181,2|0,0:0|0:0,0:0:0:0:
505,378,134895,5,8,0:0:0:0:
411,275,135395,2,0,L|414:208,1,50,2|0,0:0|0:0,0:0:0:0:
359,161,135895,1,2,0:0:0:0:
359,161,136145,2,0,P|352:109|363:53,1,100,2|0,0:0|0:0,0:0:0:0:
417,0,136895,5,8,0:0:0:0:
282,61,137395,2,0,L|223:55,1,50,2|0,0:0|0:0,0:0:0:0:
161,101,137895,1,2,0:0:0:0:
161,101,138145,2,0,P|109:105|50:82,1,100,2|0,0:0|0:0,0:0:0:0:
4,38,138895,6,0,P|23:68|28:159,1,119.999996337891,8|0,0:0|0:0,0:0:0:0:
30,150,140895,5,2,0:0:0:0:
30,150,141895,5,2,0:0:0:0:
151,236,142395,1,2,0:0:0:0:
4,377,142895,6,0,L|37:375,3,19.9999993896485,8|0|0|0,0:0|0:0|0:0|0:0,0:0:0:0:
82,278,143395,1,2,0:0:0:0:
82,278,143645,1,2,0:0:0:0:
191,227,143895,2,0,P|201:255|200:284,1,59.9999981689454,2|0,0:0|0:0,0:0:0:0:
103,179,144395,2,0,P|102:149|112:121,1,59.9999981689454,2|0,0:0|0:0,0:0:0:0:
189,38,144895,6,0,L|211:39,3,19.9999993896485,8|0|0|0,0:0|0:0|0:0|0:0,0:0:0:0:
255,131,145395,1,2,0:0:0:0:
255,131,145645,1,2,0:0:0:0:
374,141,145895,2,0,P|373:111|362:83,1,59.9999981689454,2|0,0:0|0:0,0:0:0:0:
308,216,146395,2,0,P|317:244|336:267,1,59.9999981689454,2|0,0:0|0:0,0:0:0:0:
488,356,146895,6,0,L|492:288,1,59.9999981689454,8|0,0:0|0:0,0:0:0:0:
417,232,147395,2,0,L|413:291,1,59.9999981689454,2|2,0:0|0:0,0:0:0:0:
510,197,147895,2,0,P|447:137|334:179,1,209.999993591309,2|0,0:0|0:0,0:0:0:0:
318,200,148895,6,0,B|236:164|236:228|154:194,1,160,10|0,0:0|0:0,0:0:0:0:
162,197,150395,1,2,0:0:0:0:
155,273,150645,1,2,0:0:0:0:
26,351,150895,6,0,P|31:278|84:227,1,150,10|0,0:0|0:0,0:0:0:0:
162,197,151895,1,2,0:0:0:0:
338,295,152395,1,2,0:0:0:0:
374,200,152895,6,0,P|313:197|261:230,1,125,10|0,0:0|0:0,0:0:0:0:
241,251,153645,2,0,L|249:125,1,125,2|0,0:0|0:0,0:0:0:0:
251,99,154395,2,0,P|225:85|175:89,1,75,2|0,0:0|0:0,0:0:0:0:
152,98,154895,6,0,P|154:72|15:40,1,209.999993591309,10|0,0:0|0:0,0:0:0:0:
21,122,156895,6,0,L|17:145,3,25,2|0|0|0,0:0|0:0|0:0|0:0,0:0:0:0:
34,147,157180,6,0,L|30:172,2,25,2|2|2,0:0|0:0|0:0,0:0:0:0:
