osu file format v14

[General]
AudioFilename: audio.mp3
AudioLeadIn: 0
PreviewTime: 770
Countdown: 0
SampleSet: Soft
StackLeniency: 0.5
Mode: 0
LetterboxInBreaks: 0
WidescreenStoryboard: 1

[Editor]
Bookmarks: 895,16895,32895,48895,64895,78895,94895,110895,126895,142895,157323
DistanceSpacing: 1.7
BeatDivisor: 4
GridSize: 32
TimelineZoom: 1.2

[Metadata]
Title:Neige Immaculee
TitleUnicode:Neige Immaculée
Artist:Raven's Jig
ArtistUnicode:Raven's Jig
Creator:Maardhen
Version:Hard
Source:東方妖々夢 ~ Perfect Cherry Blossom.
Tags:Saison des cerises クリスタライズシルバー Crystallized Silver kao2 白銀桜華の降る郷 Japan Expo Paris 2019 redtails akhts french Team Shanghai Alice 上海アリス幻樂団 ZUN video game 東方project touhou stage 1 boss theme Letty Whiterock Cirno
BeatmapID:2240355
BeatmapSetID:1070288

[Difficulty]
HPDrainRate:4.5
CircleSize:3.8
OverallDifficulty:6
ApproachRate:7
SliderMultiplier:1.8
SliderTickRate:1

[Events]
//Background and Video events
0,0,"31454951_p00.jpg",0,0
//Break Periods
//Storyboard Layer 0 (Background)
//Storyboard Layer 1 (Fail)
//Storyboard Layer 2 (Pass)
//Storyboard Layer 3 (Foreground)
//Storyboard Layer 4 (Overlay)
//Storyboard Sound Samples

[TimingPoints]
895,500,4,2,1,40,1,0
895,-200,4,2,1,40,0,0
1395,-200,4,2,1,20,0,0
1645,-200,4,2,1,40,0,0
2895,-200,4,2,1,40,0,0
3395,-200,4,2,1,20,0,0
3645,-200,4,2,1,40,0,0
4895,-200,4,2,1,40,0,0
5395,-200,4,2,1,20,0,0
5645,-200,4,2,1,40,0,0
6895,-200,4,2,1,40,0,0
7395,-200,4,2,1,20,0,0
7645,-200,4,2,1,40,0,0
8895,-200,4,2,1,40,0,0
9395,-200,4,2,1,20,0,0
9645,-200,4,2,1,40,0,0
10895,-200,4,2,1,40,0,0
11395,-200,4,2,1,20,0,0
11645,-200,4,2,1,40,0,0
12895,-200,4,2,1,40,0,0
13395,-200,4,2,1,20,0,0
13645,-200,4,2,1,40,0,0
14895,-200,4,2,1,40,0,0
15395,-200,4,2,1,20,0,0
15645,-200,4,2,1,40,0,0
16895,-200,4,2,1,40,0,0
17395,-200,4,2,1,20,0,0
17645,-200,4,2,1,40,0,0
18895,-200,4,2,1,40,0,0
19395,-200,4,2,1,20,0,0
19645,-200,4,2,1,40,0,0
20895,-200,4,2,1,40,0,0
21395,-200,4,2,1,20,0,0
21645,-200,4,2,1,40,0,0
22895,-200,4,2,1,40,0,0
23395,-200,4,2,1,20,0,0
23645,-200,4,2,1,40,0,0
24895,-200,4,2,1,40,0,0
25395,-200,4,2,1,20,0,0
25645,-200,4,2,1,40,0,0
26895,-200,4,2,1,40,0,0
27395,-200,4,2,1,20,0,0
27645,-200,4,2,1,40,0,0
28895,-200,4,2,1,40,0,0
29395,-200,4,2,1,20,0,0
29645,-200,4,2,1,40,0,0
30895,-200,4,2,1,40,0,0
31395,-200,4,2,1,20,0,0
31645,-200,4,2,1,40,0,0
32895,-125,4,2,1,50,0,0
47895,-166.666666666667,4,2,1,50,0,0
48895,-200,4,2,1,40,0,0
49395,-200,4,2,1,30,0,0
49645,-200,4,2,1,10,0,0
49895,-200,4,2,1,30,0,0
50145,-200,4,2,1,10,0,0
50395,-200,4,2,1,30,0,0
50645,-200,4,2,1,10,0,0
50895,-200,4,2,1,40,0,0
51395,-200,4,2,1,30,0,0
51645,-200,4,2,1,10,0,0
51895,-200,4,2,1,30,0,0
52145,-200,4,2,1,10,0,0
52395,-200,4,2,1,30,0,0
52645,-200,4,2,1,10,0,0
52895,-200,4,2,1,40,0,0
53145,-200,4,2,1,10,0,0
53395,-200,4,2,1,30,0,0
53645,-200,4,2,1,10,0,0
53895,-200,4,2,1,30,0,0
54895,-200,4,2,1,40,0,0
55145,-200,4,2,1,10,0,0
55395,-200,4,2,1,30,0,0
55645,-200,4,2,1,10,0,0
55895,-200,4,2,1,30,0,0
56895,-200,4,2,1,40,0,0
57395,-200,4,2,1,30,0,0
57645,-200,4,2,1,10,0,0
57895,-200,4,2,1,30,0,0
58895,-200,4,2,1,40,0,0
59395,-200,4,2,1,30,0,0
59645,-200,4,2,1,10,0,0
59895,-200,4,2,1,30,0,0
60645,-200,4,2,1,10,0,0
60895,-333.333333333333,4,2,1,40,0,0
61894,-333.333333333333,4,2,1,30,0,0
64895,-142.857142857143,4,2,2,40,0,0
65144,-142.857142857143,4,2,2,20,0,0
65395,-142.857142857143,4,2,2,40,0,0
65895,-142.857142857143,4,2,1,40,0,0
66895,-142.857142857143,4,2,2,40,0,0
67144,-142.857142857143,4,2,2,20,0,0
67395,-142.857142857143,4,2,2,40,0,0
67895,-142.857142857143,4,2,1,40,0,0
68895,-142.857142857143,4,2,2,40,0,0
69144,-142.857142857143,4,2,2,20,0,0
69395,-142.857142857143,4,2,2,40,0,0
69895,-142.857142857143,4,2,1,40,0,0
70769,-142.857142857143,4,2,1,20,0,0
70895,-142.857142857143,4,2,2,40,0,0
71894,-142.857142857143,4,2,2,20,0,0
72395,-200,4,2,1,40,0,0
73895,-200,4,2,1,20,0,0
74395,-200,4,2,1,40,0,0
77895,-200,4,2,1,20,0,0
78395,-200,4,2,1,40,0,0
78895,-200,4,2,1,40,0,0
79395,-200,4,2,1,20,0,0
79645,-200,4,2,1,40,0,0
80895,-200,4,2,1,40,0,0
81395,-200,4,2,1,20,0,0
81645,-200,4,2,1,40,0,0
82895,-200,4,2,1,40,0,0
83395,-200,4,2,1,20,0,0
83645,-200,4,2,1,40,0,0
84895,-200,4,2,1,40,0,0
85395,-200,4,2,1,20,0,0
85645,-200,4,2,1,40,0,0
86895,-200,4,2,1,40,0,0
87395,-200,4,2,1,20,0,0
87645,-200,4,2,1,40,0,0
88895,-200,4,2,1,40,0,0
89395,-200,4,2,1,20,0,0
89645,-200,4,2,1,40,0,0
90895,-200,4,2,1,40,0,0
91395,-200,4,2,1,20,0,0
91645,-200,4,2,1,40,0,0
92895,-200,4,2,1,40,0,0
93395,-200,4,2,1,20,0,0
93645,-200,4,2,1,40,0,0
94895,-200,4,2,1,40,0,0
95395,-200,4,2,1,20,0,0
95645,-200,4,2,1,40,0,0
96895,-200,4,2,1,40,0,0
97395,-200,4,2,1,20,0,0
97645,-200,4,2,1,40,0,0
98895,-200,4,2,1,40,0,0
99395,-200,4,2,1,20,0,0
99645,-200,4,2,1,40,0,0
100895,-200,4,2,1,40,0,0
101395,-200,4,2,1,20,0,0
101645,-200,4,2,1,40,0,0
102895,-200,4,2,1,40,0,0
103395,-200,4,2,1,20,0,0
103645,-200,4,2,1,40,0,0
104895,-200,4,2,1,40,0,0
105395,-200,4,2,1,20,0,0
105645,-200,4,2,1,40,0,0
106895,-200,4,2,1,40,0,0
107395,-200,4,2,1,20,0,0
107645,-200,4,2,1,40,0,0
108895,-200,4,2,1,40,0,0
109395,-200,4,2,1,20,0,0
109645,-200,4,2,1,40,0,0
110895,-125,4,2,1,50,0,0
125895,-166.666666666667,4,2,1,50,0,0
126895,-200,4,2,1,40,0,0
127395,-200,4,2,1,30,0,0
127645,-200,4,2,1,10,0,0
127895,-200,4,2,1,30,0,0
128645,-200,4,2,1,10,0,0
128895,-200,4,2,1,40,0,0
129395,-200,4,2,1,30,0,0
129645,-200,4,2,1,10,0,0
129895,-200,4,2,1,30,0,0
130895,-200,4,2,1,40,0,0
131145,-200,4,2,1,10,0,0
131395,-200,4,2,1,30,0,0
131645,-200,4,2,1,10,0,0
131895,-200,4,2,1,30,0,0
132895,-200,4,2,1,40,0,0
133145,-200,4,2,1,30,0,0
133645,-333.333333333333,4,2,1,30,0,0
134394,-333.333333333333,4,2,1,10,0,0
134895,-200,4,2,1,40,0,0
135395,-200,4,2,1,30,0,0
135645,-200,4,2,1,10,0,0
135895,-200,4,2,1,30,0,0
136895,-200,4,2,1,40,0,0
137395,-200,4,2,1,30,0,0
137645,-200,4,2,1,10,0,0
137895,-200,4,2,1,30,0,0
138645,-200,4,2,1,10,0,0
138895,-333.333333333333,4,2,1,40,0,0
139894,-333.333333333333,4,2,1,10,0,0
140895,-333.333333333333,4,2,1,30,0,0
142895,-200,4,2,2,30,0,0
143895,-200,4,2,1,30,0,0
144895,-200,4,2,2,30,0,0
145895,-200,4,2,1,30,0,0
146895,-200,4,2,2,30,0,0
147145,-200,4,2,2,10,0,0
147395,-200,4,2,2,30,0,0
147895,-200,4,2,1,30,0,0
148645,-200,4,2,1,20,0,0
148895,-250,4,2,2,30,0,0
149895,-250,4,2,2,10,0,0
150395,-250,4,2,1,30,0,0
150895,-200,4,2,1,30,0,0
154895,-333.333333333333,4,2,1,30,0,0
156644,-333.333333333333,4,2,1,10,0,0
156895,571.428571428571,4,2,1,30,1,0
156895,-100,4,2,1,30,0,0
157180,-100,4,2,1,40,0,0
157323,-100,4,2,1,50,0,0

[Colours]
Combo1 : 179,116,199
Combo2 : 0,103,206
Combo3 : 232,163,87
Combo4 : 61,196,235

[HitObjects]
195,313,895,6,0,P|209:297|224:223,1,90,2|0,0:0|0:0,0:0:0:0:
206,157,1645,1,8,0:0:0:0:
258,14,2145,1,2,0:0:0:0:
328,44,2395,1,2,0:0:0:0:
398,14,2645,1,0,0:0:0:0:
468,44,2895,6,0,P|473:87|454:140,1,90,2|0,0:0|0:0,0:0:0:0:
418,195,3645,1,8,0:0:0:0:
471,339,4145,1,2,0:0:0:0:
401,369,4395,1,2,0:0:0:0:
324,361,4645,1,0,0:0:0:0:
252,334,4895,6,0,P|205:326|159:343,1,90,2|0,0:0|0:0,0:0:0:0:
101,381,5645,1,8,0:0:0:0:
3,263,6145,1,2,0:0:0:0:
34,193,6395,1,2,0:0:0:0:
39,116,6645,1,0,0:0:0:0:
14,43,6895,6,0,P|42:12|105:11,1,90,2|0,0:0|0:0,0:0:0:0:
159,31,7645,1,8,0:0:0:0:
310,54,8145,1,2,0:0:0:0:
285,126,8395,1,2,0:0:0:0:
310,198,8645,1,0,0:0:0:0:
285,270,8895,6,0,P|293:312|337:355,1,90,2|0,0:0|0:0,0:0:0:0:
395,371,9645,1,8,0:0:0:0:
503,262,10145,1,2,0:0:0:0:
432,232,10395,1,2,0:0:0:0:
427,155,10645,1,0,0:0:0:0:
474,94,10895,6,0,P|494:71|500:3,1,90,2|0,0:0|0:0,0:0:0:0:
428,31,11645,1,8,0:0:0:0:
275,26,12145,1,2,0:0:0:0:
200,8,12395,1,2,0:0:0:0:
125,26,12645,1,0,0:0:0:0:
50,8,12895,6,0,P|22:48|15:92,1,90,2|0,0:0|0:0,0:0:0:0:
57,151,13645,1,8,0:0:0:0:
18,298,14145,1,2,0:0:0:0:
63,359,14395,1,2,0:0:0:0:
139,357,14645,1,0,0:0:0:0:
193,302,14895,6,0,P|204:266|195:207,1,90,2|0,0:0|0:0,0:0:0:0:
169,143,15645,2,0,P|166:120|173:90,1,45,8|2,0:0|0:0,0:0:0:0:
290,4,16395,2,0,L|325:-3,2,22.5,2|2|2,0:0|0:0|0:0,0:0:0:0:
271,78,16895,6,0,P|306:123|356:138,1,90,2|0,0:0|0:0,0:0:0:0:
411,130,17645,1,8,0:0:0:0:
483,264,18145,1,2,0:0:0:0:
407,250,18395,1,2,0:0:0:0:
341,289,18645,1,0,0:0:0:0:
313,360,18895,6,0,P|260:363|215:343,1,90,2|0,0:0|0:0,0:0:0:0:
176,291,19645,1,8,0:0:0:0:
37,356,20145,1,2,0:0:0:0:
7,285,20395,1,2,0:0:0:0:
19,209,20645,1,0,0:0:0:0:
69,151,20895,6,0,P|90:111|99:57,1,90,2|0,0:0|0:0,0:0:0:0:
49,8,21645,1,8,0:0:0:0:
181,84,22145,1,2,0:0:0:0:
252,57,22395,1,2,0:0:0:0:
323,84,22645,1,0,0:0:0:0:
394,57,22895,6,0,P|454:54|494:82,1,90,2|0,0:0|0:0,0:0:0:0:
506,139,23645,1,8,0:0:0:0:
369,208,24145,1,2,0:0:0:0:
357,283,24395,1,2,0:0:0:0:
415,332,24645,1,0,0:0:0:0:
491,325,24895,6,0,P|496:297|480:232,1,90,2|0,0:0|0:0,0:0:0:0:
438,175,25645,1,8,0:0:0:0:
438,175,26145,1,2,0:0:0:0:
387,232,26395,1,2,0:0:0:0:
310,238,26645,1,0,0:0:0:0:
249,191,26895,6,0,P|181:181|145:195,1,90,2|0,0:0|0:0,0:0:0:0:
96,226,27645,1,8,0:0:0:0:
198,339,28145,1,2,0:0:0:0:
270,361,28395,1,2,0:0:0:0:
338,327,28645,1,0,0:0:0:0:
350,251,28895,6,0,P|352:224|386:167,1,90,2|0,0:0|0:0,0:0:0:0:
456,149,29645,1,8,0:0:0:0:
507,4,30145,2,0,L|510:28,2,22.5,2|2|2,0:0|0:0|0:0,0:0:0:0:
434,29,30645,1,0,0:0:0:0:
361,5,30895,6,0,P|294:2|262:19,1,90,2|0,0:0|0:0,0:0:0:0:
210,53,31645,1,8,0:0:0:0:
135,35,31895,1,2,0:0:0:0:
300,366,32895,6,0,P|315:331|308:274,1,72,10|0,0:0|0:0,0:0:0:0:
287,215,33395,5,2,0:0:0:0:
260,220,33520,1,2,0:0:0:0:
234,218,33645,1,2,0:0:0:0:
209,207,33770,1,2,0:0:0:0:
189,189,33895,2,0,P|188:224|173:257,1,72,2|0,0:0|0:0,0:0:0:0:
107,313,34395,1,2,0:0:0:0:
31,270,34645,1,2,0:0:0:0:
5,187,34895,6,0,P|6:137|35:97,1,72,10|0,0:0|0:0,0:0:0:0:
75,55,35395,5,2,0:0:0:0:
101,57,35520,1,2,0:0:0:0:
127,53,35645,1,2,0:0:0:0:
151,40,35770,1,2,0:0:0:0:
171,21,35895,5,2,0:0:0:0:
256,6,36145,1,2,0:0:0:0:
322,60,36395,1,2,0:0:0:0:
407,45,36645,1,2,0:0:0:0:
481,88,36895,5,10,0:0:0:0:
487,89,37020,1,0,0:0:0:0:
494,90,37145,1,0,0:0:0:0:
501,91,37270,1,0,0:0:0:0:
508,92,37395,2,0,L|505:127,3,36,2|0|0|0,0:0|0:0|0:0|0:0,0:0:0:0:
482,207,37895,6,0,L|445:211,1,36,2|0,0:0|0:0,0:0:0:0:
364,195,38145,2,0,L|356:231,1,36,2|0,0:0|0:0,0:0:0:0:
316,303,38395,2,0,L|348:321,1,36,2|0,0:0|0:0,0:0:0:0:
404,382,38645,2,0,L|431:357,1,36,2|0,0:0|0:0,0:0:0:0:
508,323,38895,5,10,0:0:0:0:
505,316,39020,1,0,0:0:0:0:
502,310,39145,1,0,0:0:0:0:
499,304,39270,1,0,0:0:0:0:
496,298,39395,2,0,L|450:291,3,36,2|0|0|0,0:0|0:0|0:0|0:0,0:0:0:0:
381,267,39895,5,2,0:0:0:0:
334,187,40145,1,2,0:0:0:0:
287,267,40395,1,2,0:0:0:0:
240,187,40645,1,2,0:0:0:0:
240,187,40770,1,2,0:0:0:0:
240,187,40895,6,0,L|194:180,3,36,10|0|0|0,0:0|0:0|0:0|0:0,0:0:0:0:
117,185,41395,2,0,L|92:145,3,36,2|0|0|0,0:0|0:0|0:0|0:0,0:0:0:0:
39,89,41895,2,0,L|53:44,3,36,2|0|0|0,0:0|0:0|0:0|0:0,0:0:0:0:
129,19,42395,1,2,0:0:0:0:
204,61,42645,1,2,0:0:0:0:
286,35,42895,6,0,L|332:42,3,36,10|0|0|0,0:0|0:0|0:0|0:0,0:0:0:0:
401,6,43395,2,0,L|425:45,3,36,2|0|0|0,0:0|0:0|0:0|0:0,0:0:0:0:
497,75,43895,2,0,L|482:119,3,36,2|0|0|0,0:0|0:0|0:0|0:0,0:0:0:0:
451,188,44395,5,2,0:0:0:0:
452,195,44520,1,0,0:0:0:0:
452,201,44645,1,0,0:0:0:0:
453,208,44770,1,0,0:0:0:0:
454,215,44895,6,0,L|459:250,4,36,10|0|0|0|0,0:0|0:0|0:0|0:0|0:0,0:0:0:0:
391,303,45520,6,0,L|355:313,1,36,2|0,0:0|0:0,0:0:0:0:
313,247,45770,1,0,0:0:0:0:
313,247,45895,2,0,L|318:208,2,36
274,343,46270,6,0,L|279:378,2,36,2|0|0,0:0|0:0|0:0,0:0:0:0:
215,265,46645,6,0,L|221:225,1,36,2|0,0:0|0:0,0:0:0:0:
136,323,46895,5,10,0:0:0:0:
136,323,47395,5,2,0:0:0:0:
135,309,47520,1,2,0:0:0:0:
133,296,47645,1,2,0:0:0:0:
128,283,47770,1,2,0:0:0:0:
120,272,47895,1,2,0:0:0:0:
7,127,48395,2,0,P|14:69|43:13,1,107.999996704102,2|8,0:0|0:0,0:0:0:0:
159,116,49395,6,0,L|216:106,1,45,2|0,0:0|0:0,0:0:0:0:
276,131,49895,2,0,L|333:121,1,45,2|0,0:0|0:0,0:0:0:0:
393,146,50395,2,0,L|450:136,1,45,2|0,0:0|0:0,0:0:0:0:
510,161,50895,1,8,0:0:0:0:
482,311,51395,6,0,L|425:301,1,45,2|0,0:0|0:0,0:0:0:0:
365,326,51895,2,0,L|308:316,1,45,2|0,0:0|0:0,0:0:0:0:
248,341,52395,2,0,L|191:331,1,45,2|0,0:0|0:0,0:0:0:0:
155,273,52895,6,0,P|155:236|146:213,1,45,10|0,0:0|0:0,0:0:0:0:
88,187,53395,2,0,P|88:150|97:127,1,45,2|0,0:0|0:0,0:0:0:0:
150,95,53895,1,2,0:0:0:0:
150,95,54645,1,2,0:0:0:0:
213,137,54895,6,0,P|248:143|276:135,1,45,10|0,0:0|0:0,0:0:0:0:
332,128,55395,2,0,P|371:129|388:140,1,45,2|0,0:0|0:0,0:0:0:0:
441,171,55895,2,0,P|462:221|457:273,1,90,2|0,0:0|0:0,0:0:0:0:
359,370,56895,5,8,0:0:0:0:
359,370,57395,2,0,L|307:364,1,45,2|0,0:0|0:0,0:0:0:0:
267,303,57895,1,2,0:0:0:0:
267,303,58145,2,0,P|243:281|136:291,1,135,2|8,0:0|0:0,0:0:0:0:
24,376,59395,6,0,L|20:326,1,45,2|0,0:0|0:0,0:0:0:0:
71,274,59895,1,2,0:0:0:0:
71,274,60145,2,0,P|85:237|79:176,1,90,2|0,0:0|0:0,0:0:0:0:
32,130,60895,6,0,L|26:13,1,107.999996704102,10|0,0:0|0:0,0:0:0:0:
26,22,62895,5,2,0:0:0:0:
208,37,63895,5,2,0:0:0:0:
298,21,64395,1,2,0:0:0:0:
388,5,64895,6,0,L|418:84,1,62.9999980773926,8|0,0:0|0:0,0:0:0:0:
453,162,65395,1,2,0:0:0:0:
346,151,65645,1,2,0:0:0:0:
271,227,65895,2,0,P|211:258|133:240,1,125.999996154785,2|2,0:0|0:0,0:0:0:0:
18,85,66895,6,0,L|86:68,1,62.9999980773926,8|0,0:0|0:0,0:0:0:0:
183,42,67395,1,2,0:0:0:0:
154,145,67645,1,2,0:0:0:0:
225,224,67895,2,0,P|240:271|220:345,1,125.999996154785,2|2,0:0|0:0,0:0:0:0:
7,327,68895,6,0,L|21:253,1,62.9999980773926,8|0,0:0|0:0,0:0:0:0:
38,159,69395,1,2,0:0:0:0:
118,229,69645,1,2,0:0:0:0:
225,224,69895,2,0,P|344:250|398:357,1,220.499993270874,2|0,0:0|0:0,0:0:0:0:
403,380,70895,6,0,L|427:114,1,251.999992309571,8|0,0:0|0:0,0:0:0:0:
251,3,72395,1,2,0:0:0:0:
280,73,72645,1,2,0:0:0:0:
264,147,72895,6,0,P|153:178|119:233,1,180,8|2,0:0|0:0,0:0:0:0:
85,377,74395,1,2,0:0:0:0:
232,336,74895,2,0,P|297:339|358:395,2,135,8|2|2,0:0|0:0|0:0,0:0:0:0:
359,251,76895,6,0,P|392:168|375:77,1,180,8|0,0:0|0:0,0:0:0:0:
242,153,78395,2,0,P|214:162|184:160,1,45,2|2,0:0|0:0,0:0:0:0:
121,159,78895,6,0,P|129:194|119:246,1,90,2|0,0:0|0:0,0:0:0:0:
79,311,79645,1,8,0:0:0:0:
225,265,80145,1,2,0:0:0:0:
295,294,80395,1,2,0:0:0:0:
365,265,80645,1,0,0:0:0:0:
435,294,80895,6,0,P|468:277|493:214,1,90,2|0,0:0|0:0,0:0:0:0:
501,155,81645,1,8,0:0:0:0:
419,25,82145,1,2,0:0:0:0:
375,88,82395,1,2,0:0:0:0:
298,93,82645,1,0,0:0:0:0:
250,33,82895,6,0,P|210:17|145:28,1,90,2|0,0:0|0:0,0:0:0:0:
93,50,83645,1,8,0:0:0:0:
12,179,84145,1,2,0:0:0:0:
73,224,84395,1,2,0:0:0:0:
147,206,84645,1,0,0:0:0:0:
183,138,84895,6,0,P|230:121|286:131,1,90,2|0,0:0|0:0,0:0:0:0:
342,144,85645,1,8,0:0:0:0:
462,237,86145,1,2,0:0:0:0:
454,313,86395,1,2,0:0:0:0:
399,367,86645,1,0,0:0:0:0:
322,364,86895,6,0,P|264:346|232:300,1,90,2|0,0:0|0:0,0:0:0:0:
229,250,87645,1,8,0:0:0:0:
132,368,88145,1,2,0:0:0:0:
112,293,88395,1,2,0:0:0:0:
132,218,88645,1,0,0:0:0:0:
112,143,88895,6,0,P|84:104|32:89,1,90,2|0,0:0|0:0,0:0:0:0:
39,165,89645,1,8,0:0:0:0:
191,159,90145,1,2,0:0:0:0:
266,171,90395,1,2,0:0:0:0:
313,230,90645,1,0,0:0:0:0:
309,306,90895,6,0,P|344:358|378:373,1,90,2|0,0:0|0:0,0:0:0:0:
443,378,91645,1,8,0:0:0:0:
498,235,92145,1,2,0:0:0:0:
456,170,92395,1,2,0:0:0:0:
388,133,92645,1,0,0:0:0:0:
312,144,92895,6,0,P|278:165|201:158,1,90,2|0,0:0|0:0,0:0:0:0:
160,134,93645,2,0,P|135:124|110:123,1,45,8|2,0:0|0:0,0:0:0:0:
16,238,94395,2,0,L|11:271,2,22.5,2|2|2,0:0|0:0|0:0,0:0:0:0:
91,221,94895,6,0,P|135:256|159:311,1,90,2|0,0:0|0:0,0:0:0:0:
175,357,95645,1,8,0:0:0:0:
289,255,96145,1,2,0:0:0:0:
361,231,96395,1,2,0:0:0:0:
433,255,96645,1,0,0:0:0:0:
505,231,96895,6,0,P|511:179|495:134,1,90,2|0,0:0|0:0,0:0:0:0:
455,80,97645,1,8,0:0:0:0:
324,159,98145,1,2,0:0:0:0:
248,173,98395,1,2,0:0:0:0:
183,133,98645,1,0,0:0:0:0:
168,57,98895,6,0,P|139:17|94:2,1,90,2|0,0:0|0:0,0:0:0:0:
25,4,99645,1,8,0:0:0:0:
17,156,100145,1,2,0:0:0:0:
23,232,100395,1,2,0:0:0:0:
66,295,100645,1,0,0:0:0:0:
126,342,100895,6,0,P|171:331|250:343,1,90,2|0,0:0|0:0,0:0:0:0:
287,353,101645,1,8,0:0:0:0:
241,206,102145,1,2,0:0:0:0:
249,129,102395,1,2,0:0:0:0:
317,95,102645,1,0,0:0:0:0:
392,109,102895,6,0,P|422:157|416:207,1,90,2|0,0:0|0:0,0:0:0:0:
390,258,103645,1,8,0:0:0:0:
239,284,104145,1,2,0:0:0:0:
177,238,104395,1,2,0:0:0:0:
103,215,104645,1,0,0:0:0:0:
27,225,104895,6,0,P|17:158|32:120,1,90,2|0,0:0|0:0,0:0:0:0:
67,75,105645,1,8,0:0:0:0:
197,155,106145,1,2,0:0:0:0:
273,146,106395,1,2,0:0:0:0:
322,87,106645,1,0,0:0:0:0:
333,11,106895,6,0,P|390:13|423:38,1,90,2|0,0:0|0:0,0:0:0:0:
453,97,107645,1,8,0:0:0:0:
475,248,108145,1,2,0:0:0:0:
427,308,108395,1,2,0:0:0:0:
350,303,108645,1,0,0:0:0:0:
302,242,108895,6,0,P|265:214|205:206,1,90,2|0,0:0|0:0,0:0:0:0:
146,206,109645,1,10,0:0:0:0:
109,272,109895,1,2,0:0:0:0:
148,337,110145,1,2,0:0:0:0:
224,334,110395,1,2,0:0:0:0:
261,268,110645,1,2,0:0:0:0:
223,204,110895,6,0,P|224:156|240:126,1,72,10|0,0:0|0:0,0:0:0:0:
287,67,111395,5,2,0:0:0:0:
313,73,111520,1,2,0:0:0:0:
340,72,111645,1,2,0:0:0:0:
365,64,111770,1,2,0:0:0:0:
388,48,111895,2,0,P|387:83|401:116,1,72,2|0,0:0|0:0,0:0:0:0:
477,158,112395,1,2,0:0:0:0:
509,237,112645,1,2,0:0:0:0:
505,323,112895,6,0,P|485:357|445:371,1,72,10|0,0:0|0:0,0:0:0:0:
376,335,113395,5,2,0:0:0:0:
351,326,113520,1,2,0:0:0:0:
323,326,113645,1,2,0:0:0:0:
298,334,113770,1,2,0:0:0:0:
276,349,113895,5,2,0:0:0:0:
248,266,114145,1,2,0:0:0:0:
279,185,114395,1,2,0:0:0:0:
252,102,114645,1,2,0:0:0:0:
313,43,114895,5,10,0:0:0:0:
312,36,115020,1,0,0:0:0:0:
311,29,115145,1,0,0:0:0:0:
311,22,115270,1,0,0:0:0:0:
310,16,115395,2,0,L|275:18,3,36,2|0|0|0,0:0|0:0|0:0|0:0,0:0:0:0:
190,25,115895,6,0,L|149:8,1,36,2|0,0:0|0:0,0:0:0:0:
73,3,116145,2,0,L|44:36,1,36,2|0,0:0|0:0,0:0:0:0:
15,107,116395,2,0,L|38:144,1,36,2|0,0:0|0:0,0:0:0:0:
96,193,116645,2,0,L|139:182,1,36,2|0,0:0|0:0,0:0:0:0:
206,144,116895,5,10,0:0:0:0:
206,137,117020,1,0,0:0:0:0:
207,130,117145,1,0,0:0:0:0:
208,123,117270,1,0,0:0:0:0:
208,117,117395,2,0,L|251:127,3,36,2|0|0|0,0:0|0:0|0:0|0:0,0:0:0:0:
290,196,117895,5,2,0:0:0:0:
337,116,118145,1,2,0:0:0:0:
384,196,118395,1,2,0:0:0:0:
431,116,118645,1,2,0:0:0:0:
431,116,118770,1,2,0:0:0:0:
431,116,118895,6,0,L|465:108,3,36,10|0|0|0,0:0|0:0|0:0|0:0,0:0:0:0:
481,192,119395,2,0,L|509:212,3,36,2|0|0|0,0:0|0:0|0:0|0:0,0:0:0:0:
454,279,119895,2,0,L|457:314,3,36,2|0|0|0,0:0|0:0|0:0|0:0,0:0:0:0:
380,355,120395,5,2,0:0:0:0:
295,338,120645,1,2,0:0:0:0:
215,373,120895,6,0,L|175:382,3,36,10|0|0|0,0:0|0:0|0:0|0:0,0:0:0:0:
150,298,121395,2,0,L|117:273,3,36,2|0|0|0,0:0|0:0|0:0|0:0,0:0:0:0:
165,199,121895,2,0,L|163:163,3,36,2|0|0|0,0:0|0:0|0:0|0:0,0:0:0:0:
236,114,122395,5,2,0:0:0:0:
241,109,122520,1,0,0:0:0:0:
246,105,122645,1,0,0:0:0:0:
252,101,122770,1,0,0:0:0:0:
257,97,122895,2,0,L|302:101,3,36,10|0|0|0,0:0|0:0|0:0|0:0,0:0:0:0:
328,18,123395,2,0,L|283:22,3,36,2|0|0|0,0:0|0:0|0:0|0:0,0:0:0:0:
374,87,123895,6,0,L|382:131,1,36,2|0,0:0|0:0,0:0:0:0:
419,196,124145,2,0,L|379:217,1,36,2|0,0:0|0:0,0:0:0:0:
329,272,124395,2,0,L|296:241,1,36,2|0,0:0|0:0,0:0:0:0:
230,211,124645,2,0,L|249:170,1,36,2|0,0:0|0:0,0:0:0:0:
257,97,124895,5,10,0:0:0:0:
257,97,125395,5,2,0:0:0:0:
245,103,125520,1,2,0:0:0:0:
232,108,125645,1,2,0:0:0:0:
219,110,125770,1,2,0:0:0:0:
205,110,125895,1,2,0:0:0:0:
36,38,126395,2,0,L|142:18,1,107.999996704102,2|8,0:0|0:0,0:0:0:0:
295,4,127395,6,0,L|318:52,1,45,2|0,0:0|0:0,0:0:0:0:
307,124,127895,1,2,0:0:0:0:
307,124,128145,2,0,P|302:166|329:217,1,90,2|0,0:0|0:0,0:0:0:0:
377,260,128895,1,8,0:0:0:0:
482,370,129395,6,0,L|437:373,1,45,2|0,0:0|0:0,0:0:0:0:
362,355,129895,1,2,0:0:0:0:
362,355,130145,2,0,P|308:345|263:357,1,90,2|2,0:0|0:0,0:0:0:0:
197,348,130895,6,0,P|188:324|190:292,1,45,8|0,0:0|0:0,0:0:0:0:
238,248,131395,2,0,P|247:224|245:192,1,45,2|0,0:0|0:0,0:0:0:0:
197,148,131895,1,2,0:0:0:0:
197,148,132645,1,2,0:0:0:0:
165,78,132895,6,0,P|128:70|103:74,1,45,8|2,0:0|0:0,0:0:0:0:
53,105,133395,1,2,0:0:0:0:
6,165,133645,2,0,P|0:209|20:251,1,80.9999975280763,2|0,0:0|0:0,0:0:0:0:
129,341,134895,5,8,0:0:0:0:
129,341,135395,2,0,L|177:334,1,45,2|0,0:0|0:0,0:0:0:0:
248,349,135895,1,2,0:0:0:0:
248,349,136145,2,0,P|285:362|379:313,1,135,2|8,0:0|0:0,0:0:0:0:
443,193,137395,6,0,L|394:182,1,45,2|0,0:0|0:0,0:0:0:0:
323,195,137895,1,2,0:0:0:0:
323,195,138145,2,0,P|283:214|224:198,1,90,2|0,0:0|0:0,0:0:0:0:
174,166,138895,6,0,L|165:56,1,107.999996704102,8|0,0:0|0:0,0:0:0:0:
165,58,140895,5,2,0:0:0:0:
326,146,141895,5,2,0:0:0:0:
416,133,142395,1,2,0:0:0:0:
506,120,142895,6,0,L|510:175,1,45,8|0,0:0|0:0,0:0:0:0:
509,241,143395,1,2,0:0:0:0:
463,302,143645,1,2,0:0:0:0:
460,378,143895,2,0,P|416:381|366:369,1,90,2|2,0:0|0:0,0:0:0:0:
256,270,144895,6,0,L|210:285,1,45,8|0,0:0|0:0,0:0:0:0:
140,309,145395,1,2,0:0:0:0:
64,297,145645,1,2,0:0:0:0:
15,237,145895,2,0,P|19:201|5:140,1,90,2|2,0:0|0:0,0:0:0:0:
82,13,146895,6,0,L|141:29,1,45,8|0,0:0|0:0,0:0:0:0:
183,74,147395,2,0,L|242:58,1,45,2|2,0:0|0:0,0:0:0:0:
275,3,147895,2,0,P|334:8|391:75,1,135,2|0,0:0|0:0,0:0:0:0:
437,115,148895,6,0,P|399:154|389:254,1,144,10|0,0:0|0:0,0:0:0:0:
421,357,150395,1,2,0:0:0:0:
347,340,150645,1,2,0:0:0:0:
279,375,150895,6,0,P|255:324|139:277,1,180,10|2,0:0|0:0,0:0:0:0:
22,365,152395,1,2,0:0:0:0:
54,215,152895,2,0,P|51:156|4:100,2,135,10|2|2,0:0|0:0|0:0,0:0:0:0:
134,84,154895,6,0,P|193:50|311:89,1,188.999994232178,10|0,0:0|0:0,0:0:0:0:
355,143,156895,6,0,L|378:140,6,22.5,2|0|0|0|2|2|2,0:0|0:0|0:0|0:0|0:0|0:0|0:0,0:0:0:0:
