osu file format v14

[General]
AudioFilename: audio.mp3
AudioLeadIn: 0
PreviewTime: 0
Countdown: 0
SampleSet: None
StackLeniency: 0.7
Mode: 0
LetterboxInBreaks: 0
WidescreenStoryboard: 1

[Editor]
DistanceSpacing: 0.8
BeatDivisor: 1
GridSize: 4
TimelineZoom: 0.4999998

[Metadata]
Title:So Happy
TitleUnicode:So Happy
Artist:Raven & Kreyn
ArtistUnicode:Raven & Kreyn
Creator:---_Kira_---
Version:Normal
Source:
Tags:pop beats
BeatmapID:1384240
BeatmapSetID:652881

[Difficulty]
HPDrainRate:5
CircleSize:2.5
OverallDifficulty:4
ApproachRate:4.5
SliderMultiplier:2
SliderTickRate:2

[Events]
//Background and Video events
0,0,"ferris_wheel_in_london-wallpaper-1280x768.jpg",0,0
//Break Periods
2,81152,93025
//Storyboard Layer 0 (Background)
//Storyboard Layer 1 (Fail)
//Storyboard Layer 2 (Pass)
//Storyboard Layer 3 (Foreground)
//Storyboard Sound Samples

[TimingPoints]
0,476.190476190476,4,1,0,100,1,0
48577,-100,4,1,0,100,0,1
61904,-100,4,1,0,100,0,0
63809,-100,4,1,0,100,0,1
78571,-100,4,1,0,100,0,0
124761,-100,4,1,0,100,0,1
138122,-100,4,1,0,100,0,0
139999,-100,4,1,0,100,0,1
155238,-100,4,1,0,100,0,0

[Colours]
Combo1 : 0,0,202
Combo2 : 111,111,255
Combo3 : 91,165,255
Combo4 : 221,120,233

[HitObjects]
32,32,18095,6,2,B|448:352|480:0|32:64|352:352|0:384,1,600,0|0,0:0|0:0,0:0:0:0:
320,320,19999,2,2,B|288:64|96:32|32:320|448:192,1,600,0|0,0:0|0:0,0:0:0:0:
320,64,21904,2,2,B|32:32|96:320|480:224,1,600,0|0,0:0|0:0,0:0:0:0:
448,96,23809,2,2,B|128:32|32:256|288:224|480:384,1,600,0|4,0:0|0:0,0:0:0:0:
436,172,25714,6,2,B|252:16|116:236|64:304|68:48|356:24,1,600,0|0,0:0|0:0,0:0:0:0:
288,160,27619,2,2,B|-152:156|216:284|480:364,1,600,0|0,0:0|0:0,0:0:0:0:
428,176,29523,2,2,B|176:48|88:276|316:336|0:0|488:356,1,600,0|0,0:0|0:0,0:0:0:0:
448,172,31428,2,2,P|208:60|280:344,1,600,0|4,0:0|0:0,0:0:0:0:
352,300,33333,6,2,B|348:84|372:104|76:176|224:252|176:260,3,200,0|0|0|0,0:0|0:0|0:0|0:0,0:0:0:0:
128,188,35238,2,2,B|332:336|256:184|452:124|372:304|400:152,3,200,0|0|0|4,0:0|0:0|0:0|0:0,0:0:0:0:
184,84,37142,6,2,P|140:296|152:304,1,200,0|0,0:0|0:0,0:0:0:0:
260,248,38095,2,2,B|260:44|152:72|156:68,1,200,0|0,0:0|0:0,0:0:0:0:
356,68,39047,2,2,P|352:284|252:272,1,200,0|0,0:0|0:0,0:0:0:0:
276,272,39999,2,2,B|196:72|296:188|104:292|80:48,1,200,0|4,0:0|0:0,0:0:0:0:
316,192,40952,5,8,0:0:0:0:
24,320,41904,1,8,0:0:0:0:
344,340,42857,1,8,0:0:0:0:
180,64,43809,1,8,0:0:0:0:
256,192,44761,12,4,46666,0:0:0:0:
256,188,48571,5,8,0:0:0:0:
256,188,49523,1,8,0:0:0:0:
112,208,50476,1,8,0:0:0:0:
248,292,50952,1,8,0:0:0:0:
388,212,51428,1,8,0:0:0:0:
256,188,52380,5,8,0:0:0:0:
256,188,53333,1,8,0:0:0:0:
408,124,54285,1,8,0:0:0:0:
260,60,54761,1,8,0:0:0:0:
120,140,55238,1,8,0:0:0:0:
392,308,56190,6,2,B|392:200|392:200|244:300,1,200,0|0,0:0|0:0,0:0:0:0:
156,252,57142,2,2,B|152:168|152:168|288:60,1,200,0|0,0:0|0:0,0:0:0:0:
404,196,58095,1,8,0:0:0:0:
264,272,58571,1,8,0:0:0:0:
140,172,59047,1,8,0:0:0:0:
444,76,59999,6,2,P|120:44|44:24,2,400,0|0|4,0:0|0:0|0:0,0:0:0:0:
80,188,63809,5,8,0:0:0:0:
428,192,64761,1,8,0:0:0:0:
256,336,65714,1,8,0:0:0:0:
256,176,66190,1,8,0:0:0:0:
256,16,66666,1,8,0:0:0:0:
4,188,67619,5,8,0:0:0:0:
256,384,68571,1,8,0:0:0:0:
256,64,69523,1,8,0:0:0:0:
416,64,69999,1,8,0:0:0:0:
416,224,70476,1,8,0:0:0:0:
112,320,71428,6,2,B|112:100|96:100|328:108,1,200,0|0,0:0|0:0,0:0:0:0:
280,192,72380,2,2,B|436:32|452:148|332:-48|228:56,1,200,0|0,0:0|0:0,0:0:0:0:
220,52,73333,1,8,0:0:0:0:
60,52,73809,1,8,0:0:0:0:
64,212,74285,1,8,0:0:0:0:
396,292,75238,5,8,0:0:0:0:
136,104,76190,1,8,0:0:0:0:
456,104,77142,1,8,0:0:0:0:
316,184,77619,1,8,0:0:0:0:
184,272,78095,1,8,0:0:0:0:
256,192,78571,12,4,80952,0:0:0:0:
80,188,94285,6,2,B|464:24|180:328|452:176|40:320|492:376,1,600,0|0,0:0|0:0,0:0:0:0:
488,216,96190,2,2,B|392:36|80:96|32:296|280:340,1,600,0|0,0:0|0:0,0:0:0:0:
416,292,98095,2,2,B|428:40|60:164|328:304|64:344|44:56,1,600,0|0,0:0|0:0,0:0:0:0:
192,136,99999,2,2,B|496:344|128:320|76:140|40:48|472:80,1,600,0|4,0:0|0:0,0:0:0:0:
444,180,101904,6,2,P|264:324|140:288,3,200,0|0|0|0,0:0|0:0|0:0|0:0,0:0:0:0:
164,248,103809,2,2,P|72:56|144:40,3,200,0|2|2|4,0:0|0:0|0:0|0:0,0:0:0:0:
184,164,105714,6,2,B|496:312|184:264|128:264,1,200,0|0,0:0|0:0,0:0:0:0:
432,188,106666,2,2,B|276:52|232:148|288:360,1,200,0|0,0:0|0:0,0:0:0:0:
132,244,107619,2,2,B|72:48|160:136|-96:96,1,200,0|0,0:0|0:0,0:0:0:0:
192,124,108571,2,2,B|480:188|376:248|424:344|388:272,1,200,0|4,0:0|0:0,0:0:0:0:
216,204,109523,5,8,0:0:0:0:
476,20,110476,1,8,0:0:0:0:
380,324,111428,1,8,0:0:0:0:
120,136,112380,1,8,0:0:0:0:
424,32,113333,5,8,0:0:0:0:
224,284,114285,1,8,0:0:0:0:
28,28,115238,1,8,0:0:0:0:
340,92,116190,1,8,0:0:0:0:
256,192,117142,12,4,122857,0:0:0:0:
64,228,124761,6,2,P|396:96|448:168,2,400,0|8|0,0:0|0:0|0:0,0:0:0:0:
224,248,127142,2,2,P|392:128|428:184,1,200,8|4,0:0|0:0,0:0:0:0:
484,380,128571,6,2,P|120:312|112:336,2,400,0|8|0,0:0|0:0|0:0,0:0:0:0:
480,216,130952,2,2,P|280:80|268:96,1,200,8|4,0:0|0:0,0:0:0:0:
100,84,132380,2,2,P|328:128|340:116,1,200,0|8,0:0|0:0,0:0:0:0:
132,264,133333,2,2,P|368:96|364:68,1,200,0|8,0:0|0:0,0:0:0:0:
160,208,134285,2,0,B|376:64|212:204|156:368,2,200,8|8|8,0:0|0:0|0:0,0:0:0:0:
256,336,135714,1,4,0:0:0:0:
416,316,136190,6,2,P|424:68|412:56,1,200,0|8,0:0|0:0,0:0:0:0:
344,24,137142,2,2,P|136:128|120:176,1,200,0|8,0:0|0:0,0:0:0:0:
256,192,138095,12,4,139523,0:0:0:0:
200,272,139999,6,2,B|404:52|432:272|408:360,1,200,0|8,0:0|0:0,0:0:0:0:
344,340,140952,2,2,B|148:152|164:368|36:348,1,200,0|8,0:0|0:0,0:0:0:0:
332,284,141904,2,2,B|324:76|220:252|84:324,2,200,8|8|8,0:0|0:0|0:0,0:0:0:0:
380,132,143333,1,4,0:0:0:0:
272,20,143809,6,2,B|12:-40|-4:104|88:160,1,200,0|8,0:0|0:0,0:0:0:0:
200,128,144761,2,2,B|-4:256|-4:140|124:44,1,200,0|8,0:0|0:0,0:0:0:0:
156,260,145714,2,10,B|276:68|284:208|284:208|224:304,2,200,8|8|8,0:0|0:0|0:0,0:0:0:0:
268,368,147142,1,4,0:0:0:0:
424,324,147619,6,2,P|212:212|176:268,1,200,0|8,0:0|0:0,0:0:0:0:
156,180,148571,2,2,P|8:348|4:376,1,200,0|8,0:0|0:0,0:0:0:0:
176,296,149523,2,2,B|260:296|260:200|448:380|304:84,2,200,8|8|8,0:0|0:0|0:0,0:0:0:0:
240,148,150952,1,4,0:0:0:0:
340,272,151428,6,2,P|480:128|488:136,1,200,0|8,0:0|0:0,0:0:0:0:
236,36,152380,2,2,P|20:92|16:72,1,200,0|8,0:0|0:0,0:0:0:0:
216,304,153333,1,8,0:0:0:0:
404,300,153809,1,8,0:0:0:0:
260,232,154285,2,2,P|412:8|476:128,1,400,8|4,0:0|0:0,0:0:0:0:
