osu file format v14

[General]
AudioFilename: audio.mp3
AudioLeadIn: 0
PreviewTime: 0
Countdown: 0
SampleSet: Normal
StackLeniency: 0.7
Mode: 0
LetterboxInBreaks: 0
WidescreenStoryboard: 1

[Editor]
DistanceSpacing: 0.6
BeatDivisor: 4
GridSize: 16
TimelineZoom: 0.9999999

[Metadata]
Title:So Happy
TitleUnicode:So Happy
Artist:Raven & Kreyn
ArtistUnicode:Raven & Kreyn
Creator:---_Kira_---
Version:Insane
Source:
Tags:pop beats
BeatmapID:1386309
BeatmapSetID:652881

[Difficulty]
HPDrainRate:5.6
CircleSize:4.5
OverallDifficulty:8.5
ApproachRate:8.5
SliderMultiplier:2
SliderTickRate:1

[Events]
//Background and Video events
0,0,"ferris_wheel_in_london-wallpaper-1280x768.jpg",0,0
//Break Periods
2,81152,93595
//Storyboard Layer 0 (Background)
//Storyboard Layer 1 (Fail)
//Storyboard Layer 2 (Pass)
//Storyboard Layer 3 (Foreground)
//Storyboard Sound Samples

[TimingPoints]
0,476.190476190476,4,1,0,100,1,0
48571,-50,4,1,0,100,0,1
61904,-100,4,1,0,100,0,0
63809,-50,4,1,0,100,0,1
78571,-100,4,1,0,100,0,0
124761,-50,4,1,0,100,0,1
138122,-100,4,1,0,100,0,0
139999,-50,4,1,0,100,0,1
155238,-100,4,1,0,100,0,0

[Colours]
Combo1 : 0,0,202
Combo2 : 111,111,255
Combo3 : 91,165,255
Combo4 : 221,120,233

[HitObjects]
256,188,18095,6,0,P|256:128|320:128,1,100,8|0,0:0|0:0,0:0:0:0:
384,80,18571,1,0,0:0:0:0:
432,176,18809,1,0,0:0:0:0:
368,256,19047,2,0,P|304:256|304:192,1,100,8|0,0:0|0:0,0:0:0:0:
208,288,19523,1,0,0:0:0:0:
192,96,19999,5,8,0:0:0:0:
288,144,20238,1,0,0:0:0:0:
368,80,20476,1,0,0:0:0:0:
464,96,20714,1,0,0:0:0:0:
400,176,20952,1,8,0:0:0:0:
368,80,21190,1,0,0:0:0:0:
288,144,21428,2,0,L|288:272,1,100
192,240,21904,6,0,P|112:176|112:160,1,100,8|0,0:0|0:0,0:0:0:0:
64,112,22380,2,0,P|176:112|176:192,1,200,0|8,0:0|0:0,0:0:0:0:
224,272,23095,1,0,0:0:0:0:
320,304,23333,2,0,L|320:176,1,100
384,128,23809,1,8,0:0:0:0:
336,32,24047,1,0,0:0:0:0:
384,128,24285,1,0,0:0:0:0:
320,204,24523,1,0,0:0:0:0:
224,192,24761,1,8,0:0:0:0:
320,208,24999,1,0,0:0:0:0:
400,256,25238,2,0,L|288:336,1,100
224,304,25714,5,8,0:0:0:0:
128,272,25952,1,0,0:0:0:0:
224,304,26190,2,0,L|432:304,1,200,0|8,0:0|0:0,0:0:0:0:
416,208,26904,1,0,0:0:0:0:
416,112,27142,2,0,L|416:320,1,200,0|8,0:0|0:0,0:0:0:0:
320,352,27857,1,0,0:0:0:0:
224,304,28095,1,0,0:0:0:0:
288,224,28333,1,0,0:0:0:0:
336,144,28571,1,8,0:0:0:0:
432,144,28809,1,0,0:0:0:0:
368,224,29047,1,0,0:0:0:0:
448,272,29285,1,0,0:0:0:0:
368,320,29523,5,8,0:0:0:0:
272,320,29761,1,0,0:0:0:0:
368,320,29999,2,0,L|224:176,1,200,0|8,0:0|0:0,0:0:0:0:
144,112,30714,1,0,0:0:0:0:
224,176,30952,2,0,L|448:176,1,200,0|8,0:0|0:0,0:0:0:0:
352,240,31666,1,0,0:0:0:0:
272,176,31904,2,0,L|496:176,1,200,0|8,0:0|0:0,0:0:0:0:
416,256,32619,1,0,0:0:0:0:
352,176,32857,1,0,0:0:0:0:
288,256,33095,1,0,0:0:0:0:
208,128,33333,5,8,0:0:0:0:
496,32,33809,1,8,0:0:0:0:
416,320,34285,1,8,0:0:0:0:
144,176,34761,1,8,0:0:0:0:
448,224,35238,5,8,0:0:0:0:
160,320,35714,1,8,0:0:0:0:
272,48,36190,1,8,0:0:0:0:
464,272,36666,1,8,0:0:0:0:
240,80,37142,5,8,0:0:0:0:
48,320,37619,1,8,0:0:0:0:
352,336,38095,1,8,0:0:0:0:
320,32,38571,1,8,0:0:0:0:
96,224,39047,5,8,0:0:0:0:
368,336,39523,1,8,0:0:0:0:
320,48,39999,1,8,0:0:0:0:
128,272,40476,1,8,0:0:0:0:
224,32,40952,6,0,L|320:128,1,100,8|0,0:0|0:0,0:0:0:0:
288,224,41428,2,0,L|208:144,1,100,8|0,0:0|0:0,0:0:0:0:
336,160,41904,2,0,L|432:112,1,100,8|0,0:0|0:0,0:0:0:0:
448,240,42380,2,0,L|416:336,1,100,8|0,0:0|0:0,0:0:0:0:
304,288,42857,6,0,L|320:176,1,100,8|0,0:0|0:0,0:0:0:0:
208,208,43333,2,0,L|256:304,1,100,8|0,0:0|0:0,0:0:0:0:
336,208,43809,2,0,L|240:160,1,100,8|0,0:0|0:0,0:0:0:0:
144,112,44285,2,0,L|240:64,1,100,8|0,0:0|0:0,0:0:0:0:
320,80,44761,5,0,0:0:0:0:
320,112,44880,1,0,0:0:0:0:
320,144,44999,1,0,0:0:0:0:
304,176,45119,1,0,0:0:0:0:
288,208,45238,1,0,0:0:0:0:
256,240,45357,1,0,0:0:0:0:
224,256,45476,1,0,0:0:0:0:
192,256,45595,1,0,0:0:0:0:
160,240,45714,5,0,0:0:0:0:
144,208,45833,1,0,0:0:0:0:
160,176,45952,1,0,0:0:0:0:
192,160,46071,1,0,0:0:0:0:
208,128,46190,1,0,0:0:0:0:
208,96,46309,1,0,0:0:0:0:
176,80,46428,1,0,0:0:0:0:
256,192,46666,12,4,48095,0:0:0:0:
224,256,48571,6,0,B|160:208|240:160|128:288|416:48|464:384,1,400,8|0,0:0|0:0,0:0:0:0:
336,288,49285,1,0,0:0:0:0:
192,320,49523,2,0,B|64:96|240:208|432:0,1,400,8|0,0:0|0:0,0:0:0:0:
240,32,50238,1,0,0:0:0:0:
112,80,50476,2,0,L|256:256,1,200,8|0,0:0|0:0,0:0:0:0:
368,272,50952,2,0,L|128:352,1,200,8|0,0:0|0:0,0:0:0:0:
256,224,51428,2,0,B|224:336|96:192|80:48|368:16,1,400,8|0,0:0|0:0,0:0:0:0:
352,160,52142,1,4,0:0:0:0:
448,160,52380,6,0,P|256:160|320:96,1,400,8|0,0:0|0:0,0:0:0:0:
128,192,53095,1,0,0:0:0:0:
160,304,53333,2,0,P|288:160|112:112,1,400,8|0,0:0|0:0,0:0:0:0:
144,224,54047,1,0,0:0:0:0:
288,192,54285,2,0,P|304:336|320:336,1,200,8|0,0:0|0:0,0:0:0:0:
288,192,54761,2,0,P|288:64|240:64,1,200,8|0,0:0|0:0,0:0:0:0:
288,192,55238,2,0,P|128:256|272:320,1,400,8|4,0:0|0:0,0:0:0:0:
336,128,56190,6,0,B|96:128|64:128|112:288|352:224,1,400,8|0,0:0|0:0,0:0:0:0:
384,288,56904,1,0,0:0:0:0:
448,160,57142,2,0,P|176:64|48:176,1,400,8|0,0:0|0:0,0:0:0:0:
192,208,57857,1,0,0:0:0:0:
96,304,58095,2,0,L|368:304,1,200,8|0,0:0|0:0,0:0:0:0:
304,160,58571,2,0,L|48:160,1,200,8|0,0:0|0:0,0:0:0:0:
192,48,59047,2,0,B|496:48|448:192|384:336,1,400,8|0,0:0|0:0,0:0:0:0:
272,288,59761,1,4,0:0:0:0:
128,304,59999,6,0,P|128:96|288:176,1,400,8|0,0:0|0:0,0:0:0:0:
192,240,60714,1,0,0:0:0:0:
256,112,60952,2,0,B|-16:112|112:48|240:320,1,400,8|0,0:0|0:0,0:0:0:0:
368,256,61666,1,0,0:0:0:0:
256,192,61904,12,4,63333,0:0:0:0:
416,320,63809,6,0,B|384:48|272:144|112:288,1,400,8|0,0:0|0:0,0:0:0:0:
288,304,64523,1,0,0:0:0:0:
416,336,64761,2,0,B|480:80|368:128|144:208,1,400,8|0,0:0|0:0,0:0:0:0:
80,112,65476,1,0,0:0:0:0:
224,96,65714,2,0,P|384:64|416:80,1,200,8|0,0:0|0:0,0:0:0:0:
288,144,66190,2,0,P|416:160|464:208,1,200,8|0,0:0|0:0,0:0:0:0:
320,240,66666,2,0,B|-32:208|64:128|160:16,1,400,8|0,0:0|0:0,0:0:0:0:
240,144,67380,1,4,0:0:0:0:
384,128,67619,6,0,B|304:304|112:304|64:144,1,400,8|0,0:0|0:0,0:0:0:0:
224,160,68333,1,0,0:0:0:0:
320,64,68571,2,0,P|336:288|176:304,1,400,8|0,0:0|0:0,0:0:0:0:
272,192,69285,1,0,0:0:0:0:
208,320,69523,2,0,P|48:208|48:176,1,200,8|0,0:0|0:0,0:0:0:0:
64,96,69999,2,0,P|208:48|240:80,1,200,8|0,0:0|0:0,0:0:0:0:
352,128,70476,2,0,B|192:288|272:320|144:160|528:272,1,400,8|4,0:0|0:0,0:0:0:0:
304,32,71428,6,0,P|64:208|-32:144,1,400,8|0,0:0|0:0,0:0:0:0:
144,128,72142,1,0,0:0:0:0:
256,48,72380,2,0,P|256:256|64:256,1,400,8|0,0:0|0:0,0:0:0:0:
64,144,73095,1,0,0:0:0:0:
208,144,73333,2,0,P|336:144|416:224,1,200,8|0,0:0|0:0,0:0:0:0:
288,80,73809,2,0,P|400:80|480:160,1,200,8|0,0:0|0:0,0:0:0:0:
416,0,74285,2,0,B|64:0|80:192|240:160,1,400,8|0,0:0|0:0,0:0:0:0:
288,80,74999,1,4,0:0:0:0:
416,112,75238,6,0,B|400:288|320:240|192:352|80:208,1,400,8|0,0:0|0:0,0:0:0:0:
256,208,75952,1,0,0:0:0:0:
128,160,76190,2,0,B|304:112|368:16|464:224,1,400,8|0,0:0|0:0,0:0:0:0:
464,80,76904,1,0,0:0:0:0:
320,48,77142,2,0,P|176:16|80:16,1,200,8|0,0:0|0:0,0:0:0:0:
240,96,77619,2,0,P|96:144|48:176,1,200,8|0,0:0|0:0,0:0:0:0:
192,176,78095,2,0,P|272:320|272:208,1,400,8|0,0:0|0:0,0:0:0:0:
256,192,78809,12,4,80952,0:0:0:0:
224,192,94285,5,8,0:0:0:0:
320,192,94523,1,0,0:0:0:0:
304,96,94761,2,0,B|112:96|192:144|256:16,1,200,0|8,0:0|0:0,0:0:0:0:
336,32,95476,1,0,0:0:0:0:
416,80,95714,2,0,P|384:208|432:240,1,200,0|8,0:0|0:0,0:0:0:0:
400,336,96428,1,0,0:0:0:0:
304,304,96666,2,0,P|176:240|128:288,1,200,0|8,0:0|0:0,0:0:0:0:
64,192,97380,1,0,0:0:0:0:
96,96,97619,1,0,0:0:0:0:
192,64,97857,1,0,0:0:0:0:
256,144,98095,5,8,0:0:0:0:
320,64,98333,1,0,0:0:0:0:
416,96,98571,2,0,B|320:160|416:176|256:256,1,200,0|8,0:0|0:0,0:0:0:0:
288,144,99285,1,0,0:0:0:0:
192,144,99523,2,0,B|144:240|224:224|64:304,1,200,0|8,0:0|0:0,0:0:0:0:
160,352,100238,1,0,0:0:0:0:
256,352,100476,2,0,B|272:224|368:304|336:160,1,200,0|8,0:0|0:0,0:0:0:0:
288,96,101190,1,0,0:0:0:0:
192,96,101428,1,0,0:0:0:0:
112,128,101666,1,0,0:0:0:0:
128,224,101904,5,8,0:0:0:0:
224,240,102142,1,0,0:0:0:0:
320,208,102380,2,0,B|272:96|240:192|192:48,1,200,0|8,0:0|0:0,0:0:0:0:
112,96,103095,1,0,0:0:0:0:
96,192,103333,2,0,B|208:304|256:240|288:336,1,200,0|8,0:0|0:0,0:0:0:0:
341,229,104047,1,0,0:0:0:0:
283,147,104285,2,0,B|123:195|187:83|75:179,1,200,0|8,0:0|0:0,0:0:0:0:
64,67,104999,1,0,0:0:0:0:
160,48,105238,1,0,0:0:0:0:
256,80,105476,1,0,0:0:0:0:
208,160,105714,5,8,0:0:0:0:
304,192,105952,1,0,0:0:0:0:
384,128,106190,2,0,B|464:256|400:272|320:304,1,200,0|8,0:0|0:0,0:0:0:0:
256,272,106904,1,0,0:0:0:0:
240,176,107142,2,0,B|384:112|432:176|384:240,1,200,0|8,0:0|0:0,0:0:0:0:
336,272,107857,1,0,0:0:0:0:
401,203,108095,2,0,B|289:171|305:91|257:251,1,200,0|8,0:0|0:0,0:0:0:0:
176,288,108809,1,0,0:0:0:0:
80,256,109047,1,0,0:0:0:0:
112,160,109285,1,0,0:0:0:0:
256,96,109523,5,8,0:0:0:0:
464,320,109999,1,8,0:0:0:0:
160,320,110476,1,8,0:0:0:0:
368,112,110952,1,8,0:0:0:0:
80,48,111428,5,8,0:0:0:0:
368,96,111904,1,8,0:0:0:0:
256,368,112380,1,8,0:0:0:0:
128,96,112857,1,8,0:0:0:0:
416,176,113333,5,8,0:0:0:0:
160,32,113809,1,8,0:0:0:0:
80,320,114285,1,8,0:0:0:0:
384,304,114761,1,8,0:0:0:0:
144,112,115238,5,8,0:0:0:0:
432,16,115714,1,8,0:0:0:0:
256,256,116190,1,8,0:0:0:0:
48,32,116666,1,8,0:0:0:0:
448,256,117142,5,8,0:0:0:0:
352,256,117380,1,0,0:0:0:0:
288,192,117619,1,8,0:0:0:0:
192,208,117857,1,0,0:0:0:0:
128,272,118095,1,8,0:0:0:0:
64,208,118333,1,0,0:0:0:0:
112,128,118571,1,8,0:0:0:0:
208,128,118809,1,0,0:0:0:0:
160,208,119047,5,8,0:0:0:0:
240,240,119285,1,0,0:0:0:0:
320,208,119523,1,8,0:0:0:0:
320,112,119761,1,0,0:0:0:0:
240,80,119999,1,8,0:0:0:0:
176,144,120238,1,0,0:0:0:0:
256,160,120476,1,8,0:0:0:0:
256,256,120714,1,0,0:0:0:0:
352,256,120952,5,0,0:0:0:0:
368,224,121071,1,0,0:0:0:0:
384,192,121190,1,0,0:0:0:0:
400,160,121309,1,0,0:0:0:0:
416,128,121428,1,0,0:0:0:0:
432,96,121547,1,0,0:0:0:0:
400,80,121666,1,0,0:0:0:0:
368,64,121785,1,0,0:0:0:0:
336,80,121904,5,0,0:0:0:0:
320,112,122023,1,0,0:0:0:0:
304,144,122142,1,0,0:0:0:0:
336,176,122261,1,0,0:0:0:0:
336,224,122380,1,0,0:0:0:0:
368,256,122499,1,0,0:0:0:0:
368,304,122619,1,0,0:0:0:0:
336,336,122738,1,0,0:0:0:0:
256,192,123095,12,4,124285,0:0:0:0:
96,48,124761,6,0,B|192:288|304:192|416:336,1,400,8|0,0:0|0:0,0:0:0:0:
400,176,125476,1,0,0:0:0:0:
384,64,125714,2,0,B|96:256|128:128|48:288,1,400,8|0,0:0|0:0,0:0:0:0:
176,288,126428,1,0,0:0:0:0:
288,304,126666,2,0,P|288:160|208:144,1,200,8|0,0:0|0:0,0:0:0:0:
144,176,127142,2,0,P|144:32|64:16,1,200,8|0,0:0|0:0,0:0:0:0:
240,32,127619,2,0,B|224:176|544:80|624:192|384:224,1,400,8|0,0:0|0:0,0:0:0:0:
432,320,128333,1,4,0:0:0:0:
320,256,128571,6,0,B|320:80|112:256|144:80|400:48,1,400,8|0,0:0|0:0,0:0:0:0:
480,112,129285,1,0,0:0:0:0:
448,256,129523,2,0,B|288:160|368:160|176:304|80:336,1,400,8|0,0:0|0:0,0:0:0:0:
224,336,130238,1,0,0:0:0:0:
336,336,130476,2,0,B|336:208|288:304|384:144,1,200,8|0,0:0|0:0,0:0:0:0:
256,192,130952,2,0,B|256:64|208:160|304:0,1,200,8|0,0:0|0:0,0:0:0:0:
176,16,131428,2,0,B|96:208|160:112|208:272|96:320|336:352|320:208,1,400,8|4,0:0|0:0,0:0:0:0:
464,96,132380,6,0,B|224:112|192:240|96:64,1,400,8|0,0:0|0:0,0:0:0:0:
48,192,133095,1,0,0:0:0:0:
96,304,133333,2,0,B|272:272|176:176|352:352|448:304|464:208|320:144,1,400,8|0,0:0|0:0,0:0:0:0:
320,80,134047,1,0,0:0:0:0:
208,128,134285,2,0,B|80:192|192:208|112:320,1,200,8|0,0:0|0:0,0:0:0:0:
144,176,134761,2,0,B|16:240|128:256|48:368,1,200,8|0,0:0|0:0,0:0:0:0:
160,272,135238,2,0,B|480:256|272:128|480:32|464:176,1,400,8|0,0:0|0:0,0:0:0:0:
416,256,135952,1,4,0:0:0:0:
304,208,136190,6,0,B|128:96|256:80|96:272|224:320|368:272,1,400,8|0,0:0|0:0,0:0:0:0:
448,208,136904,1,0,0:0:0:0:
368,112,137142,2,0,B|96:96|256:208|64:32|352:16,1,400,8|0,0:0|0:0,0:0:0:0:
448,64,137857,1,0,0:0:0:0:
256,192,138095,12,4,139523,0:0:0:0:
256,352,139999,6,0,B|256:240|192:192|256:112|320:192|320:192|480:48,1,400,8|0,0:0|0:0,0:0:0:0:
304,48,140714,1,0,0:0:0:0:
192,48,140952,2,0,B|80:224|192:192|192:192|320:352,1,400,8|0,0:0|0:0,0:0:0:0:
416,288,141666,1,0,0:0:0:0:
432,176,141904,2,0,B|288:192|384:112|272:352,1,200,8|0,0:0|0:0,0:0:0:0:
288,160,142380,2,0,B|144:176|240:96|128:336,1,200,8|0,0:0|0:0,0:0:0:0:
64,336,142857,2,0,B|416:320|224:256|496:384,1,400,8|0,0:0|0:0,0:0:0:0:
432,240,143571,1,4,0:0:0:0:
448,128,143809,6,0,B|224:208|208:80|176:336,1,400,8|0,0:0|0:0,0:0:0:0:
304,320,144523,1,0,0:0:0:0:
416,320,144761,2,0,B|400:96|304:272|160:160|160:160|128:48,1,400,8|0,0:0|0:0,0:0:0:0:
256,48,145476,1,0,0:0:0:0:
368,96,145714,2,0,B|336:240|320:192|496:208,1,200,8|0,0:0|0:0,0:0:0:0:
320,224,146190,2,0,B|288:368|272:320|448:336,1,200,8|0,0:0|0:0,0:0:0:0:
480,256,146666,2,0,B|480:64|320:160|368:16|208:144|224:0,1,400,8|4,0:0|0:0,0:0:0:0:
48,176,147619,6,0,B|192:288|288:128|352:288|432:144,1,400,8|0,0:0|0:0,0:0:0:0:
368,48,148333,1,0,0:0:0:0:
256,32,148571,2,0,B|160:144|304:208|144:288|272:112|416:336,1,400,8|0,0:0|0:0,0:0:0:0:
432,208,149285,1,0,0:0:0:0:
448,96,149523,2,0,B|304:176|256:64|240:176,1,200,8|0,0:0|0:0,0:0:0:0:
336,240,149999,2,0,B|208:320|160:208|144:320,1,200,8|0,0:0|0:0,0:0:0:0:
48,224,150476,2,0,B|64:80|176:96|240:32|384:112|336:16,1,400,8|0,0:0|0:0,0:0:0:0:
448,80,151190,1,4,0:0:0:0:
416,192,151428,6,0,B|288:304|256:224|48:304|256:16,1,400,8|0,0:0|0:0,0:0:0:0:
320,112,152142,1,0,0:0:0:0:
416,192,152380,2,0,B|288:304|256:224|48:304|256:16,1,400,8|0,0:0|0:0,0:0:0:0:
320,112,153095,1,0,0:0:0:0:
416,192,153333,2,0,B|176:304|240:160|240:128,1,200,8|0,0:0|0:0,0:0:0:0:
240,80,153809,2,0,B|0:192|64:48|64:16,1,200,8|0,0:0|0:0,0:0:0:0:
80,208,154285,2,0,B|64:336|464:352|464:64|288:16|176:32|16:160|80:16|432:16,1,800,8|4,0:0|0:0,0:0:0:0:
