osu file format v14

[General]
AudioFilename: audio.mp3
AudioLeadIn: 0
PreviewTime: -1
Countdown: 1
SampleSet: None
StackLeniency: 0.7
Mode: 2
LetterboxInBreaks: 0
WidescreenStoryboard: 1

[Editor]
DistanceSpacing: 1
BeatDivisor: 6
GridSize: 32
TimelineZoom: 1

[Metadata]
Title:Get This Party [NCS Release]
TitleUnicode:Get This Party [NCS Release]
Artist:Raven & Kreyn
ArtistUnicode:Raven & Kreyn
Creator:AbstractOsu
Version:Beat IMpossible
Source:
Tags:
BeatmapID:1586971
BeatmapSetID:753806

[Difficulty]
HPDrainRate:10
CircleSize:7
OverallDifficulty:10
ApproachRate:10
SliderMultiplier:1.6
SliderTickRate:3

[Events]
//Background and Video events
0,0,"me8945275-disco-party-light-flashes-bokeh-background-loop-4k-4096x2304-a0005.jpg",0,0
//Break Periods
//Storyboard Layer 0 (Background)
//Storyboard Layer 1 (Fail)
//Storyboard Layer 2 (Pass)
//Storyboard Layer 3 (Foreground)
//Storyboard Sound Samples

[TimingPoints]
0,1.09999999999997,4,1,0,100,1,0
100,-100,4,1,0,100,0,0
200,-100,4,1,0,100,0,0
300,-100,4,1,0,100,0,0
400,-100,4,1,0,100,0,0
500,-100,4,1,0,100,0,0
600,-100,4,1,0,100,0,0
700,-100,4,1,0,100,0,0

[Colours]
Combo1 : 64,0,64
Combo2 : 255,128,64
Combo3 : 255,0,0
Combo4 : 255,0,255

[HitObjects]
320,384,0,6,0,L|0:-32,1,506.666666666667
192,128,2,1,0,0:0:0:0:
96,128,4,2,0,L|96:64,8,53.3333333333333
224,160,5,5,0,0:0:0:0:
256,192,7,6,0,P|256:160|256:128,21,53.3333333333333
256,192,8,5,0,0:0:0:0:
160,64,10,2,0,P|160:160|224:160,10,160
224,192,11,5,0,0:0:0:0:
96,64,12,2,0,L|160:32,14,53.3333333333333
256,160,14,5,0,0:0:0:0:
192,160,18,5,0,0:0:0:0:
256,128,18,2,0,L|320:256,5,133.333333333333
160,32,19,2,0,L|224:256,3,213.333333333333
224,128,20,2,0,B|256:128|256:256|384:160|352:192|288:192|320:160|256:160|160:160|288:96|256:192|192:192|384:64|384:64|256:224|288:224|288:224|320:192|320:192,21,640
320,256,23,2,0,P|384:160|320:160,6,240
224,256,25,2,0,L|288:128,7,133.333333333333
96,224,30,2,0,B|128:192|128:192|288:128,5,213.333333333333
256,128,31,2,0,L|288:256,4,106.666666666667
256,160,37,2,0,B|320:160|256:224|256:192,8,80
352,224,37,2,0,L|192:224,1,160
256,192,42,2,0,L|64:96,11,213.333333333333
96,96,46,2,0,L|128:96,11,26.6666666666667
160,192,47,2,0,L|160:160,21,26.6666666666667
160,96,49,2,0,B|384:128|160:224|320:96,4,213.333333333333
224,160,53,2,0,B|288:160|192:224|320:128,17,106.666666666667
256,160,56,2,0,L|224:128,6,26.6666666666667
256,128,59,2,0,L|192:128,5,53.3333333333333
224,128,63,2,0,L|160:160,8,53.3333333333333
256,160,64,2,0,L|320:96,8,80
224,96,67,2,0,L|224:160,8,53.3333333333333
384,64,70,2,0,L|192:160,3,213.333333333333
256,128,71,2,0,B|448:96|192:256|384:128,4,213.333333333333
224,128,77,2,0,L|160:224,19,106.666666666667
320,160,78,2,0,L|96:128,2,213.333333333333
160,64,82,2,0,L|96:160,4,106.666666666667
160,192,82,2,0,B|224:128|160:256|288:128,14,160
160,128,85,2,0,B|256:96|32:224|288:96,6,186.666666666667
224,160,93,2,0,L|160:192,7,53.3333333333333
256,192,95,2,0,B|288:160|224:192|224:224,47,80
192,160,96,2,0,B|192:192|288:160|320:192,7,133.333333333333
288,192,115,2,0,B|192:224|352:192,16,133.333333333333
352,224,128,2,0,P|224:96|128:192,3,346.666666666667
352,160,132,2,0,L|288:192,6,53.3333333333333
320,160,140,2,0,P|256:224|320:128,10,480
128,192,141,2,0,L|288:64,3,186.666666666667
256,96,147,2,0,L|160:192,5,133.333333333333
448,128,152,2,0,L|288:192,4,160
160,192,154,2,0,L|160:256,11,53.3333333333333
224,224,159,2,0,B|256:224|160:288|384:128,19,186.666666666667
288,192,159,2,0,P|96:288|224:128,3,560
256,96,172,2,0,B|256:128|288:96|224:160|352:64,48,106.666666666667
288,192,172,2,0,L|192:224,7,80
288,192,178,2,0,L|224:256,22,80
192,224,184,2,0,L|288:96,19,160
288,96,190,2,0,L|160:192,5,160
352,32,192,2,0,L|288:160,4,133.333333333333
224,160,197,2,0,B|192:224|192:256|160:288|288:224,20,186.666666666667
288,160,199,2,0,L|256:256,9,80
288,224,205,2,0,B|352:224|288:288|320:256|320:224|192:192|96:192,14,266.666666666667
256,256,218,2,0,L|288:192,14,53.3333333333333
320,160,224,2,0,L|192:128,6,106.666666666667
96,160,232,2,0,L|224:160,16,106.666666666667
224,128,232,2,0,L|256:192,10,53.3333333333333
288,160,238,2,0,L|288:192,21,26.6666666666667
288,160,239,2,0,L|256:160,18,26.6666666666667
320,224,245,2,0,L|512:96,5,213.333333333333
256,160,247,2,0,L|224:224,28,53.3333333333333
448,192,252,2,0,P|256:256|416:32,2,693.333333333333
224,224,255,2,0,L|320:160,7,106.666666666667
320,160,261,2,0,L|224:160,11,80
416,32,264,2,0,L|192:256,4,293.333333333333
256,160,267,2,0,B|224:192|224:160|416:160,10,186.666666666667
192,256,271,2,0,L|288:192,30,106.666666666667
320,128,279,2,0,L|448:128,4,106.666666666667
224,192,282,2,0,L|288:128,14,80
448,160,285,2,0,L|288:320,3,213.333333333333
320,128,289,2,0,B|320:160|384:192|224:256|416:128,18,186.666666666667
288,288,291,2,0,L|352:160,7,133.333333333333
352,160,300,2,0,L|160:224,3,186.666666666667
192,160,307,2,0,L|288:96,7,106.666666666667
384,192,311,2,0,P|224:160|224:224,5,293.333333333333
288,96,312,2,0,L|160:224,4,160
160,224,319,2,0,B|352:192|256:224,10,160
192,288,324,2,0,L|352:160,4,186.666666666667
352,160,332,2,0,L|288:160,8,53.3333333333333
256,224,332,2,0,L|448:160,3,186.666666666667
320,128,339,2,0,B|192:192|384:128,12,160
448,192,339,2,0,L|256:128,5,186.666666666667
256,128,347,2,0,L|320:96,10,53.3333333333333
384,128,353,2,0,P|192:192|288:128,4,1040
288,192,353,2,0,L|192:288,6,133.333333333333
288,224,362,2,0,P|288:192|320:224,15,106.666666666667
480,32,375,2,0,L|288:224,6,266.666666666667
279,130,377,2,0,B|192:256|192:192|160:192,17,133.333333333333
288,192,385,2,0,B|320:160|224:288|224:256,12,106.666666666667
160,224,393,2,0,B|192:192|160:192|416:96,16,266.666666666667
256,224,398,2,0,L|384:160,9,133.333333333333
320,160,405,2,0,P|320:224|224:256,14,160
224,224,421,2,0,L|416:192,3,186.666666666667
224,224,423,2,0,L|288:192,8,53.3333333333333
384,192,426,2,0,L|352:160,22,26.6666666666667
224,256,430,2,0,B|352:128|288:128|288:160,23,160
256,192,431,2,0,L|256:128,12,53.3333333333333
256,128,437,2,0,L|320:128,26,53.3333333333333
384,96,442,2,0,P|288:96|192:0,10,213.333333333333
352,160,455,2,0,B|384:128|320:256|352:224|352:192|320:192|320:160,51,106.666666666667
288,128,500,2,0,L|288:192,9,53.3333333333333
256,192,501,12,0,569,0:0:0:0:
256,192,506,12,0,598,0:0:0:0:
384,192,509,6,0,L|256:224,7,106.666666666667
256,192,510,12,0,670,0:0:0:0:
256,224,515,6,0,L|416:256,7,160
256,192,517,12,0,647,0:0:0:0:
256,192,521,12,0,705,0:0:0:0:
384,256,522,6,0,P|448:192|416:160,11,133.333333333333
256,192,526,12,0,679,0:0:0:0:
256,192,532,12,0,739,0:0:0:0:
480,192,536,6,0,B|352:128|352:160|288:160,14,186.666666666667
256,192,541,12,0,755,0:0:0:0:
256,192,551,12,0,750,0:0:0:0:
256,192,562,12,0,784,0:0:0:0:
320,192,562,6,0,L|288:192,30,26.6666666666667
256,192,573,12,0,803,0:0:0:0:
256,192,577,6,0,L|256:224,25,26.6666666666667
256,192,584,12,0,783,0:0:0:0:
256,192,594,12,0,847,0:0:0:0:
256,192,606,12,0,851,0:0:0:0:
224,224,616,6,0,P|320:192|288:224,5,373.333333333333
256,192,618,12,0,824,0:0:0:0:
256,192,628,12,0,881,0:0:0:0:
320,192,636,6,0,L|224:192,10,80
256,192,640,12,0,885,0:0:0:0:
224,192,642,6,0,B|288:160|352:192|320:64|352:128,19,160
256,192,652,12,0,897,0:0:0:0:
256,192,663,12,0,900,0:0:0:0:
224,256,665,6,0,L|384:192,4,160
320,256,671,2,0,L|384:192,10,80
256,192,675,12,0,905,0:0:0:0:
376,199,677,6,0,B|576:160|416:128|224:160|256:160,11,293.333333333333
256,192,686,12,0,923,0:0:0:0:
256,192,703,12,0,917,0:0:0:0:
256,160,704,6,0,P|288:224|320:224,13,106.666666666667
256,192,713,12,0,935,0:0:0:0:
352,224,716,6,0,L|416:96,13,133.333333333333
256,192,723,12,0,983,0:0:0:0:
288,96,726,6,0,L|160:32,5,133.333333333333
160,64,732,2,0,B|352:160|352:160|448:160|288:256,9,373.333333333333
256,192,735,12,0,995,0:0:0:0:
256,192,747,12,0,991,0:0:0:0:
288,256,755,6,0,B|288:192|512:192|448:160|480:96|352:0,13,373.333333333333
256,192,759,12,0,1019,0:0:0:0:
256,192,771,12,0,1001,0:0:0:0:
256,192,782,12,0,2817,0:0:0:0:
352,32,790,6,0,L|160:160,4,213.333333333333
174,150,796,6,0,L|96:160,308,80
160,224,852,6,0,L|224:192,7,53.3333333333333
96,160,852,2,0,B|288:160|352:160|352:192,5,266.666666666667
128,288,857,2,0,L|320:192,2,213.333333333333
352,192,861,2,0,P|192:96|192:128,10,400
352,192,862,2,0,B|128:128|160:160|32:224|96:192|128:320|256:224|288:192|288:192|480:160|224:192|224:192|352:128|256:96|224:64|32:64|288:96|192:96,16,960
160,160,944,6,0,L|288:32,2,160
128,256,948,2,0,L|352:128,2,240
224,256,953,2,0,L|160:224,67,53.3333333333333
160,224,965,2,0,B|256:128|32:256|64:224,8,160
256,96,970,2,0,B|256:128|256:160|288:192|288:192|256:192,73,133.333333333333
128,192,976,2,0,L|192:256,20,80
192,256,987,2,0,B|320:32|192:192|160:224,6,240
160,224,997,2,0,L|288:192,12,106.666666666667
352,224,1002,2,0,L|352:256,2,26.6666666666667
480,224,1008,2,0,L|352:224,2,106.666666666667
352,224,1013,2,0,L|224:128,4,160
192,128,1019,2,0,L|160:160,6,26.6666666666667
128,192,1024,2,0,L|160:192,26,26.6666666666667
160,192,1030,2,0,L|224:64,24,133.333333333333
224,64,1035,2,0,B|288:160|256:224|192:256|160:224,9,240
192,224,1054,2,0,L|320:96,5,160
160,192,1062,2,0,L|256:160,6,80
320,192,1063,2,0,P|256:128|224:128,9,106.666666666667
192,224,1068,2,0,L|288:128,3,133.333333333333
288,128,1073,2,0,B|320:32|288:160|224:128|160:128|160:192,38,213.333333333333
256,128,1076,2,0,L|192:128,18,53.3333333333333
256,128,1082,2,0,B|256:64|288:192|288:192|352:192,21,160
352,192,1104,2,0,L|96:160,2,240
224,128,1109,2,0,L|160:192,6,80
224,192,1115,2,0,L|192:224,12,26.6666666666667
384,256,1119,2,0,B|128:160|320:192,7,240
192,224,1128,2,0,B|192:256|-32:288|0:256,23,213.333333333333
128,128,1136,2,0,L|416:96,2,266.666666666667
224,256,1141,2,0,L|384:224,4,160
352,288,1147,2,0,P|576:96|416:64,3,640
384,64,1158,2,0,B|512:64|480:128|480:128|320:160|160:32,10,480
256,192,1175,12,0,1336,0:0:0:0:
256,192,1180,12,0,1318,0:0:0:0:
256,192,1185,12,0,1353,0:0:0:0:
256,192,1190,12,0,1572,0:0:0:0:
128,0,1191,6,0,L|224:128,7,160
224,160,1196,2,0,L|288:192,25,53.3333333333333
256,192,1202,12,0,1378,0:0:0:0:
288,192,1202,6,0,B|448:224|192:192,8,213.333333333333
256,192,1207,12,0,1383,0:0:0:0:
256,192,1213,12,0,1359,0:0:0:0:
192,192,1215,6,0,L|256:192,10,53.3333333333333
256,192,1219,12,0,1395,0:0:0:0:
224,224,1221,6,0,P|384:128|288:128,19,133.333333333333
256,192,1230,12,0,1390,0:0:0:0:
256,192,1236,12,0,1382,0:0:0:0:
288,128,1240,6,0,L|320:128,24,26.6666666666667
256,192,1241,12,0,1425,0:0:0:0:
352,128,1246,6,0,L|256:160,10,80
256,192,1247,12,0,1400,0:0:0:0:
256,192,1252,12,0,1420,0:0:0:0:
256,192,1258,12,0,1442,0:0:0:0:
192,160,1259,6,0,P|352:384|160:160,10,1093.33333333333
256,192,1262,12,0,1430,0:0:0:0:
256,192,1269,12,0,1415,0:0:0:0:
256,192,1274,12,0,1458,0:0:0:0:
256,192,1281,12,0,1465,0:0:0:0:
256,192,1287,12,0,1448,0:0:0:0:
256,192,1294,12,0,1463,0:0:0:0:
256,192,1300,12,0,1461,0:0:0:0:
256,192,1306,12,0,1467,0:0:0:0:
256,192,1320,12,0,1458,0:0:0:0:
256,192,1325,12,0,1478,0:0:0:0:
256,192,1331,12,0,2173,0:0:0:0:
128,160,1331,6,0,L|256:160,9,106.666666666667
224,192,1336,2,0,L|256:160,25,26.6666666666667
288,160,1349,2,0,L|320:160,27,26.6666666666667
320,160,1355,2,0,B|480:192|480:192|288:192,5,346.666666666667
160,256,1359,2,0,B|224:160|224:160|160:192|256:128,9,213.333333333333
320,160,1368,2,0,P|256:128|224:96,14,106.666666666667
352,96,1373,2,0,L|288:64,12,53.3333333333333
352,64,1379,2,0,L|352:128,7,53.3333333333333
224,96,1380,2,0,L|256:128,1,26.6666666666667
352,128,1386,2,0,L|448:192,9,106.666666666667
288,160,1391,2,0,L|352:352,25,186.666666666667
448,192,1392,2,0,B|256:128|256:128|224:160,6,240
224,160,1404,2,0,L|192:128,20,26.6666666666667
288,96,1410,2,0,L|320:128,8,26.6666666666667
320,128,1416,2,0,P|256:128|384:128,11,186.666666666667
352,160,1428,2,0,P|384:128|416:128,20,80
416,128,1441,2,0,L|416:64,9,53.3333333333333
384,64,1446,2,0,L|256:128,4,133.333333333333
224,128,1452,2,0,L|192:128,12,26.6666666666667
192,128,1459,2,0,L|256:160,28,53.3333333333333
256,160,1465,2,0,L|320:288,15,133.333333333333
320,256,1485,2,0,L|288:160,10,80
288,160,1489,2,0,L|256:160,21,80
288,160,1501,2,0,B|352:384|352:384|352:352|352:352,151,240
