osu file format v14

[General]
AudioFilename: Ravel Nightstar - The Drums and Bass of Flower Bless.mp3
AudioLeadIn: 0
PreviewTime: 68409
Countdown: 0
SampleSet: Soft
StackLeniency: 0.7
Mode: 0
LetterboxInBreaks: 0
StoryFireInFront: 0
WidescreenStoryboard: 1

[Editor]
Bookmarks: 58411,70048,81308,83409,91490,96591,102955,104957,127864,128229,149682,151500,151864,152591,186411
DistanceSpacing: 1.9
BeatDivisor: 4
GridSize: 16
TimelineZoom: 3.100005

[Metadata]
Title:The Drums and Bass of Flower Bless
TitleUnicode:The Drums and Bass of Flower Bless
Artist:Ravel Nightstar
ArtistUnicode:Ravel Nightstar
Creator:MajsterDeeJay
Version:Dancing Star Sword
Source:
Tags:dnb ravel nighstar drums and bass drum of flower oneelk xkito xkitomusic
BeatmapID:1406786
BeatmapSetID:608092

[Difficulty]
HPDrainRate:5
CircleSize:4
OverallDifficulty:8
ApproachRate:9
SliderMultiplier:2
SliderTickRate:2

[Events]
//Background and Video events
0,0,"maxresdefault.jpg",0,0
//Break Periods
2,44063,54900
2,105154,115991
//Storyboard Layer 0 (Background)
//Storyboard Layer 1 (Fail)
//Storyboard Layer 2 (Pass)
//Storyboard Layer 3 (Foreground)
//Storyboard Sound Samples

[TimingPoints]
228,363.636363636364,4,2,1,75,1,0
228,-200,4,2,1,75,0,0
58399,-83.3333333333333,4,2,3,45,0,0
70046,-90.9090909090909,4,2,2,70,0,1
81682,-83.3333333333333,4,2,2,50,0,0
92591,-83.3333333333333,4,2,2,100,0,0
93318,-80,4,2,2,70,0,1
104591,-200,4,2,2,70,0,1
104955,-100,4,2,2,45,0,0
127137,-100,4,2,2,100,0,0
128228,-100,4,2,2,50,0,0
139864,-100,4,2,2,60,0,0
150773,-100,4,2,2,100,0,0
151500,-80,4,2,2,70,0,1
162773,-80,4,2,2,70,0,0
163137,-80,4,2,2,70,0,1
174046,-80,4,2,2,100,0,1
174409,-80,4,2,2,70,0,0
174773,-80,4,2,2,75,0,1
186409,-100,4,2,2,40,0,0
232955,-100,4,2,2,40,0,0
234409,-100,4,2,2,40,0,0
235864,-100,4,2,2,35,0,0
237318,-100,4,2,2,30,0,0
238773,-100,4,2,2,25,0,0
240228,-100,4,2,2,20,0,0
241682,-100,4,2,2,15,0,0
243137,-100,4,2,2,10,0,0

[HitObjects]
255,191,228,5,0,0:0:0:0:
176,128,1682,5,0,0:0:0:0:
422,276,2409,1,0,0:0:0:0:
96,128,3137,5,0,0:0:0:0:
176,128,4591,5,0,0:0:0:0:
256,256,5318,1,0,0:0:0:0:
336,128,6046,1,0,0:0:0:0:
368,304,7500,6,0,P|304:320|256:320,1,100
121,294,8228,1,0,0:0:0:0:
192,224,8591,2,0,P|234:174|241:126,1,100
272,80,11500,5,0,0:0:0:0:
144,176,11682,1,0,0:0:0:0:
336,224,11864,1,8,0:0:0:0:
176,176,12955,5,0,0:0:0:0:
400,80,13137,1,0,0:0:0:0:
176,176,13318,1,8,0:0:0:0:
384,176,13682,2,0,P|416:192|448:256,2,100,0|0|0,0:0|0:0|0:0,0:0:0:0:
272,176,14773,5,8,0:0:0:0:
192,176,15500,5,0,0:0:0:0:
112,176,16228,5,8,0:0:0:0:
304,80,17318,5,0,0:0:0:0:
464,80,17500,1,0,0:0:0:0:
384,80,17682,1,8,0:0:0:0:
64,288,18773,5,0,0:0:0:0:
240,288,18955,1,0,0:0:0:0:
160,288,19137,1,8,0:0:0:0:
64,128,19864,1,0,0:0:0:0:
160,80,20591,2,0,P|176:160|272:128,1,200,8|0,0:0|0:0,0:0:0:0:
384,112,22046,5,8,0:0:0:0:
416,176,23500,6,0,P|384:240|272:320,2,200,8|0|8,0:0|0:0|0:0,0:0:0:0:
224,256,25682,1,0,0:0:0:0:
400,128,26409,1,8,0:0:0:0:
285,55,26773,2,0,P|237:55|221:71,2,50,0|0|0,0:0|0:0|0:0,0:0:0:0:
480,288,27864,1,8,0:0:0:0:
176,336,28591,1,0,0:0:0:0:
448,208,29318,1,8,0:0:0:0:
160,256,30046,5,0,0:0:0:0:
384,144,30591,1,0,0:0:0:0:
384,144,30682,1,0,0:0:0:0:
384,144,30773,1,8,0:0:0:0:
224,192,31137,2,0,P|160:176|128:144,1,100
241,48,31864,2,0,P|305:64|337:96,1,100,0|8,0:0|0:0,0:0:0:0:
432,208,32591,6,0,P|432:256|384:288,3,100,0|0|0|8,0:0|0:0|0:0|0:0,0:0:0:0:
80,64,35137,5,8,0:0:0:0:
384,64,35864,1,0,0:0:0:0:
256,96,36228,2,0,P|224:112|208:128,1,50
272,176,36591,1,8,0:0:0:0:
256,240,37682,6,0,P|288:224|304:208,1,50
208,160,38045,1,8,0:0:0:0:
352,160,38409,1,0,0:0:0:0:
432,48,38773,1,0,0:0:0:0:
464,144,39137,2,0,P|464:192|432:240,1,100,0|8,0:0|0:0,0:0:0:0:
352,64,40591,6,0,P|352:96|336:112,2,50,0|0|8,0:0|0:0|0:0,0:0:0:0:
416,128,42046,6,0,P|416:176|400:192,1,50
304,288,42409,1,8,0:0:0:0:
160,272,42955,1,0,0:0:0:0:
64,64,43500,6,0,P|128:48|176:48,1,100,0|8,0:0|0:0,0:0:0:0:
256,192,55500,12,0,58046,0:0:0:0:
72,108,58409,6,0,P|144:64|320:64,1,239.999992675781,0|8,0:0|0:0,0:0:0:0:
248,164,59318,2,0,P|224:220|160:288,1,119.999996337891,0|8,0:0|0:0,0:0:0:0:
176,96,59864,1,0,0:0:0:0:
132,220,60228,1,8,0:0:0:0:
64,144,60773,2,0,P|144:80|180:72,2,119.999996337891,0|8|0,0:0|0:0|0:0,0:0:0:0:
256,192,61318,1,0,0:0:0:0:
108,280,61682,5,8,0:0:0:0:
108,280,61864,1,0,0:0:0:0:
208,216,62228,5,0,0:0:0:0:
304,224,62409,1,8,0:0:0:0:
208,112,62591,1,0,0:0:0:0:
464,224,62955,2,0,P|396:265|352:256,1,119.999996337891,0|8,0:0|0:0,0:0:0:0:
288,160,63500,1,0,0:0:0:0:
416,160,63682,1,0,0:0:0:0:
352,272,63864,1,8,0:0:0:0:
208,336,64046,6,0,P|144:340|80:320,1,119.999996337891,0|4,0:0|0:0,0:0:0:0:
96,64,64591,6,0,P|92:127|128:224,1,119.999996337891,8|0,0:0|0:0,0:0:0:0:
256,48,65137,2,0,P|328:60|368:96,1,119.999996337891,0|8,0:0|0:0,0:0:0:0:
416,224,65500,1,0,0:0:0:0:
288,112,65682,1,0,0:0:0:0:
160,224,65864,1,0,0:0:0:0:
352,224,66046,1,8,0:0:0:0:
288,304,66591,6,0,P|240:320|160:320,1,119.999996337891,0|8,0:0|0:0,0:0:0:0:
80,256,66955,1,0,0:0:0:0:
64,128,67137,1,0,0:0:0:0:
304,64,67318,1,0,0:0:0:0:
176,96,67500,2,0,P|224:144|208:224,1,119.999996337891,8|0,0:0|0:0,0:0:0:0:
141,321,68046,6,0,P|205:305|240:256,2,119.999996337891,0|8|0,0:0|0:0|0:0,0:0:0:0:
400,96,68591,2,0,P|432:176|432:224,1,119.999996337891
352,288,68955,1,0,0:0:0:0:
305,307,69046,1,0,0:0:0:0:
254,307,69137,1,0,0:0:0:0:
207,289,69228,1,0,0:0:0:0:
176,256,69318,6,0,P|155:203|160:128,1,119.999996337891,8|0,0:0|0:0,0:0:0:0:
238,211,69682,2,0,P|259:158|256:96,1,119.999996337891,8|0,0:0|0:0,0:0:0:0:
64,160,70046,2,0,P|48:208|58:280,1,110.000003356934,10|0,0:0|0:0,0:0:0:0:
272,336,70409,2,0,P|320:352|368:352,2,55.0000016784668,4|0|0,0:0|0:0|0:0,0:0:0:0:
192,160,70773,2,0,P|191:110|208:48,1,110.000003356934,0|8,0:0|0:0,0:0:0:0:
391,35,71137,5,4,0:0:0:0:
425,55,71228,1,0,0:0:0:0:
453,82,71318,1,0,0:0:0:0:
464,120,71409,1,0,0:0:0:0:
464,160,71500,2,0,P|430:216|384:256,1,110.000003356934,8|0,0:0|0:0,0:0:0:0:
192,288,71864,6,0,L|128:224,4,55.0000016784668,4|0|0|0|0,0:0|0:0|0:0|0:0|0:0,0:0:0:0:
256,112,72409,1,8,0:0:0:0:
256,112,72591,1,4,0:0:0:0:
256,112,72773,1,8,0:0:0:0:
448,192,72955,6,0,P|352:208|304:208,1,110.000003356934,8|0,0:0|0:0,0:0:0:0:
160,240,73318,6,0,L|112:208,2,55.0000016784668,4|0|8,0:0|0:0|0:0,0:0:0:0:
96,112,73682,1,0,0:0:0:0:
160,64,73864,1,8,0:0:0:0:
255,50,74046,5,4,0:0:0:0:
257,99,74137,1,0,0:0:0:0:
276,151,74228,1,0,0:0:0:0:
317,183,74318,1,0,0:0:0:0:
352,224,74409,2,0,P|336:304|304:336,1,110.000003356934,0|8,0:0|0:0,0:0:0:0:
128,272,74773,5,4,0:0:0:0:
128,272,74864,1,0,0:0:0:0:
128,272,74955,1,0,0:0:0:0:
128,272,75046,1,0,0:0:0:0:
128,272,75137,1,8,0:0:0:0:
48,176,75318,5,8,0:0:0:0:
112,64,75500,1,4,0:0:0:0:
320,176,75682,2,0,P|309:122|271:84,1,110.000003356934,8|10,2:0|2:0,2:0:0:0:
176,128,76045,5,0,0:0:0:0:
176,256,76228,2,0,P|142:223|134:200,2,55.0000016784668,4|0|0,0:0|0:0|0:0,0:0:0:0:
80,112,76591,1,0,0:0:0:0:
160,336,76773,1,8,0:0:0:0:
304,272,76955,2,0,L|368:259,4,55.0000016784668,4|0|0|0|8,0:0|0:0|0:0|0:0|0:0,0:0:0:0:
432,112,77500,6,0,P|387:51|323:35,1,110.000003356934,0|4,0:0|0:0,0:0:0:0:
308,35,77773,1,0,0:0:0:0:
270,48,77864,1,0,0:0:0:0:
236,69,77955,1,0,0:0:0:0:
207,97,78046,1,0,0:0:0:0:
208,192,78228,5,8,0:0:0:0:
384,240,78409,1,4,0:0:0:0:
240,320,78591,1,8,0:0:0:0:
112,192,78773,6,0,P|160:240|224:240,1,110.000003356934,8|0,0:0|0:0,0:0:0:0:
288,192,79137,2,0,P|304:128|288:96,2,55.0000016784668,4|0|8,0:0|0:0|0:0,0:0:0:0:
176,64,79500,1,0,0:0:0:0:
112,192,79682,1,8,0:0:0:0:
272,96,79864,2,0,L|256:176,1,55.0000016784668,4|0,0:0|0:0,0:0:0:0:
240,224,80046,2,0,L|224:304,1,55.0000016784668
304,288,80228,6,0,P|352:272|384:208,1,110.000003356934,4|0,0:0|0:0,0:0:0:0:
320,128,80591,2,0,P|306:94|281:73,4,55.0000016784668,0|0|4|0|0,0:0|0:0|0:0|0:0|0:0,0:0:0:0:
228,205,81137,1,0,0:0:0:0:
228,205,81228,1,0,0:0:0:0:
228,205,81318,2,0,P|163:227|128:227,1,55.0000016784668,4|0,0:0|0:0,0:0:0:0:
80,64,81682,6,0,P|128:48|208:48,1,119.999996337891,10|0,0:0|0:0,0:0:0:0:
368,64,82046,1,4,0:0:0:0:
396,92,82137,1,0,0:0:0:0:
424,120,82228,1,0,0:0:0:0:
320,320,82409,6,0,P|272:336|176:336,1,119.999996337891,0|8,0:0|0:0,0:0:0:0:
80,224,82773,1,4,0:0:0:0:
88,179,82864,1,0,0:0:0:0:
106,137,82955,1,0,0:0:0:0:
137,105,83046,1,0,0:0:0:0:
179,90,83137,2,0,L|176:224,1,119.999996337891,8|0,0:0|0:0,0:0:0:0:
441,277,83500,5,4,0:0:0:0:
441,277,83591,1,0,0:0:0:0:
452,288,83682,1,0,0:0:0:0:
452,288,83773,1,0,0:0:0:0:
452,288,83864,2,0,P|448:240|400:176,1,119.999996337891,0|8,0:0|0:0,0:0:0:0:
304,304,84228,1,4,0:0:0:0:
464,128,84409,1,8,0:0:0:0:
224,272,84591,6,0,P|176:304|112:304,1,119.999996337891,8|0,0:0|0:0,0:0:0:0:
87,88,84955,1,12,0:0:0:0:
95,95,85046,1,0,0:0:0:0:
95,95,85137,1,0,0:0:0:0:
256,48,85318,1,0,0:0:0:0:
336,160,85500,1,8,0:0:0:0:
400,288,85682,6,0,L|336:304,4,59.9999981689454,4|0|0|0|0,0:0|0:0|0:0|0:0|0:0,0:0:0:0:
336,208,86228,6,0,P|270:237|213:244,1,119.999996337891,8|4,0:0|0:0,0:0:0:0:
180,233,86500,1,0,0:0:0:0:
135,210,86591,1,0,0:0:0:0:
110,166,86682,1,0,0:0:0:0:
110,115,86773,5,8,0:0:0:0:
336,48,86955,1,8,0:0:0:0:
256,288,87137,1,4,0:0:0:0:
256,48,87318,1,8,0:0:0:0:
176,240,87500,5,10,0:0:0:0:
64,128,87682,2,0,P|64:208|80:272,1,119.999996337891,0|4,0:0|0:0,0:0:0:0:
91,289,87955,1,0,0:0:0:0:
127,314,88046,1,0,0:0:0:0:
160,224,88228,1,0,0:0:0:0:
176,144,88409,1,8,0:0:0:0:
256,208,88591,6,0,L|336:208,2,59.9999981689454,4|0|0,0:0|0:0|0:0,0:0:0:0:
216,247,88864,1,0,0:0:0:0:
216,302,88955,2,0,P|264:309|336:288,2,119.999996337891,8|0|4,0:0|0:0|0:0,0:0:0:0:
165,302,89409,5,0,0:0:0:0:
133,270,89500,1,0,0:0:0:0:
133,224,89591,1,0,0:0:0:0:
164,192,89682,5,0,0:0:0:0:
416,112,89864,1,8,0:0:0:0:
416,288,90046,1,4,0:0:0:0:
352,96,90228,1,8,0:0:0:0:
464,192,90409,6,0,P|384:192|352:160,1,119.999996337891,8|0,0:0|0:0,0:0:0:0:
288,80,90773,1,4,0:0:0:0:
250,66,90864,1,0,0:0:0:0:
209,66,90955,1,0,0:0:0:0:
48,192,91137,2,0,P|128:192|160:160,1,119.999996337891,0|8,0:0|0:0,0:0:0:0:
357,207,91500,1,4,0:0:0:0:
362,211,91591,1,0,0:0:0:0:
362,211,91682,1,0,0:0:0:0:
367,214,91773,1,0,0:0:0:0:
367,214,91864,6,0,P|319:230|256:208,1,119.999996337891,8|8,0:0|0:0,0:0:0:0:
160,208,92228,1,8,0:0:0:0:
160,208,92318,1,8,0:0:0:0:
160,208,92409,1,8,0:0:0:0:
160,208,92500,1,8,0:0:0:0:
160,208,92591,6,0,L|112:80,1,119.999996337891,4|4,0:0|0:0,0:0:0:0:
336,192,92955,1,4,0:0:0:0:
48,128,93318,6,0,L|48:256,1,125,10|0,0:0|0:0,0:0:0:0:
176,320,93682,2,0,L|256:320,2,62.5,4|0|0,0:0|0:0|0:0,0:0:0:0:
128,128,94046,1,0,0:0:0:0:
272,320,94228,1,8,0:0:0:0:
416,208,94409,5,4,0:0:0:0:
384,176,94499,1,0,0:0:0:0:
352,144,94590,1,0,0:0:0:0:
320,128,94681,1,0,0:0:0:0:
288,112,94772,1,8,0:0:0:0:
192,208,94955,1,0,0:0:0:0:
192,64,95137,2,0,L|128:112,4,62.5,4|0|0|0|0,0:0|0:0|0:0|0:0|0:0,0:0:0:0:
368,288,95682,5,8,0:0:0:0:
336,144,95864,1,4,0:0:0:0:
208,240,96046,1,8,0:0:0:0:
64,320,96228,6,0,L|64:192,1,125,8|0,0:0|0:0,0:0:0:0:
320,320,96591,2,0,L|256:320,2,62.5,4|0|0,0:0|0:0|0:0,0:0:0:0:
448,192,96955,6,0,L|448:64,1,125
257,320,97318,2,0,L|192:320,3,62.5,4|0|0|0,0:0|0:0|0:0|0:0,0:0:0:0:
144,224,97682,2,0,P|192:208|256:240,1,125,8|0,0:0|0:0,0:0:0:0:
410,121,98046,5,4,0:0:0:0:
433,160,98137,1,0,0:0:0:0:
443,199,98228,1,0,0:0:0:0:
444,234,98318,1,0,0:0:0:0:
432,272,98409,2,0,P|384:288|304:272,1,125,0|8,0:0|0:0,0:0:0:0:
176,64,98773,2,0,P|224:48|304:80,1,125,4|8,0:0|0:0,0:0:0:0:
64,240,99137,6,0,P|49:192|128:112,1,125,10|0,0:0|0:0,0:0:0:0:
304,64,99500,1,4,0:0:0:0:
304,64,99591,1,0,0:0:0:0:
304,64,99682,1,0,0:0:0:0:
240,256,99864,1,0,0:0:0:0:
96,80,100046,1,8,0:0:0:0:
128,192,100228,6,0,L|192:224,3,62.5,4|0|0|0,0:0|0:0|0:0|0:0,0:0:0:0:
193,316,100591,2,0,L|368:320,1,125,8|0,0:0|0:0,0:0:0:0:
368,80,100955,5,4,0:0:0:0:
396,108,101046,1,0,0:0:0:0:
367,136,101137,1,0,0:0:0:0:
395,164,101228,1,0,0:0:0:0:
366,192,101318,2,0,P|318:208|240:176,1,125,0|8,0:0|0:0,0:0:0:0:
96,80,101682,2,0,P|144:64|240:128,1,125,4|8,0:0|0:0,0:0:0:0:
208,320,102046,6,0,P|255:334|352:304,1,125,10|0,0:0|0:0,0:0:0:0:
436,179,102409,1,4,0:0:0:0:
436,179,102500,1,0,0:0:0:0:
436,179,102591,1,8,0:0:0:0:
304,48,102773,1,0,0:0:0:0:
256,272,102955,1,8,0:0:0:0:
83,242,103137,5,4,0:0:0:0:
63,207,103228,1,0,0:0:0:0:
55,167,103319,1,0,0:0:0:0:
48,128,103409,1,0,0:0:0:0:
48,96,103500,2,0,P|112:80|188:95,1,125,4|8,0:0|0:0,0:0:0:0:
384,320,104046,6,0,L|464:224,1,125,4|8,0:0|0:0,0:0:0:0:
128,64,104591,2,0,L|64:144,1,100,4|2,0:0|0:0,0:0:0:0:
192,96,116591,6,0,P|304:80|384:112,2,200,8|8|8,0:0|0:0|0:0,0:0:0:0:
160,208,117682,1,8,0:0:0:0:
304,192,117864,2,0,P|352:192|400:240,1,100,0|8,0:0|0:0,0:0:0:0:
240,288,118409,5,8,0:0:0:0:
96,192,118773,1,8,0:0:0:0:
224,112,119137,1,8,0:0:0:0:
144,64,119500,5,8,0:0:0:0:
336,112,119864,1,8,0:0:0:0:
329,161,119954,1,0,0:0:0:0:
306,205,120045,1,0,0:0:0:0:
268,237,120136,1,0,0:0:0:0:
221,254,120227,1,8,0:0:0:0:
144,208,120591,5,8,0:0:0:0:
208,80,120773,2,0,P|272:80|336:112,1,100,0|8,0:0|0:0,0:0:0:0:
384,208,121318,2,0,P|320:256|288:256,2,100,8|0|8,0:0|0:0|0:0,0:0:0:0:
112,176,122046,1,8,0:0:0:0:
240,240,122228,5,0,0:0:0:0:
240,240,122318,1,0,0:0:0:0:
240,240,122409,1,8,0:0:0:0:
112,112,122773,1,8,0:0:0:0:
288,64,123137,1,8,0:0:0:0:
304,256,123500,2,0,L|208:304,2,100,8|0|8,0:0|0:0|0:0,0:0:0:0:
432,208,124228,5,8,0:0:0:0:
320,80,124591,1,8,0:0:0:0:
208,160,124955,1,8,0:0:0:0:
112,304,125137,2,0,L|48:256,2,50,0|0|8,0:0|0:0|0:0,0:0:0:0:
288,240,125682,5,8,0:0:0:0:
192,144,126046,2,0,L|144:176,5,50,8|0|0|0|8|0,0:0|0:0|0:0|0:0|0:0|0:0,0:0:0:0:
256,80,126773,1,8,0:0:0:0:
96,96,127137,5,4,0:0:0:0:
280,154,127318,2,0,L|280:90,2,50,4|4|4,0:0|0:0|0:0,0:0:0:0:
280,154,127682,2,0,L|365:154,2,50,4|4|4,0:0|0:0|0:0,0:0:0:0:
336,32,128046,1,8,0:0:0:0:
96,176,128228,6,0,P|112:240|224:304,1,200,10|4,0:0|0:0,0:0:0:0:
368,240,128955,1,0,0:0:0:0:
432,96,129137,2,0,P|368:64|320:64,1,100,8|4,0:0|0:0,0:0:0:0:
240,80,129500,1,0,0:0:0:0:
217,178,129682,1,8,0:0:0:0:
112,208,129864,5,0,0:0:0:0:
100,256,129955,1,0,0:0:0:0:
100,306,130046,1,4,0:0:0:0:
272,336,130228,2,0,P|320:304|336:256,1,100
361,52,130591,6,0,L|503:51,1,100,8|4,0:0|0:0,0:0:0:0:
464,128,130955,2,0,L|464:247,1,100,8|8,0:0|0:0,0:0:0:0:
342,248,131500,1,4,0:0:0:0:
141,252,131682,1,8,0:0:0:0:
288,80,132046,6,0,P|224:96|224:128,2,100,8|4|0,0:0|0:0|0:0,0:0:0:0:
384,192,132591,1,0,0:0:0:0:
224,192,132773,1,8,0:0:0:0:
304,320,132955,1,4,0:0:0:0:
64,240,133318,6,0,P|78:127|93:111,1,100,8|8,0:0|0:0,0:0:0:0:
211,53,133682,1,4,0:0:0:0:
135,198,133864,1,8,0:0:0:0:
322,241,134046,1,10,0:0:0:0:
320,48,134409,1,4,0:0:0:0:
368,48,134955,6,0,P|416:112|432:144,1,100,8|4,0:0|0:0,0:0:0:0:
432,224,135318,1,0,0:0:0:0:
384,320,135500,1,8,0:0:0:0:
288,272,135682,2,0,P|256:240|240:208,2,50,0|0|4,0:0|0:0|0:0,0:0:0:0:
448,128,136046,2,0,P|416:80|368:48,1,100
176,96,136409,5,8,0:0:0:0:
80,224,136591,2,0,P|64:288|64:352,2,100,4|8|8,0:0|0:0|0:0,0:0:0:0:
176,96,137228,2,0,P|144:176|176:224,1,150,0|8,0:0|0:0,0:0:0:0:
256,256,137682,1,0,0:0:0:0:
336,240,137864,2,0,P|352:160|336:96,1,100,8|4,0:0|0:0,0:0:0:0:
256,64,138228,1,0,0:0:0:0:
112,112,138409,6,0,P|75:146|66:196,1,100,4|8,0:0|0:0,0:0:0:0:
240,256,138773,1,0,0:0:0:0:
320,192,138955,6,0,P|310:144|275:111,1,100,4|8,0:0|0:0,0:0:0:0:
192,48,139318,1,0,0:0:0:0:
146,125,139500,6,0,P|156:173|192:207,1,100,4|8,0:0|0:0,0:0:0:0:
241,294,139864,5,10,0:0:0:0:
257,47,140046,1,0,0:0:0:0:
288,176,140228,1,4,0:0:0:0:
336,176,140318,1,0,0:0:0:0:
384,176,140409,1,0,0:0:0:0:
257,47,140591,2,0,P|193:47|145:79,1,100,0|8,0:0|0:0,0:0:0:0:
160,144,140955,5,4,0:0:0:0:
163,173,141045,1,0,0:0:0:0:
173,201,141136,1,0,0:0:0:0:
190,226,141227,1,0,0:0:0:0:
208,256,141318,6,0,P|272:256|320:288,1,100,8|0,0:0|0:0,0:0:0:0:
267,333,141682,1,4,0:0:0:0:
221,333,141773,1,0,0:0:0:0:
175,333,141864,1,0,0:0:0:0:
129,333,141955,1,0,0:0:0:0:
80,336,142046,5,0,0:0:0:0:
176,64,142228,1,8,0:0:0:0:
384,156,142409,1,4,0:0:0:0:
256,48,142591,1,8,0:0:0:0:
384,156,142773,6,0,P|384:252|356:278,1,100,8|0,0:0|0:0,0:0:0:0:
208,272,143137,1,4,0:0:0:0:
256,288,143228,1,0,0:0:0:0:
304,272,143318,1,8,0:0:0:0:
319,48,143500,6,0,P|369:44|414:63,1,100,0|8,0:0|0:0,0:0:0:0:
192,64,143864,5,4,0:0:0:0:
144,48,143954,1,0,0:0:0:0:
96,64,144045,1,0,0:0:0:0:
64,96,144137,1,0,0:0:0:0:
64,146,144228,6,0,P|128:194|160:194,1,100,0|8,0:0|0:0,0:0:0:0:
384,224,144591,1,4,0:0:0:0:
432,192,144682,1,0,0:0:0:0:
464,144,144773,1,0,0:0:0:0:
464,96,144864,1,0,0:0:0:0:
368,96,144955,5,8,0:0:0:0:
320,224,145137,1,8,0:0:0:0:
368,96,145318,1,4,0:0:0:0:
224,128,145500,1,8,0:0:0:0:
176,48,145682,6,0,P|112:97|84:139,1,100,10|0,0:0|0:0,0:0:0:0:
96,288,146046,2,0,L|112:336,2,50,4|0|0,0:0|0:0|0:0,0:0:0:0:
192,64,146409,6,0,P|213:108|246:146,1,100,0|8,0:0|0:0,0:0:0:0:
272,176,146773,1,4,0:0:0:0:
288,192,146864,1,0,0:0:0:0:
304,208,146955,1,0,0:0:0:0:
320,224,147046,1,0,0:0:0:0:
352,334,147137,6,0,P|288:334|240:318,1,100,8|0,0:0|0:0,0:0:0:0:
84,167,147500,1,4,0:0:0:0:
48,131,147591,1,0,0:0:0:0:
48,80,147682,1,0,0:0:0:0:
83,44,147773,1,0,0:0:0:0:
133,44,147864,2,0,P|181:108|197:140,1,100,0|8,0:0|0:0,0:0:0:0:
144,336,148228,2,0,P|112:297|86:254,1,100,4|8,0:0|0:0,0:0:0:0:
336,128,148591,6,0,P|346:187|304:208,1,100,8|0,0:0|0:0,0:0:0:0:
205,93,148955,1,4,0:0:0:0:
176,64,149046,1,0,0:0:0:0:
138,48,149137,1,0,0:0:0:0:
163,340,149318,6,0,P|133:285|87:223,1,100,0|8,0:0|0:0,0:0:0:0:
242,83,149682,1,4,0:0:0:0:
246,87,149773,1,0,0:0:0:0:
256,96,149864,1,0,0:0:0:0:
256,96,149955,1,0,0:0:0:0:
256,96,150046,6,0,P|335:84|369:73,1,100,8|8,0:0|0:0,0:0:0:0:
446,254,150409,1,8,0:0:0:0:
448,304,150500,1,8,0:0:0:0:
413,340,150591,1,8,0:0:0:0:
363,341,150682,1,8,0:0:0:0:
368,128,150773,5,4,0:0:0:0:
128,128,150955,1,4,0:0:0:0:
144,320,151137,6,0,P|256:336|368:320,1,200,4|10,0:0|0:0,0:0:0:0:
432,208,151682,5,0,0:0:0:0:
269,109,151864,1,4,0:0:0:0:
240,80,151955,1,0,0:0:0:0:
202,64,152046,1,0,0:0:0:0:
336,304,152228,1,0,0:0:0:0:
128,96,152409,1,8,0:0:0:0:
349,195,152591,5,4,0:0:0:0:
320,224,152682,1,0,0:0:0:0:
282,240,152773,1,0,0:0:0:0:
240,240,152864,1,0,0:0:0:0:
192,240,152955,2,0,P|96:208|80:192,1,125,8|0,0:0|0:0,0:0:0:0:
368,192,153318,5,4,0:0:0:0:
368,192,153409,1,0,0:0:0:0:
368,192,153500,1,0,0:0:0:0:
368,192,153591,1,0,0:0:0:0:
366,192,153682,2,0,P|318:208|208:160,1,125,0|8,0:0|0:0,0:0:0:0:
64,64,154046,1,4,0:0:0:0:
144,320,154228,1,8,0:0:0:0:
416,256,154409,6,0,P|464:208|448:128,1,125,8|0,0:0|0:0,0:0:0:0:
256,64,154773,1,4,0:0:0:0:
256,64,154864,1,0,0:0:0:0:
256,64,154955,1,0,0:0:0:0:
144,96,155137,1,0,0:0:0:0:
272,320,155318,1,8,0:0:0:0:
432,272,155500,5,4,0:0:0:0:
431,228,155590,1,0,0:0:0:0:
420,186,155681,1,0,0:0:0:0:
400,144,155773,1,0,0:0:0:0:
368,112,155864,2,0,P|289:78|241:78,1,125,8|0,0:0|0:0,0:0:0:0:
256,176,156228,6,0,L|304:240,1,62.5,4|0,0:0|0:0,0:0:0:0:
347,182,156409,6,0,L|307:128,1,62.5
400,320,156591,1,0,0:0:0:0:
184,159,156773,1,8,0:0:0:0:
448,256,156955,1,4,0:0:0:0:
256,96,157137,1,8,0:0:0:0:
80,64,157318,6,0,P|75:143|112:176,1,125,10|0,0:0|0:0,0:0:0:0:
208,317,157682,2,0,L|272:320,2,62.5,4|0|0,0:0|0:0|0:0,0:0:0:0:
336,64,158046,2,0,P|384:112|432:160,1,125,0|8,0:0|0:0,0:0:0:0:
240,64,158409,5,4,0:0:0:0:
256,112,158500,1,0,0:0:0:0:
256,160,158591,1,0,0:0:0:0:
256,208,158682,1,0,0:0:0:0:
272,256,158773,2,0,P|288:256|368:192,1,125,8|0,0:0|0:0,0:0:0:0:
240,144,159137,5,4,0:0:0:0:
200,163,159227,1,0,0:0:0:0:
164,188,159318,1,0,0:0:0:0:
133,218,159409,1,0,0:0:0:0:
106,253,159500,1,0,0:0:0:0:
64,128,159682,1,8,0:0:0:0:
64,336,159864,1,4,0:0:0:0:
240,144,160046,1,8,0:0:0:0:
400,80,160228,6,0,P|404:151|384:224,1,125,10|0,0:0|0:0,0:0:0:0:
288,304,160591,2,0,P|240:336|192:336,2,62.5,4|0|8,0:0|0:0|0:0,0:0:0:0:
304,80,160955,1,0,0:0:0:0:
144,80,161137,1,8,0:0:0:0:
64,192,161318,2,0,P|48:240|48:288,3,62.5,4|0|0|0,0:0|0:0|0:0|0:0,0:0:0:0:
144,304,161682,5,6,0:0:0:0:
160,192,161864,1,8,0:0:0:0:
272,144,162046,1,8,0:0:0:0:
384,224,162228,1,4,0:0:0:0:
288,320,162409,1,0,0:0:0:0:
256,192,162591,5,0,0:0:0:0:
256,192,162682,1,0,0:0:0:0:
256,192,162773,1,0,0:0:0:0:
416,80,162955,5,8,0:0:0:0:
304,80,163137,2,0,P|224:80|144:96,1,125,10|0,0:0|0:0,0:0:0:0:
80,224,163500,1,4,0:0:0:0:
80,269,163591,1,0,0:0:0:0:
80,314,163682,1,0,0:0:0:0:
272,336,163864,2,0,P|315:309|304:240,1,125,0|8,0:0|0:0,0:0:0:0:
208,128,164228,5,4,0:0:0:0:
256,128,164318,1,0,0:0:0:0:
300,127,164409,1,0,0:0:0:0:
345,127,164500,1,0,0:0:0:0:
368,160,164591,2,0,L|432:272,1,125,8|0,0:0|0:0,0:0:0:0:
160,304,164955,5,4,0:0:0:0:
128,288,165046,1,0,0:0:0:0:
112,272,165137,1,0,0:0:0:0:
107,249,165228,1,0,0:0:0:0:
112,224,165318,1,0,0:0:0:0:
432,192,165500,2,0,P|375:133|311:117,2,125,8|4|8,0:0|0:0|0:0,0:0:0:0:
256,112,166046,6,0,P|182:154|159:198,1,125,8|0,0:0|0:0,0:0:0:0:
272,240,166409,2,0,L|333:216,2,62.5,4|0|0,0:0|0:0|0:0,0:0:0:0:
190,221,166773,1,0,0:0:0:0:
192,144,166955,1,8,0:0:0:0:
160,64,167137,2,0,P|112:64|80:80,3,62.5,4|0|0|0,0:0|0:0|0:0|0:0,0:0:0:0:
96,96,167500,2,0,P|48:160|96:224,1,125,8|0,0:0|0:0,0:0:0:0:
160,224,167864,5,4,0:0:0:0:
208,224,167955,1,0,0:0:0:0:
256,224,168046,1,0,0:0:0:0:
304,224,168137,1,0,0:0:0:0:
352,224,168228,1,0,0:0:0:0:
240,320,168409,1,8,0:0:0:0:
240,128,168591,1,4,0:0:0:0:
240,320,168773,1,8,0:0:0:0:
436,259,168955,6,0,P|448:203|416:112,1,125,10|0,0:0|0:0,0:0:0:0:
304,48,169318,2,0,L|208:32,2,62.5,4|0|0,0:0|0:0|0:0,0:0:0:0:
384,192,169682,1,0,0:0:0:0:
128,256,169864,1,8,0:0:0:0:
96,96,170046,5,4,0:0:0:0:
144,80,170137,1,0,0:0:0:0:
192,80,170228,1,0,0:0:0:0:
240,80,170318,1,0,0:0:0:0:
288,96,170409,2,0,P|330:118|336:192,1,125,8|0,0:0|0:0,0:0:0:0:
239,272,170773,1,4,0:0:0:0:
208,304,170864,1,0,0:0:0:0:
177,336,170955,1,0,0:0:0:0:
146,305,171046,1,0,0:0:0:0:
115,274,171137,5,0,0:0:0:0:
96,96,171318,1,8,0:0:0:0:
288,96,171500,1,4,0:0:0:0:
464,256,171682,1,8,0:0:0:0:
240,320,171864,6,0,P|160:336|80:320,1,125,10|0,0:0|0:0,0:0:0:0:
64,208,172228,1,4,0:0:0:0:
48,160,172318,1,0,0:0:0:0:
64,112,172409,1,8,0:0:0:0:
208,64,172591,2,0,P|254:48|320:80,1,125,0|8,0:0|0:0,0:0:0:0:
448,128,172955,5,4,0:0:0:0:
448,176,173046,1,0,0:0:0:0:
416,224,173137,1,0,0:0:0:0:
368,240,173228,1,0,0:0:0:0:
320,240,173318,6,0,L|192:240,1,125,8|0,0:0|0:0,0:0:0:0:
160,160,173682,2,0,L|144:96,3,62.5
192,48,174046,1,4,0:0:0:0:
384,160,174228,1,4,0:0:0:0:
160,240,174409,1,4,0:0:0:0:
448,144,174773,6,0,B|416:208|416:208|352:208,1,125,10|0,0:0|0:0,0:0:0:0:
215,317,175137,1,4,0:0:0:0:
215,317,175228,1,0,0:0:0:0:
215,317,175319,1,0,0:0:0:0:
384,160,175500,1,0,0:0:0:0:
112,256,175682,1,8,0:0:0:0:
240,304,175864,5,4,0:0:0:0:
256,256,175955,1,0,0:0:0:0:
256,208,176046,1,0,0:0:0:0:
256,160,176137,1,0,0:0:0:0:
240,116,176228,2,0,P|208:80|96:80,1,125
128,144,176591,5,4,0:0:0:0:
128,192,176682,1,0,0:0:0:0:
128,240,176773,1,0,0:0:0:0:
144,288,176864,1,0,0:0:0:0:
160,336,176955,5,0,0:0:0:0:
192,144,177137,1,8,0:0:0:0:
32,176,177318,1,4,0:0:0:0:
160,192,177500,1,8,0:0:0:0:
208,336,177682,6,0,P|272:320|288:256,1,125,8|0,0:0|0:0,0:0:0:0:
330,118,178046,1,4,0:0:0:0:
160,48,178228,1,0,0:0:0:0:
160,192,178409,2,0,L|240:192,2,62.5,0|0|8,0:0|0:0|0:0,0:0:0:0:
304,192,178773,2,0,L|448:192,2,125,4|0|8,0:0|0:0|0:0,0:0:0:0:
400,48,179318,6,0,L|272:48,3,125,0|4|0|0,0:0|0:0|0:0|0:0,0:0:0:0:
48,112,180046,1,8,0:0:0:0:
400,128,180228,1,4,0:0:0:0:
96,48,180409,1,8,0:0:0:0:
192,208,180591,6,0,L|288:112,2,125,10|0|12,0:0|0:0|0:0,0:0:0:0:
96,320,181137,1,0,0:0:0:0:
240,320,181318,1,0,0:0:0:0:
64,224,181500,2,0,P|64:160|96:96,1,125,8|4,0:0|0:0,0:0:0:0:
128,48,181864,1,0,0:0:0:0:
256,144,182046,1,8,0:0:0:0:
208,48,182228,1,0,0:0:0:0:
304,144,182409,6,0,L|384:144,3,62.5,4|0|0|0,0:0|0:0|0:0|0:0,0:0:0:0:
432,144,182773,1,0,0:0:0:0:
288,64,182955,1,8,0:0:0:0:
432,224,183137,1,4,0:0:0:0:
368,64,183318,1,8,0:0:0:0:
336,256,183500,5,10,0:0:0:0:
176,256,183682,1,0,0:0:0:0:
336,176,183864,1,4,0:0:0:0:
96,176,184046,1,8,0:0:0:0:
80,96,184228,2,0,L|144:48,2,62.5,0|0|8,0:0|0:0|0:0,0:0:0:0:
64,256,184591,2,0,L|160:352,2,125,4|0|0,0:0|0:0|0:0,0:0:0:0:
256,48,185318,5,0,0:0:0:0:
64,192,185682,5,4,0:0:0:0:
259,72,185864,1,4,0:0:0:0:
448,192,186046,1,6,0:0:0:0:
256,336,186409,5,0,0:0:0:0:
422,276,187864,5,8,0:0:0:0:
96,128,188592,5,0,0:0:0:0:
368,128,189318,5,8,0:0:0:0:
176,256,190773,5,0,0:0:0:0:
320,128,191501,1,8,0:0:0:0:
96,112,192228,5,10,0:0:0:0:
121,294,193682,5,8,0:0:0:0:
368,160,195137,5,8,0:0:0:0:
400,128,197682,2,0,L|304:240,2,100,4|8|2,0:0|0:0|0:0,0:0:0:0:
192,240,199137,2,0,P|176:272|112:304,2,100,4|8|8,0:0|0:0|0:0,0:0:0:0:
272,176,199864,1,4,0:0:0:0:
80,160,200228,1,0,0:0:0:0:
352,80,200591,1,4,0:0:0:0:
192,240,200955,21,8,0:0:0:0:
336,240,201682,5,0,0:0:0:0:
96,160,202409,1,0,0:0:0:0:
320,96,203500,5,4,0:0:0:0:
224,304,203682,1,8,0:0:0:0:
160,112,203864,1,8,0:0:0:0:
368,80,204591,5,0,0:0:0:0:
176,176,204955,2,0,L|256:256,2,100,4|0|8,0:0|0:0|0:0,0:0:0:0:
368,144,206773,5,8,0:0:0:0:
64,288,209682,5,2,0:0:0:0:
256,272,210409,1,0,0:0:0:0:
400,128,211137,1,8,0:0:0:0:
384,112,212591,5,8,0:0:0:0:
256,208,212773,1,0,0:0:0:0:
112,96,212955,1,4,0:0:0:0:
256,96,213137,2,0,P|304:144|352:272,1,200,0|8,0:0|0:0,0:0:0:0:
176,336,214046,1,0,0:0:0:0:
448,208,214773,1,8,0:0:0:0:
288,288,215501,5,8,0:0:0:0:
96,128,216228,1,0,0:0:0:0:
256,160,216773,1,0,0:0:0:0:
256,160,216864,1,0,0:0:0:0:
256,160,216955,1,8,0:0:0:0:
416,128,217318,1,4,0:0:0:0:
96,272,217682,1,0,0:0:0:0:
208,80,218046,5,4,0:0:0:0:
320,176,218409,2,0,P|368:224|416:368,1,200,8|4,0:0|0:0,0:0:0:0:
384,288,219864,1,0,0:0:0:0:
368,256,221318,5,8,0:0:0:0:
384,144,222409,1,0,0:0:0:0:
224,112,222591,1,0,0:0:0:0:
96,192,222773,2,0,P|128:288|256:320,1,200,8|4,0:0|0:0,0:0:0:0:
368,112,223864,5,4,0:0:0:0:
144,160,224046,1,8,0:0:0:0:
288,256,224228,1,8,0:0:0:0:
304,160,225682,5,0,0:0:0:0:
224,112,226773,1,4,0:0:0:0:
128,256,226955,1,8,0:0:0:0:
304,288,227137,2,0,P|384:288|480:192,1,200,8|4,0:0|0:0,0:0:0:0:
368,96,228591,1,8,0:0:0:0:
64,256,229318,5,0,0:0:0:0:
80,176,230046,2,0,P|208:112|304:112,1,200,8|4,0:0|0:0,0:0:0:0:
256,192,232955,12,0,243137,0:0:0:0:
