osu file format v14

[General]
AudioFilename: audio.mp3
AudioLeadIn: 0
PreviewTime: -1
Countdown: 0
SampleSet: None
StackLeniency: 0.7
Mode: 0
LetterboxInBreaks: 0
WidescreenStoryboard: 0

[Editor]
Bookmarks: 45950,57447,114932,124992,137926,160920
DistanceSpacing: 1
BeatDivisor: 4
GridSize: 8
TimelineZoom: 2

[Metadata]
Title:The Drums and Bass of Flower Bless
TitleUnicode:The Drums and Bass of Flower Bless
Artist:Ravel Nightstar
ArtistUnicode:Ravel Nightstar
Creator:Evelynn
Version:Flandre
Source:Touhou
Tags:
BeatmapID:1475888
BeatmapSetID:696803

[Difficulty]
HPDrainRate:6
CircleSize:4
OverallDifficulty:8
ApproachRate:9
SliderMultiplier:1.6
SliderTickRate:1

[Events]
//Background and Video events
0,0,"37261606_p0.jpg",0,0
//Break Periods
//Storyboard Layer 0 (Background)
//Storyboard Layer 1 (Fail)
//Storyboard Layer 2 (Pass)
//Storyboard Layer 3 (Foreground)
//Storyboard Sound Samples

[TimingPoints]
1400,359.281437125748,4,1,0,100,1,0
45950,-100,4,3,0,100,0,0
57447,-100,4,3,0,100,0,0
68944,-90.9090909090909,4,2,0,100,0,1
79004,-90.9090909090909,4,3,0,100,0,1
80441,-100,4,3,0,100,0,0
91938,-76.9230769230769,4,2,0,100,0,1
101998,-76.9230769230769,4,3,0,100,0,1
103435,-100,4,3,0,100,0,0
124992,-100,4,3,0,100,0,0
149423,-76.9230769230769,4,2,0,100,0,1
159483,-76.9230769230769,4,3,0,100,0,1
160920,-76.9230769230769,4,2,0,100,0,1
170980,-90.9090909090909,4,3,0,100,0,0
172417,-76.9230769230769,4,2,0,100,0,1
183196,-76.9230769230769,4,3,0,100,0,1
183914,-100,4,3,0,100,0,0

[HitObjects]
256,192,45950,12,0,57088,0:0:0:0:
64,144,57447,6,0,B|112:152|160:152|184:184|232:168,1,160,2|8,0:0|0:0,0:0:0:0:
472,256,58346,2,0,L|376:304,1,80
400,288,58705,1,0,0:0:0:0:
312,208,58885,2,0,P|304:152|400:80,1,160,0|8,0:0|0:0,0:0:0:0:
136,128,59783,2,0,L|72:40,2,80
216,200,60322,2,0,P|160:232|152:328,1,160,2|8,0:0|0:0,0:0:0:0:
148,320,60861,1,0,0:0:0:0:
440,296,61220,6,0,L|368:232,1,80
376,240,61579,1,0,0:0:0:0:
328,96,61759,2,0,L|280:176,1,80
192,152,62118,2,0,L|216:240,1,80,8|0,0:0|0:0,0:0:0:0:
292,309,62477,2,0,P|244:317|212:229,1,160
212,228,63016,1,0,0:0:0:0:
96,80,63196,6,0,P|96:160|16:192,1,160,2|8,0:0|0:0,0:0:0:0:
192,72,63914,2,0,P|200:128|304:160,1,160
287,166,64453,1,0,0:0:0:0:
448,128,64813,2,0,L|464:32,2,80,0|8|0,0:0|0:0|0:0,0:0:0:0:
448,128,65352,1,0,0:0:0:0:
192,72,65711,1,0,0:0:0:0:
184,72,66070,6,0,L|192:160,1,80,2|0,0:0|0:0,0:0:0:0:
264,152,66429,2,0,L|272:248,1,80,8|0,0:0|0:0,0:0:0:0:
270,231,66789,1,0,0:0:0:0:
448,296,66968,1,0,0:0:0:0:
440,280,67058,1,0,0:0:0:0:
432,264,67148,2,0,L|416:344,1,80
320,304,67507,6,0,P|312:240|320:208,1,80
352,112,67867,1,8,0:0:0:0:
352,112,68046,2,0,L|248:152,1,80
192,160,68405,1,0,0:0:0:0:
96,72,68585,1,0,0:0:0:0:
72,104,68675,1,0,0:0:0:0:
72,136,68765,1,0,0:0:0:0:
88,160,68855,1,0,0:0:0:0:
112,168,68944,6,0,L|168:88,1,88.000002685547,2|0,0:0|0:0,0:0:0:0:
304,48,69304,1,8,0:0:0:0:
304,48,69394,1,0,0:0:0:0:
304,48,69483,1,0,0:0:0:0:
368,192,69663,2,0,L|288:264,1,88.000002685547
96,240,70022,1,8,0:0:0:0:
96,240,70112,1,0,0:0:0:0:
96,240,70202,2,0,L|176:184,1,88.000002685547
408,96,70561,5,0,0:0:0:0:
256,128,70741,1,8,0:0:0:0:
256,128,70831,1,0,0:0:0:0:
256,128,70920,1,0,0:0:0:0:
256,128,71010,1,0,0:0:0:0:
256,128,71100,1,0,0:0:0:0:
368,256,71280,1,0,0:0:0:0:
184,328,71459,1,8,0:0:0:0:
136,152,71639,1,0,0:0:0:0:
136,152,71819,6,0,L|96:32,1,88.000002685547,2|0,0:0|0:0,0:0:0:0:
16,160,72178,1,8,0:0:0:0:
24,192,72268,1,0,0:0:0:0:
48,216,72358,2,0,L|144:248,1,88.000002685547
296,192,72717,1,0,0:0:0:0:
328,160,72807,1,0,0:0:0:0:
344,120,72897,1,8,0:0:0:0:
352,24,73076,1,0,0:0:0:0:
160,200,73256,6,0,L|224:104,1,88.000002685547
256,48,73615,1,8,0:0:0:0:
104,88,73795,1,0,0:0:0:0:
96,128,73885,1,0,0:0:0:0:
120,160,73974,2,0,L|16:120,1,88.000002685547,0|8,0:0|0:0,0:0:0:0:
80,264,74334,2,0,L|176:304,1,88.000002685547,8|0,0:0|0:0,0:0:0:0:
400,216,74693,6,0,L|344:296,1,88.000002685547,2|0,0:0|0:0,0:0:0:0:
208,336,75053,1,8,0:0:0:0:
208,336,75143,1,0,0:0:0:0:
208,336,75232,1,0,0:0:0:0:
144,192,75412,2,0,L|224:120,1,88.000002685547
416,144,75771,1,8,0:0:0:0:
416,144,75861,1,0,0:0:0:0:
416,144,75951,2,0,L|336:200,1,88.000002685547
104,288,76310,5,0,0:0:0:0:
256,256,76490,1,8,0:0:0:0:
256,256,76580,1,0,0:0:0:0:
256,256,76669,1,0,0:0:0:0:
256,256,76759,1,0,0:0:0:0:
256,256,76849,1,0,0:0:0:0:
144,128,77029,1,0,0:0:0:0:
328,56,77208,1,8,0:0:0:0:
376,232,77388,1,0,0:0:0:0:
376,232,77567,6,0,L|416:352,1,88.000002685547,2|0,0:0|0:0,0:0:0:0:
496,224,77927,1,8,0:0:0:0:
488,192,78017,1,0,0:0:0:0:
464,168,78107,2,0,L|368:136,1,88.000002685547
216,192,78466,1,0,0:0:0:0:
184,224,78556,1,0,0:0:0:0:
168,264,78646,1,8,0:0:0:0:
232,64,78825,1,0,0:0:0:0:
352,152,79004,5,8,0:0:0:0:
352,152,79094,1,8,0:0:0:0:
352,152,79184,1,8,0:0:0:0:
64,176,79543,5,8,0:0:0:0:
64,176,79632,1,8,0:0:0:0:
64,176,79722,1,8,0:0:0:0:
104,40,79902,1,8,0:0:0:0:
144,296,80082,1,8,0:0:0:0:
368,48,80262,1,8,0:0:0:0:
368,168,80441,6,0,P|336:128|320:88,1,80,2|2,0:0|0:0,0:0:0:0:
224,48,80801,1,0,0:0:0:0:
224,48,80891,1,0,0:0:0:0:
224,48,80980,1,0,0:0:0:0:
224,48,81070,1,0,0:0:0:0:
224,48,81160,2,0,L|176:152,1,80
144,208,81519,1,0,0:0:0:0:
48,272,81699,2,0,L|16:320,2,40,0|0|2,0:0|0:0|0:0,0:0:0:0:
48,128,82058,5,0,0:0:0:0:
48,160,82148,1,0,0:0:0:0:
48,192,82238,1,0,0:0:0:0:
192,80,82417,1,2,0:0:0:0:
176,104,82507,1,0,0:0:0:0:
160,128,82597,1,0,0:0:0:0:
328,64,82777,1,2,0:0:0:0:
280,288,82956,1,2,0:0:0:0:
200,96,83136,1,0,0:0:0:0:
368,112,83316,6,0,L|440:184,1,80,2|2,0:0|0:0,0:0:0:0:
480,248,83675,1,0,0:0:0:0:
352,272,83855,1,0,0:0:0:0:
352,272,83944,1,0,0:0:0:0:
352,272,84034,1,0,0:0:0:0:
248,144,84214,2,0,L|224:248,1,80
160,304,84573,1,0,0:0:0:0:
320,48,84753,2,0,P|272:72|176:40,1,160,2|0,0:0|0:0,0:0:0:0:
96,64,85292,2,0,P|128:120|64:208,1,160,2|2,0:0|0:0,0:0:0:0:
144,280,85831,2,0,L|208:216,1,80,2|0,0:0|0:0,0:0:0:0:
288,128,86190,6,0,P|304:184|288:232,1,80,2|2,0:0|0:0,0:0:0:0:
288,336,86550,1,0,0:0:0:0:
288,336,86640,1,0,0:0:0:0:
288,336,86729,1,0,0:0:0:0:
288,336,86819,1,0,0:0:0:0:
288,336,86909,2,0,L|336:232,1,80,0|2,0:0|0:0,0:0:0:0:
368,176,87268,1,0,0:0:0:0:
464,112,87448,2,0,L|496:64,2,40,0|0|2,0:0|0:0|0:0,0:0:0:0:
248,64,87807,5,0,0:0:0:0:
272,80,87897,1,0,0:0:0:0:
304,96,87987,1,0,0:0:0:0:
328,280,88166,1,2,0:0:0:0:
344,248,88256,1,0,0:0:0:0:
360,208,88346,1,0,0:0:0:0:
184,320,88526,1,2,0:0:0:0:
232,96,88705,1,2,0:0:0:0:
368,240,88885,1,0,0:0:0:0:
128,256,89064,6,0,L|112:168,1,80,2|2,0:0|0:0,0:0:0:0:
88,72,89423,1,4,0:0:0:0:
88,72,89603,1,0,0:0:0:0:
240,120,89783,2,0,L|216:208,1,80,2|0,0:0|0:0,0:0:0:0:
192,288,90142,1,4,0:0:0:0:
192,288,90322,1,0,0:0:0:0:
352,232,90501,6,0,P|376:184|376:136,1,80,2|0,0:0|0:0,0:0:0:0:
368,64,90861,1,0,0:0:0:0:
264,336,91040,1,0,0:0:0:0:
248,304,91130,1,0,0:0:0:0:
248,264,91220,1,2,0:0:0:0:
288,160,91399,1,2,0:0:0:0:
136,72,91579,1,2,0:0:0:0:
128,112,91669,1,0,0:0:0:0:
128,152,91759,1,0,0:0:0:0:
144,184,91849,1,0,0:0:0:0:
176,200,91938,6,0,P|112:224|88:272,1,103.999995239258,8|0,0:0|0:0,0:0:0:0:
72,336,92298,1,4,0:0:0:0:
288,296,92477,1,0,0:0:0:0:
160,120,92657,1,0,0:0:0:0:
320,240,92837,1,8,0:0:0:0:
128,296,93016,1,0,0:0:0:0:
272,112,93196,1,0,0:0:0:0:
256,136,93286,1,0,0:0:0:0:
256,168,93376,6,0,P|296:208|384:112,1,207.999990478516,8|4,0:0|0:0,0:0:0:0:
416,40,93914,2,0,P|464:88|464:168,1,103.999995239258
464,224,94274,1,12,0:0:0:0:
200,328,94453,2,0,P|200:240|240:208,1,103.999995239258,4|8,0:0|0:0,0:0:0:0:
312,64,94813,6,0,P|368:104|384:144,1,103.999995239258,8|0,0:0|0:0,0:0:0:0:
408,240,95172,1,4,0:0:0:0:
472,64,95352,1,0,0:0:0:0:
264,120,95531,1,0,0:0:0:0:
424,24,95711,1,8,0:0:0:0:
480,280,95891,1,0,0:0:0:0:
320,224,96070,1,0,0:0:0:0:
328,184,96160,1,0,0:0:0:0:
336,144,96250,6,0,L|200:208,1,103.999995239258,8|0,0:0|0:0,0:0:0:0:
104,232,96609,2,0,L|40:256,2,51.999997619629,4|0|0,0:0|0:0|0:0,0:0:0:0:
416,96,96968,1,0,0:0:0:0:
88,152,97148,2,0,L|8:176,2,51.999997619629,8|0|8,0:0|0:0|0:0,0:0:0:0:
416,96,97507,1,4,0:0:0:0:
384,248,97687,6,0,P|360:192|368:144,1,103.999995239258,8|0,0:0|0:0,0:0:0:0:
416,80,98046,1,0,0:0:0:0:
160,224,98226,1,0,0:0:0:0:
408,328,98405,1,0,0:0:0:0:
240,208,98585,1,8,0:0:0:0:
352,96,98765,1,0,0:0:0:0:
480,200,98944,1,0,0:0:0:0:
480,240,99034,1,0,0:0:0:0:
472,280,99124,6,0,P|328:272|328:256,1,207.999990478516,8|4,0:0|0:0,0:0:0:0:
320,184,99663,2,0,P|256:224|248:280,1,103.999995239258
208,336,100022,1,8,0:0:0:0:
216,32,100202,2,0,L|216:152,1,103.999995239258,4|8,0:0|0:0,0:0:0:0:
40,272,100561,6,0,L|144:232,1,103.999995239258,8|0,0:0|0:0,0:0:0:0:
240,192,100920,1,4,0:0:0:0:
32,136,101100,1,0,0:0:0:0:
184,104,101280,2,0,L|280:152,1,103.999995239258,8|0,0:0|0:0,0:0:0:0:
368,224,101639,1,4,0:0:0:0:
320,32,101819,1,0,0:0:0:0:
464,144,101998,5,8,0:0:0:0:
472,184,102088,1,8,0:0:0:0:
464,224,102178,1,8,0:0:0:0:
448,256,102268,1,8,0:0:0:0:
424,280,102358,2,0,P|384:224|408:160,1,103.999995239258,8|4,0:0|0:0,0:0:0:0:
432,56,102717,1,8,0:0:0:0:
288,256,102897,1,8,0:0:0:0:
296,232,102986,1,0,0:0:0:0:
296,200,103076,1,8,0:0:0:0:
160,24,103435,6,0,L|136:120,1,80,2|0,0:0|0:0,0:0:0:0:
48,80,103795,2,0,L|80:168,1,80
16,232,104154,2,0,L|104:248,1,80
184,264,104513,1,0,0:0:0:0:
184,264,104693,1,0,0:0:0:0:
296,256,104873,2,0,L|240:152,1,80
336,112,105232,2,0,L|232:80,1,80
128,176,105591,2,0,P|136:96|224:64,1,160
200,61,106130,1,0,0:0:0:0:
360,96,106310,6,0,L|288:152,1,80,2|0,0:0|0:0,0:0:0:0:
352,232,106669,2,0,L|256:208,1,80
240,304,107028,2,0,P|210:249|208:200,1,80
232,112,107388,1,0,0:0:0:0:
232,112,107567,1,0,0:0:0:0:
48,144,107747,2,0,L|152:128,1,80
248,96,108106,2,0,L|320:48,2,80
128,128,108645,1,0,0:0:0:0:
128,128,108825,2,0,L|144:216,1,80
256,320,109184,6,0,P|240:264|192:224,1,120,2|0,0:0|0:0,0:0:0:0:
142,206,109544,2,0,L|174:118,1,80
96,64,109903,2,0,L|184:48,1,80
280,80,110262,1,0,0:0:0:0:
280,80,110442,1,0,0:0:0:0:
392,88,110622,2,0,L|336:192,1,80
432,232,110981,2,0,L|328:264,1,80
224,168,111340,2,0,P|232:248|320:280,1,160
296,283,111879,1,0,0:0:0:0:
448,296,112058,6,0,L|384:224,1,80,2|0,0:0|0:0,0:0:0:0:
336,168,112417,1,0,0:0:0:0:
336,168,112597,1,0,0:0:0:0:
416,64,112777,1,0,0:0:0:0:
360,312,112956,1,0,0:0:0:0:
320,304,113046,1,0,0:0:0:0:
288,272,113136,1,0,0:0:0:0:
288,40,113316,2,0,L|224:96,1,80,0|4,0:0|0:0,0:0:0:0:
56,184,114932,6,0,P|88:144|112:128,1,80,2|0,0:0|0:0,0:0:0:0:
264,88,115292,2,0,L|200:160,1,80
176,296,115651,2,0,P|232:288|288:304,1,80
392,288,116010,1,0,0:0:0:0:
392,288,116190,2,0,L|328:224,1,80
280,120,116549,2,0,L|256:40,2,80
392,288,117088,2,0,L|320:208,1,80
280,120,117447,1,0,0:0:0:0:
280,120,117627,1,0,0:0:0:0:
176,240,117807,6,0,L|120:320,2,80,2|0|0,0:0|0:0|0:0,0:0:0:0:
280,120,118346,1,0,0:0:0:0:
280,120,118525,2,0,L|184:152,1,80
40,200,118885,1,0,0:0:0:0:
40,200,119064,2,0,P|48:136|136:80,1,160
216,112,119603,2,0,L|184:32,1,80
344,224,119962,2,0,L|304:136,1,80
310,151,120322,1,0,0:0:0:0:
40,200,120501,1,0,0:0:0:0:
144,152,120681,6,0,L|184:240,1,80,2|0,0:0|0:0,0:0:0:0:
320,288,121040,2,0,L|280:200,1,80
272,96,121399,1,0,0:0:0:0:
272,96,121579,2,0,L|336:160,1,80
416,176,121938,2,0,P|432:128|352:48,1,160
240,48,122477,2,0,L|256:144,1,80
272,232,122837,2,0,L|280:320,1,80
279,311,123196,1,0,0:0:0:0:
200,152,123376,1,0,0:0:0:0:
280,312,123555,6,0,L|264:224,1,80,2|0,0:0|0:0,0:0:0:0:
192,248,123914,2,0,L|176:136,1,80
104,208,124274,2,0,L|88:96,1,80
64,96,124543,1,0,0:0:0:0:
24,104,124633,2,0,L|16:192,1,80
48,304,124992,6,8,L|128:272,1,80,10|8,0:0|0:0,0:0:0:0:
296,160,125352,1,8,0:0:0:0:
192,32,125531,1,8,0:0:0:0:
152,40,125621,1,0,0:0:0:0:
128,64,125711,1,8,0:0:0:0:
120,272,125891,2,8,P|160:288|208:280,1,80
400,112,126250,1,8,0:0:0:0:
400,112,126429,6,0,L|392:208,1,80
352,328,126789,2,0,P|320:256|312:232,1,80,2|0,0:0|0:0,0:0:0:0:
240,64,127148,2,0,L|192:144,1,80
136,232,127507,1,2,0:0:0:0:
56,304,127687,2,0,P|8:280|-8:248,2,80
136,232,128226,1,2,0:0:0:0:
240,64,128405,2,0,L|192:144,1,80
136,232,128765,1,0,0:0:0:0:
136,232,128855,1,0,0:0:0:0:
136,232,128945,1,2,0:0:0:0:
56,304,129124,1,0,0:0:0:0:
40,184,129304,6,0,P|48:120|64:96,1,80
176,32,129663,2,0,P|168:88|152:112,1,80,2|0,0:0|0:0,0:0:0:0:
40,184,130022,1,0,0:0:0:0:
128,264,130202,2,0,P|176:248|216:256,1,80,0|2,0:0|0:0,0:0:0:0:
320,192,130561,2,0,L|400:192,2,80
200,128,131100,1,2,0:0:0:0:
88,96,131280,2,0,L|88:192,1,80
160,312,131639,5,0,0:0:0:0:
256,296,131819,1,2,0:0:0:0:
104,296,131998,1,0,0:0:0:0:
296,264,132178,2,0,L|264:184,1,80
144,88,132537,1,2,0:0:0:0:
144,88,132717,1,0,0:0:0:0:
144,88,132897,2,0,L|144:184,1,80
32,264,133256,5,2,0:0:0:0:
32,264,133435,2,0,L|32:168,1,80
48,64,133795,2,0,L|136:96,1,80,0|2,0:0|0:0,0:0:0:0:
152,104,134064,1,0,0:0:0:0:
192,120,134154,1,0,0:0:0:0:
360,240,134334,2,0,P|352:184|376:136,1,80
432,72,134693,1,2,0:0:0:0:
432,72,134873,1,0,0:0:0:0:
432,72,135052,6,0,L|432:200,2,120
200,112,135771,2,0,P|136:112|80:80,1,120
312,248,136310,1,0,0:0:0:0:
64,208,136489,5,8,0:0:0:0:
64,208,136579,1,8,0:0:0:0:
64,208,136669,1,8,0:0:0:0:
296,88,137028,1,8,0:0:0:0:
296,88,137117,1,8,0:0:0:0:
296,88,137207,1,8,0:0:0:0:
104,264,137567,1,8,0:0:0:0:
184,40,137926,5,2,0:0:0:0:
232,184,138106,1,0,0:0:0:0:
304,312,138286,1,0,0:0:0:0:
304,312,138376,1,0,0:0:0:0:
304,312,138465,1,0,0:0:0:0:
304,312,138555,1,0,0:0:0:0:
304,312,138645,2,0,L|352:208,1,80
384,152,139004,1,0,0:0:0:0:
480,88,139184,2,0,L|512:40,2,40,0|0|2,0:0|0:0|0:0,0:0:0:0:
480,232,139543,5,0,0:0:0:0:
480,200,139633,1,0,0:0:0:0:
480,168,139723,1,0,0:0:0:0:
336,280,139902,1,2,0:0:0:0:
352,256,139992,1,0,0:0:0:0:
368,232,140082,1,0,0:0:0:0:
200,296,140262,1,2,0:0:0:0:
248,72,140441,1,2,0:0:0:0:
328,264,140621,1,0,0:0:0:0:
160,248,140801,6,0,L|88:176,1,80,2|2,0:0|0:0,0:0:0:0:
48,112,141160,1,0,0:0:0:0:
176,88,141340,1,0,0:0:0:0:
176,88,141429,1,0,0:0:0:0:
176,88,141519,1,0,0:0:0:0:
280,216,141699,2,0,L|304:112,1,80
368,56,142058,1,0,0:0:0:0:
208,312,142238,2,0,P|256:288|352:320,1,160,2|0,0:0|0:0,0:0:0:0:
432,296,142777,2,0,P|400:240|464:152,1,160,2|2,0:0|0:0,0:0:0:0:
384,80,143316,2,0,L|320:144,1,80,2|0,0:0|0:0,0:0:0:0:
240,232,143675,6,0,P|224:176|240:128,1,80,2|2,0:0|0:0,0:0:0:0:
240,24,144035,1,0,0:0:0:0:
240,24,144125,1,0,0:0:0:0:
240,24,144214,1,0,0:0:0:0:
240,24,144304,1,0,0:0:0:0:
240,24,144394,2,0,L|192:128,1,80,0|2,0:0|0:0,0:0:0:0:
160,184,144753,1,0,0:0:0:0:
64,248,144933,2,0,L|32:296,2,40,0|0|2,0:0|0:0|0:0,0:0:0:0:
280,296,145292,5,0,0:0:0:0:
256,280,145382,1,0,0:0:0:0:
224,264,145472,1,0,0:0:0:0:
200,80,145651,1,2,0:0:0:0:
184,112,145741,1,0,0:0:0:0:
168,152,145831,1,0,0:0:0:0:
344,40,146011,1,2,0:0:0:0:
296,264,146190,1,2,0:0:0:0:
160,120,146370,1,0,0:0:0:0:
400,104,146549,6,0,L|416:192,1,80,2|2,0:0|0:0,0:0:0:0:
440,288,146908,1,4,0:0:0:0:
440,288,147088,1,0,0:0:0:0:
288,240,147268,2,0,L|312:152,1,80,2|0,0:0|0:0,0:0:0:0:
336,72,147627,1,4,0:0:0:0:
336,72,147807,1,0,0:0:0:0:
176,128,147986,6,0,P|152:176|152:224,1,80,2|0,0:0|0:0,0:0:0:0:
160,296,148346,1,0,0:0:0:0:
264,24,148525,1,0,0:0:0:0:
272,56,148615,1,0,0:0:0:0:
280,96,148705,1,2,0:0:0:0:
296,216,148884,1,2,0:0:0:0:
384,280,149064,1,2,0:0:0:0:
408,248,149154,1,0,0:0:0:0:
408,208,149244,1,0,0:0:0:0:
376,176,149334,1,0,0:0:0:0:
344,200,149423,6,0,P|408:224|432:272,1,103.999995239258,8|0,0:0|0:0,0:0:0:0:
448,336,149783,1,4,0:0:0:0:
232,296,149962,1,0,0:0:0:0:
360,120,150142,1,0,0:0:0:0:
200,240,150322,1,8,0:0:0:0:
392,296,150501,1,0,0:0:0:0:
248,112,150681,1,0,0:0:0:0:
264,136,150771,1,0,0:0:0:0:
264,168,150861,6,0,P|224:208|136:112,1,207.999990478516,8|4,0:0|0:0,0:0:0:0:
104,40,151399,2,0,P|56:88|56:168,1,103.999995239258
56,224,151759,1,12,0:0:0:0:
320,328,151938,2,0,P|320:240|280:208,1,103.999995239258,4|8,0:0|0:0,0:0:0:0:
208,64,152298,6,0,P|152:104|136:144,1,103.999995239258,8|0,0:0|0:0,0:0:0:0:
112,240,152657,1,4,0:0:0:0:
48,64,152837,1,0,0:0:0:0:
256,120,153016,1,0,0:0:0:0:
96,24,153196,1,8,0:0:0:0:
40,280,153376,1,0,0:0:0:0:
200,224,153555,1,0,0:0:0:0:
192,184,153645,1,0,0:0:0:0:
184,144,153735,6,0,L|320:208,1,103.999995239258,8|0,0:0|0:0,0:0:0:0:
416,232,154094,2,0,L|480:256,2,51.999997619629,4|0|0,0:0|0:0|0:0,0:0:0:0:
104,96,154453,1,0,0:0:0:0:
432,152,154633,2,0,L|512:176,2,51.999997619629,8|0|8,0:0|0:0|0:0,0:0:0:0:
104,96,154992,1,4,0:0:0:0:
136,248,155172,6,0,P|160:192|152:144,1,103.999995239258,8|0,0:0|0:0,0:0:0:0:
104,80,155531,1,0,0:0:0:0:
360,224,155711,1,0,0:0:0:0:
112,328,155890,1,0,0:0:0:0:
280,208,156070,1,8,0:0:0:0:
168,96,156250,1,0,0:0:0:0:
40,200,156429,1,0,0:0:0:0:
40,240,156519,1,0,0:0:0:0:
48,280,156609,6,0,P|192:272|192:256,1,207.999990478516,8|4,0:0|0:0,0:0:0:0:
200,184,157148,2,0,P|264:224|272:280,1,103.999995239258
312,336,157507,1,8,0:0:0:0:
304,32,157687,2,0,L|304:152,1,103.999995239258,4|8,0:0|0:0,0:0:0:0:
480,272,158046,6,0,L|376:232,1,103.999995239258,8|0,0:0|0:0,0:0:0:0:
280,192,158405,1,4,0:0:0:0:
488,136,158585,1,0,0:0:0:0:
336,104,158765,2,0,L|240:152,1,103.999995239258,8|0,0:0|0:0,0:0:0:0:
152,224,159124,1,4,0:0:0:0:
200,32,159304,1,0,0:0:0:0:
56,144,159483,5,8,0:0:0:0:
48,184,159573,1,8,0:0:0:0:
56,224,159663,1,8,0:0:0:0:
72,256,159753,1,8,0:0:0:0:
96,280,159843,2,0,P|136:224|112:160,1,103.999995239258,8|4,0:0|0:0,0:0:0:0:
88,56,160202,1,8,0:0:0:0:
232,256,160382,1,8,0:0:0:0:
224,232,160471,1,0,0:0:0:0:
224,200,160561,1,8,0:0:0:0:
224,200,160920,6,0,P|160:224|136:272,1,103.999995239258,8|0,0:0|0:0,0:0:0:0:
72,336,161280,1,4,0:0:0:0:
288,296,161459,1,0,0:0:0:0:
160,120,161639,1,0,0:0:0:0:
320,240,161819,1,8,0:0:0:0:
128,296,161998,1,0,0:0:0:0:
272,112,162178,1,0,0:0:0:0:
256,136,162268,1,0,0:0:0:0:
256,168,162358,6,0,P|296:208|384:112,1,207.999990478516,8|4,0:0|0:0,0:0:0:0:
416,40,162896,2,0,P|464:88|464:168,1,103.999995239258
464,224,163256,1,12,0:0:0:0:
200,328,163435,2,0,P|200:240|240:208,1,103.999995239258,4|8,0:0|0:0,0:0:0:0:
312,64,163795,6,0,P|368:104|384:144,1,103.999995239258,8|0,0:0|0:0,0:0:0:0:
408,240,164154,1,4,0:0:0:0:
472,64,164334,1,0,0:0:0:0:
264,120,164513,1,0,0:0:0:0:
424,24,164693,1,8,0:0:0:0:
480,280,164873,1,0,0:0:0:0:
320,224,165052,1,0,0:0:0:0:
328,184,165142,1,0,0:0:0:0:
336,144,165232,6,0,L|200:208,1,103.999995239258,8|0,0:0|0:0,0:0:0:0:
104,232,165591,2,0,L|40:256,2,51.999997619629,4|0|0,0:0|0:0|0:0,0:0:0:0:
416,96,165950,1,0,0:0:0:0:
88,152,166130,2,0,L|8:176,2,51.999997619629,8|0|8,0:0|0:0|0:0,0:0:0:0:
416,96,166489,1,4,0:0:0:0:
384,248,166669,6,0,P|360:192|368:144,1,103.999995239258,8|0,0:0|0:0,0:0:0:0:
416,80,167028,1,0,0:0:0:0:
160,224,167208,1,0,0:0:0:0:
408,328,167387,1,0,0:0:0:0:
240,208,167567,1,8,0:0:0:0:
352,96,167747,1,0,0:0:0:0:
480,200,167926,1,0,0:0:0:0:
480,240,168016,1,0,0:0:0:0:
472,280,168106,6,0,P|328:272|328:256,1,207.999990478516,8|4,0:0|0:0,0:0:0:0:
320,184,168645,2,0,P|256:224|248:280,1,103.999995239258
208,336,169004,1,8,0:0:0:0:
216,32,169184,2,0,L|216:152,1,103.999995239258,4|8,0:0|0:0,0:0:0:0:
40,272,169543,6,0,L|144:232,1,103.999995239258,8|0,0:0|0:0,0:0:0:0:
240,192,169902,1,4,0:0:0:0:
32,136,170082,1,0,0:0:0:0:
184,104,170262,2,0,L|280:152,1,103.999995239258,8|0,0:0|0:0,0:0:0:0:
368,224,170621,1,4,0:0:0:0:
320,32,170801,1,0,0:0:0:0:
464,144,170980,5,8,0:0:0:0:
472,184,171070,1,8,0:0:0:0:
464,224,171160,1,8,0:0:0:0:
448,256,171250,1,8,0:0:0:0:
424,280,171340,2,0,P|384:224|400:176,1,88.000002685547,8|4,0:0|0:0,0:0:0:0:
432,56,171699,1,8,0:0:0:0:
288,256,171879,1,8,0:0:0:0:
296,232,171968,1,0,0:0:0:0:
296,200,172058,1,8,0:0:0:0:
184,88,172417,6,0,P|128:88|72:64,1,103.999995239258,4|0,0:0|0:0,0:0:0:0:
112,168,172777,1,8,0:0:0:0:
328,208,173136,2,0,L|432:160,1,103.999995239258,2|0,0:0|0:0,0:0:0:0:
384,280,173495,1,8,0:0:0:0:
274,326,173675,2,0,P|234:262|338:214,1,207.999990478516
416,160,174214,2,0,L|304:80,1,103.999995239258,8|0,0:0|0:0,0:0:0:0:
264,48,174573,1,2,0:0:0:0:
112,144,174753,1,0,0:0:0:0:
256,240,174932,1,8,0:0:0:0:
192,48,175112,1,0,0:0:0:0:
128,224,175292,6,0,P|176:176|184:136,1,103.999995239258,4|0,0:0|0:0,0:0:0:0:
120,56,175651,1,8,0:0:0:0:
64,272,175831,1,0,0:0:0:0:
256,192,176010,1,2,0:0:0:0:
64,120,176190,1,0,0:0:0:0:
144,280,176370,1,8,0:0:0:0:
248,112,176549,1,0,0:0:0:0:
120,56,176729,2,0,B|96:112|160:176|112:264,1,207.999990478516,0|8,0:0|0:0,0:0:0:0:
32,304,177268,2,0,L|32:192,1,103.999995239258,0|2,0:0|0:0,0:0:0:0:
32,192,177807,1,8,0:0:0:0:
32,192,177986,1,0,0:0:0:0:
192,168,178166,6,0,L|304:192,1,103.999995239258,4|0,0:0|0:0,0:0:0:0:
400,216,178526,1,8,0:0:0:0:
184,176,178885,2,0,L|80:224,1,103.999995239258,2|0,0:0|0:0,0:0:0:0:
128,104,179244,1,8,0:0:0:0:
238,58,179424,2,0,P|278:122|174:170,1,207.999990478516
96,224,179963,2,0,L|208:304,1,103.999995239258,8|0,0:0|0:0,0:0:0:0:
248,336,180322,1,2,0:0:0:0:
400,240,180502,1,0,0:0:0:0:
256,144,180681,1,8,0:0:0:0:
320,336,180861,1,0,0:0:0:0:
384,160,181041,6,0,P|336:208|328:248,1,103.999995239258,4|0,0:0|0:0,0:0:0:0:
392,328,181400,1,8,0:0:0:0:
448,112,181580,1,0,0:0:0:0:
256,192,181759,1,2,0:0:0:0:
448,264,181939,1,0,0:0:0:0:
368,104,182119,1,8,0:0:0:0:
264,272,182298,1,0,0:0:0:0:
456,200,182477,6,0,L|368:136,1,103.999995239258,2|0,0:0|0:0,0:0:0:0:
312,200,182837,2,0,L|224:128,1,103.999995239258,2|0,0:0|0:0,0:0:0:0:
144,96,183196,1,8,0:0:0:0:
296,288,183376,1,8,0:0:0:0:
168,136,183555,1,8,0:0:0:0:
