osu file format v14

[General]
AudioFilename: audio.mp3
AudioLeadIn: 0
PreviewTime: 160390
Countdown: 0
SampleSet: Normal
StackLeniency: 0.7
Mode: 1
LetterboxInBreaks: 0
WidescreenStoryboard: 1

[Editor]
Bookmarks: 150454
DistanceSpacing: 1.2
BeatDivisor: 4
GridSize: 16
TimelineZoom: 0.7

[Metadata]
Title:Grim
TitleUnicode:Grim
Artist:Raujika
ArtistUnicode:Raujika
Creator:Gamelan4
Version:Etsu's Kantan
Source:
Tags:Lost Imagination Sounds of color Vol.2 electronic palette sounds Etsu
BeatmapID:2071319
BeatmapSetID:986569

[Difficulty]
HPDrainRate:8
CircleSize:2
OverallDifficulty:3
ApproachRate:0
SliderMultiplier:1.4
SliderTickRate:1

[Events]
//Background and Video events
0,0,"bg Grim Osu.jpg",0,0
//Break Periods
2,150590,158590
//Storyboard Layer 0 (Background)
//Storyboard Layer 1 (Fail)
//Storyboard Layer 2 (Pass)
//Storyboard Layer 3 (Foreground)
//Storyboard Layer 4 (Overlay)
//Storyboard Sound Samples

[TimingPoints]
2890,625,4,1,0,5,1,0
5390,-100,4,1,0,10,0,0
7890,-100,4,1,0,15,0,0
10390,-100,4,1,0,20,0,0
12890,-100,4,1,0,25,0,0
15390,-100,4,1,0,40,0,0
21640,-100,4,1,0,45,0,0
24765,-100,4,1,0,50,0,0
30390,-100,4,1,0,70,0,0
40390,-100,4,1,0,80,0,1
60390,-100,4,1,0,70,0,0
80390,-100,4,1,0,80,0,1
100390,-100,4,1,0,70,0,0
170390,-100,4,1,0,80,0,1
210390,-100,4,1,0,70,0,0
230390,-100,4,1,0,60,0,0
240390,-100,4,1,0,50,0,0
246483,-100,4,1,0,45,0,0

[HitObjects]
256,192,2890,12,0,14765,0:0:0:0:
100,151,15390,5,0,0:0:0:0:
198,170,17890,5,0,0:0:0:0:
198,170,19765,1,8,0:0:0:0:
198,170,20390,1,0,0:0:0:0:
427,268,22890,1,0,0:0:0:0:
427,268,24765,1,8,0:0:0:0:
427,268,25390,1,0,0:0:0:0:
160,135,27890,1,8,0:0:0:0:
160,135,29765,1,8,0:0:0:0:
160,135,30390,1,0,0:0:0:0:
337,168,31640,1,0,0:0:0:0:
337,168,32265,1,8,0:0:0:0:
160,135,32890,1,0,0:0:0:0:
160,135,34765,1,8,0:0:0:0:
160,135,35390,1,0,0:0:0:0:
160,135,36640,1,0,0:0:0:0:
160,135,37265,1,8,0:0:0:0:
160,135,37890,1,0,0:0:0:0:
160,135,39140,1,0,0:0:0:0:
160,135,40390,1,0,0:0:0:0:
335,241,41015,1,8,0:0:0:0:
143,185,41640,1,0,0:0:0:0:
143,185,41952,1,0,0:0:0:0:
234,163,42265,1,8,0:0:0:0:
229,159,42890,1,0,0:0:0:0:
231,164,44140,1,8,0:0:0:0:
231,164,45390,1,0,0:0:0:0:
322,242,46015,1,8,0:0:0:0:
128,187,46640,1,0,0:0:0:0:
128,187,46952,1,0,0:0:0:0:
256,146,47265,1,8,0:0:0:0:
258,134,47890,1,0,0:0:0:0:
260,139,49140,1,0,0:0:0:0:
296,123,50390,1,0,0:0:0:0:
356,253,51015,1,8,0:0:0:0:
134,184,51640,1,8,0:0:0:0:
134,184,51952,1,8,0:0:0:0:
197,152,52265,1,0,0:0:0:0:
284,139,52890,1,8,0:0:0:0:
249,242,54140,1,8,0:0:0:0:
373,130,55390,1,0,0:0:0:0:
135,187,56015,1,8,0:0:0:0:
258,154,56640,1,8,0:0:0:0:
135,187,56952,1,8,0:0:0:0:
239,219,57265,1,0,0:0:0:0:
203,123,57890,1,8,0:0:0:0:
390,281,58515,1,8,0:0:0:0:
232,247,59140,1,0,0:0:0:0:
221,258,60390,1,0,0:0:0:0:
259,215,61640,1,0,0:0:0:0:
209,112,62265,1,8,0:0:0:0:
251,207,62890,1,0,0:0:0:0:
156,251,64140,1,8,0:0:0:0:
116,191,64765,1,8,0:0:0:0:
96,176,65390,1,0,0:0:0:0:
244,281,66640,1,0,0:0:0:0:
351,179,67265,1,8,0:0:0:0:
119,123,67890,1,0,0:0:0:0:
160,284,69140,1,8,0:0:0:0:
276,273,70390,1,0,0:0:0:0:
337,221,71640,1,0,0:0:0:0:
227,253,72265,1,8,0:0:0:0:
144,121,72890,1,0,0:0:0:0:
248,261,74140,1,8,0:0:0:0:
259,168,74765,1,8,0:0:0:0:
158,285,75390,1,0,0:0:0:0:
229,163,76640,1,0,0:0:0:0:
274,188,77265,1,8,0:0:0:0:
280,319,77890,1,0,0:0:0:0:
153,150,79140,1,8,0:0:0:0:
281,140,80390,1,0,0:0:0:0:
335,241,81015,1,8,0:0:0:0:
143,185,81640,1,0,0:0:0:0:
234,163,81952,1,0,0:0:0:0:
143,185,82265,1,8,0:0:0:0:
229,159,82890,1,0,0:0:0:0:
231,164,84140,1,8,0:0:0:0:
231,164,85390,1,0,0:0:0:0:
322,242,86015,1,8,0:0:0:0:
128,187,86640,1,0,0:0:0:0:
256,146,86952,1,0,0:0:0:0:
128,187,87265,1,8,0:0:0:0:
258,134,87890,1,0,0:0:0:0:
260,139,89140,1,0,0:0:0:0:
296,123,90390,1,0,0:0:0:0:
356,253,91015,1,8,0:0:0:0:
197,152,91640,1,8,0:0:0:0:
134,184,91952,1,8,0:0:0:0:
134,184,92265,1,0,0:0:0:0:
284,139,92890,1,0,0:0:0:0:
249,242,94140,1,8,0:0:0:0:
373,130,95390,1,0,0:0:0:0:
135,187,96015,1,8,0:0:0:0:
239,219,96640,1,8,0:0:0:0:
135,187,96952,1,8,0:0:0:0:
258,154,97265,1,0,0:0:0:0:
203,123,97890,1,8,0:0:0:0:
390,281,98515,1,8,0:0:0:0:
232,247,99140,1,0,0:0:0:0:
197,245,100390,5,0,0:0:0:0:
88,174,101015,1,8,0:0:0:0:
189,188,102265,1,8,0:0:0:0:
189,188,102890,1,0,0:0:0:0:
279,227,104140,1,0,0:0:0:0:
150,231,104765,1,8,0:0:0:0:
279,227,105390,1,0,0:0:0:0:
101,125,106015,1,8,0:0:0:0:
243,211,107265,1,8,0:0:0:0:
243,211,107890,1,0,0:0:0:0:
243,211,109140,1,8,0:0:0:0:
162,203,109765,1,8,0:0:0:0:
243,211,110390,1,0,0:0:0:0:
31,138,111015,1,8,0:0:0:0:
243,211,112265,1,8,0:0:0:0:
243,211,112890,1,0,0:0:0:0:
251,235,114140,1,0,0:0:0:0:
251,235,114765,1,8,0:0:0:0:
251,235,115390,1,0,0:0:0:0:
76,207,116015,1,8,0:0:0:0:
243,268,117265,5,8,0:0:0:0:
251,235,117890,5,0,0:0:0:0:
191,107,120390,5,0,0:0:0:0:
233,211,121640,1,0,0:0:0:0:
233,211,122265,1,8,0:0:0:0:
233,211,122890,1,0,0:0:0:0:
225,185,124140,1,8,0:0:0:0:
225,185,125390,1,0,0:0:0:0:
225,185,126640,1,8,0:0:0:0:
225,185,127265,1,0,0:0:0:0:
225,185,127890,1,8,0:0:0:0:
225,185,129140,1,8,0:0:0:0:
225,185,129765,1,8,0:0:0:0:
225,185,130390,1,0,0:0:0:0:
226,185,131640,1,0,0:0:0:0:
227,186,132890,1,0,0:0:0:0:
227,186,133515,1,8,0:0:0:0:
227,186,134140,1,8,0:0:0:0:
227,186,135390,1,0,0:0:0:0:
227,186,136640,1,0,0:0:0:0:
227,186,137265,1,8,0:0:0:0:
227,186,137890,1,0,0:0:0:0:
227,186,139140,1,8,0:0:0:0:
227,187,140390,1,0,0:0:0:0:
227,187,141015,1,8,0:0:0:0:
227,187,142265,1,8,0:0:0:0:
227,187,142890,1,0,0:0:0:0:
227,187,143515,1,8,0:0:0:0:
273,232,144140,1,0,0:0:0:0:
227,187,145390,1,0,0:0:0:0:
231,172,146015,1,8,0:0:0:0:
227,187,147265,1,8,0:0:0:0:
227,187,147890,1,0,0:0:0:0:
227,187,149140,1,0,0:0:0:0:
227,187,149765,1,8,0:0:0:0:
227,187,150390,1,0,0:0:0:0:
153,153,160390,5,0,0:0:0:0:
153,153,161015,1,8,0:0:0:0:
171,182,162265,1,8,0:0:0:0:
171,182,162890,1,0,0:0:0:0:
171,182,164140,1,0,0:0:0:0:
173,181,164765,1,8,0:0:0:0:
173,181,165390,1,0,0:0:0:0:
173,181,166015,1,8,0:0:0:0:
173,181,167265,1,8,0:0:0:0:
173,181,167890,1,0,0:0:0:0:
173,181,169140,1,8,0:0:0:0:
173,181,170390,1,0,0:0:0:0:
173,181,171015,1,8,0:0:0:0:
83,219,171640,1,0,0:0:0:0:
83,219,171952,1,0,0:0:0:0:
184,274,172265,1,8,0:0:0:0:
117,151,172890,1,0,0:0:0:0:
151,182,174140,1,8,0:0:0:0:
119,268,175390,1,0,0:0:0:0:
99,144,176015,1,8,0:0:0:0:
83,219,176640,1,0,0:0:0:0:
83,219,176952,1,0,0:0:0:0:
213,259,177265,1,8,0:0:0:0:
211,142,177890,1,0,0:0:0:0:
316,278,179140,1,0,0:0:0:0:
192,275,180390,1,0,0:0:0:0:
270,189,181015,1,8,0:0:0:0:
87,199,181640,1,8,0:0:0:0:
87,199,181952,1,8,0:0:0:0:
238,187,182265,1,0,0:0:0:0:
101,121,182890,1,8,0:0:0:0:
121,261,184140,1,0,0:0:0:0:
185,196,185390,1,0,0:0:0:0:
159,220,186015,1,8,0:0:0:0:
100,153,186640,1,8,0:0:0:0:
100,153,186952,1,8,0:0:0:0:
166,181,187265,1,0,0:0:0:0:
305,250,187890,1,8,0:0:0:0:
114,170,188515,1,8,0:0:0:0:
200,250,189140,1,0,0:0:0:0:
205,249,190390,1,0,0:0:0:0:
116,169,191015,1,8,0:0:0:0:
205,247,191640,1,8,0:0:0:0:
116,169,191952,1,0,0:0:0:0:
205,247,192265,1,8,0:0:0:0:
180,191,192890,1,0,0:0:0:0:
133,172,193515,1,8,0:0:0:0:
180,259,194140,1,0,0:0:0:0:
237,249,195390,1,0,0:0:0:0:
107,172,196015,1,8,0:0:0:0:
289,272,196640,1,8,0:0:0:0:
107,172,196952,1,0,0:0:0:0:
147,168,197265,1,8,0:0:0:0:
179,280,197890,1,0,0:0:0:0:
152,255,198515,1,8,0:0:0:0:
196,165,199140,1,0,0:0:0:0:
126,139,200390,1,0,0:0:0:0:
195,236,201015,1,8,0:0:0:0:
125,187,201640,1,0,0:0:0:0:
125,187,201952,1,8,0:0:0:0:
149,146,202265,1,0,0:0:0:0:
270,264,202890,1,8,0:0:0:0:
328,204,203515,1,0,0:0:0:0:
203,232,204140,1,8,0:0:0:0:
310,284,205390,1,0,0:0:0:0:
138,143,206015,1,8,0:0:0:0:
118,243,206640,1,8,0:0:0:0:
118,243,206952,1,8,0:0:0:0:
220,201,207265,1,0,0:0:0:0:
171,150,207890,1,8,0:0:0:0:
338,255,208515,1,0,0:0:0:0:
237,184,209140,1,8,0:0:0:0:
129,276,210390,1,0,0:0:0:0:
201,248,211640,1,8,0:0:0:0:
124,159,212265,1,0,0:0:0:0:
190,198,212890,1,8,0:0:0:0:
271,245,214140,1,8,0:0:0:0:
310,227,214765,1,8,0:0:0:0:
167,227,215390,1,0,0:0:0:0:
241,203,216640,1,8,0:0:0:0:
127,112,217265,1,0,0:0:0:0:
135,257,217890,1,8,0:0:0:0:
311,254,219140,1,0,0:0:0:0:
107,118,219765,1,8,0:0:0:0:
237,212,220390,1,0,0:0:0:0:
178,175,221640,1,8,0:0:0:0:
209,200,222265,1,0,0:0:0:0:
160,145,222890,1,8,0:0:0:0:
160,148,224140,1,0,0:0:0:0:
261,149,224765,1,8,0:0:0:0:
273,263,225390,1,0,0:0:0:0:
178,161,226640,1,8,0:0:0:0:
229,227,227890,1,8,0:0:0:0:
136,174,228515,1,8,0:0:0:0:
98,150,229140,1,0,0:0:0:0:
344,209,230390,1,0,0:0:0:0:
211,196,231640,1,0,0:0:0:0:
264,176,232265,1,8,0:0:0:0:
172,179,232890,1,0,0:0:0:0:
240,179,234140,1,8,0:0:0:0:
302,121,234765,1,8,0:0:0:0:
256,292,235390,1,0,0:0:0:0:
218,219,236640,1,0,0:0:0:0:
124,125,237265,1,8,0:0:0:0:
252,223,237890,1,0,0:0:0:0:
380,307,239140,1,8,0:0:0:0:
94,210,239765,1,8,0:0:0:0:
309,250,240390,1,0,0:0:0:0:
156,174,241640,1,0,0:0:0:0:
195,181,242890,1,8,0:0:0:0:
196,181,244140,1,0,0:0:0:0:
309,147,244765,1,8,0:0:0:0:
369,293,245390,1,0,0:0:0:0:
148,151,246640,1,8,0:0:0:0:
173,247,247890,1,0,0:0:0:0:
313,145,249140,1,0,0:0:0:0:
303,199,249765,1,8,0:0:0:0:
110,143,250390,1,0,0:0:0:0:
163,230,251640,1,0,0:0:0:0:
162,230,252890,1,0,0:0:0:0:
217,183,253515,1,0,0:0:0:0:
