osu file format v14

[General]
AudioFilename: audio.mp3
AudioLeadIn: 0
PreviewTime: 160390
Countdown: 0
SampleSet: Normal
StackLeniency: 0.7
Mode: 1
LetterboxInBreaks: 0
WidescreenStoryboard: 1

[Editor]
Bookmarks: 90400,120400,130390,135400,140400,150400,170400,190400,210400
DistanceSpacing: 1.2
BeatDivisor: 2
GridSize: 32
TimelineZoom: 0.9000001

[Metadata]
Title:Grim
TitleUnicode:Grim
Artist:Raujika
ArtistUnicode:Raujika
Creator:Gamelan4
Version:Etsu's Futsuu
Source:
Tags:Lost Imagination Sounds of color Vol.2 electronic palette sounds Etsu
BeatmapID:2071317
BeatmapSetID:986569

[Difficulty]
HPDrainRate:7
CircleSize:2
OverallDifficulty:4
ApproachRate:0
SliderMultiplier:1.4
SliderTickRate:1

[Events]
//Background and Video events
0,0,"bg Grim Osu.jpg",0,0
//Break Periods
2,150590,158590
//Storyboard Layer 0 (Background)
//Storyboard Layer 1 (Fail)
//Storyboard Layer 2 (Pass)
//Storyboard Layer 3 (Foreground)
//Storyboard Layer 4 (Overlay)
//Storyboard Sound Samples

[TimingPoints]
2890,625,4,1,0,5,1,0
5390,-100,4,1,0,10,0,0
7890,-100,4,1,0,15,0,0
10390,-100,4,1,0,20,0,0
12890,-100,4,1,0,25,0,0
15390,-100,4,1,0,40,0,0
21640,-100,4,1,0,45,0,0
24765,-100,4,1,0,50,0,0
30390,-100,4,1,0,70,0,0
40390,-100,4,1,0,80,0,1
60390,-100,4,1,0,70,0,0
80390,-100,4,1,0,80,0,1
100390,-100,4,1,0,70,0,0
170390,-100,4,1,0,80,0,1
210390,-100,4,1,0,70,0,0
230390,-100,4,1,0,60,0,0
240390,-100,4,1,0,50,0,0
246483,-100,4,1,0,45,0,0

[HitObjects]
256,192,2890,12,0,14765,0:0:0:0:
262,225,15390,5,0,0:0:0:0:
198,170,17890,5,0,0:0:0:0:
198,170,19765,1,8,0:0:0:0:
220,216,20390,1,0,0:0:0:0:
220,216,21640,1,0,0:0:0:0:
427,268,22890,1,8,0:0:0:0:
427,268,24765,1,8,0:0:0:0:
427,268,25390,1,0,0:0:0:0:
273,207,26640,1,0,0:0:0:0:
160,135,27890,1,8,0:0:0:0:
160,135,29765,1,8,0:0:0:0:
160,135,30390,1,0,0:0:0:0:
223,161,31015,1,8,0:0:0:0:
337,168,31640,1,0,0:0:0:0:
71,210,31952,1,0,0:0:0:0:
337,168,32265,1,8,0:0:0:0:
160,135,32890,1,0,0:0:0:0:
267,154,34140,1,0,0:0:0:0:
160,135,34765,1,8,0:0:0:0:
160,135,35390,1,0,0:0:0:0:
111,203,36015,1,8,0:0:0:0:
160,135,36640,1,0,0:0:0:0:
180,193,36952,1,0,0:0:0:0:
160,135,37265,1,8,0:0:0:0:
160,135,37890,1,0,0:0:0:0:
145,233,39140,1,0,0:0:0:0:
160,135,39765,1,8,0:0:0:0:
160,135,40390,1,0,0:0:0:0:
335,241,41015,1,8,0:0:0:0:
136,241,41640,1,0,0:0:0:0:
136,241,41952,1,0,0:0:0:0:
265,217,42265,1,8,0:0:0:0:
220,110,42577,1,8,0:0:0:0:
220,110,42733,1,0,0:0:0:0:
202,66,43515,1,8,0:0:0:0:
231,164,44140,1,0,0:0:0:0:
256,224,44452,1,0,0:0:0:0:
240,186,44765,1,8,0:0:0:0:
231,164,45390,1,0,0:0:0:0:
168,150,46015,1,8,0:0:0:0:
131,236,46640,1,0,0:0:0:0:
187,148,46952,1,0,0:0:0:0:
256,146,47265,1,8,0:0:0:0:
240,76,47577,1,8,0:0:0:0:
258,134,47733,1,0,0:0:0:0:
131,236,48515,1,8,0:0:0:0:
260,139,49140,1,0,0:0:0:0:
260,139,49765,1,8,0:0:0:0:
296,123,50390,1,0,0:0:0:0:
356,253,51015,1,8,0:0:0:0:
142,194,51640,1,8,0:0:0:0:
142,194,51952,1,8,0:0:0:0:
197,152,52265,1,0,0:0:0:0:
213,145,52577,1,8,0:0:0:0:
213,145,52733,1,8,0:0:0:0:
247,106,53515,1,8,0:0:0:0:
249,242,54140,1,0,0:0:0:0:
256,192,54452,1,0,0:0:0:0:
202,129,54765,1,8,0:0:0:0:
373,130,55390,1,0,0:0:0:0:
142,194,56015,1,8,0:0:0:0:
258,154,56640,1,8,0:0:0:0:
142,194,56952,1,8,0:0:0:0:
239,219,57265,1,0,0:0:0:0:
280,128,57577,1,8,0:0:0:0:
246,192,57733,1,8,0:0:0:0:
390,281,58515,1,8,0:0:0:0:
253,239,58827,1,8,0:0:0:0:
232,247,59140,1,0,0:0:0:0:
149,236,59765,1,8,0:0:0:0:
221,258,60390,1,0,0:0:0:0:
151,201,61015,1,8,0:0:0:0:
209,112,61640,1,0,0:0:0:0:
158,128,62265,1,8,0:0:0:0:
131,193,62577,1,8,0:0:0:0:
271,161,62733,1,0,0:0:0:0:
251,207,63515,1,8,0:0:0:0:
156,251,64140,1,0,0:0:0:0:
120,219,64765,1,0,0:0:0:0:
156,251,65077,1,8,0:0:0:0:
96,176,65390,1,0,0:0:0:0:
136,220,66015,1,8,0:0:0:0:
244,281,66640,1,0,0:0:0:0:
158,248,67265,1,8,0:0:0:0:
158,248,67577,1,8,0:0:0:0:
238,134,67733,1,0,0:0:0:0:
256,190,68515,1,8,0:0:0:0:
160,284,69140,1,0,0:0:0:0:
158,248,69765,1,8,0:0:0:0:
158,216,70077,1,8,0:0:0:0:
227,180,70390,1,0,0:0:0:0:
137,230,71015,1,8,0:0:0:0:
158,248,71640,1,0,0:0:0:0:
227,253,72265,1,8,0:0:0:0:
158,248,72577,1,8,0:0:0:0:
158,248,72733,1,0,0:0:0:0:
259,168,73515,1,8,0:0:0:0:
248,261,74140,1,0,0:0:0:0:
157,215,74765,1,8,0:0:0:0:
157,215,75077,1,8,0:0:0:0:
158,285,75390,1,0,0:0:0:0:
149,234,76015,1,8,0:0:0:0:
229,163,76640,1,0,0:0:0:0:
93,173,77265,1,8,0:0:0:0:
111,188,77577,1,8,0:0:0:0:
280,319,77733,1,0,0:0:0:0:
220,168,78515,1,8,0:0:0:0:
153,150,79140,1,0,0:0:0:0:
170,247,79765,1,8,0:0:0:0:
281,140,80390,1,0,0:0:0:0:
112,188,81015,1,8,0:0:0:0:
276,180,81640,1,8,0:0:0:0:
112,188,81952,1,0,0:0:0:0:
392,249,82265,1,8,0:0:0:0:
112,188,82577,1,0,0:0:0:0:
187,134,82733,1,0,0:0:0:0:
241,216,83515,1,8,0:0:0:0:
137,141,84140,1,0,0:0:0:0:
154,234,84452,1,0,0:0:0:0:
138,234,84765,1,8,0:0:0:0:
89,262,85390,1,0,0:0:0:0:
104,252,86015,1,8,0:0:0:0:
388,307,86640,1,8,0:0:0:0:
249,208,86952,1,0,0:0:0:0:
104,252,87265,1,8,0:0:0:0:
168,230,87577,1,0,0:0:0:0:
191,292,87733,1,0,0:0:0:0:
231,192,88515,1,8,0:0:0:0:
318,267,89140,1,0,0:0:0:0:
131,161,89765,1,8,0:0:0:0:
173,299,90390,1,0,0:0:0:0:
122,161,91015,1,8,0:0:0:0:
215,185,91640,1,0,0:0:0:0:
228,201,91952,1,8,0:0:0:0:
329,257,92265,1,0,0:0:0:0:
122,161,92577,1,8,0:0:0:0:
158,144,92733,1,8,0:0:0:0:
209,151,93515,1,8,0:0:0:0:
144,266,94140,1,0,0:0:0:0:
235,219,94452,1,0,0:0:0:0:
100,166,94765,1,8,0:0:0:0:
122,182,95390,1,0,0:0:0:0:
248,182,96015,1,8,0:0:0:0:
243,291,96640,1,0,0:0:0:0:
248,182,96952,1,8,0:0:0:0:
122,161,97265,1,0,0:0:0:0:
249,181,97577,1,8,0:0:0:0:
184,143,97733,1,8,0:0:0:0:
272,199,98515,1,8,0:0:0:0:
153,249,98827,1,0,0:0:0:0:
228,166,99140,1,8,0:0:0:0:
228,166,99765,1,8,0:0:0:0:
197,245,100390,1,0,0:0:0:0:
304,207,101015,1,8,0:0:0:0:
303,207,101640,1,0,0:0:0:0:
303,207,101952,1,8,0:0:0:0:
305,221,102890,1,0,0:0:0:0:
122,217,103202,1,0,0:0:0:0:
291,212,103515,1,8,0:0:0:0:
291,212,104140,1,0,0:0:0:0:
291,212,104765,1,8,0:0:0:0:
291,212,105077,1,8,0:0:0:0:
291,212,105390,1,0,0:0:0:0:
291,214,106015,1,8,0:0:0:0:
239,229,106640,1,0,0:0:0:0:
291,214,106952,1,8,0:0:0:0:
291,214,107890,1,0,0:0:0:0:
245,275,108515,1,8,0:0:0:0:
245,275,109140,1,0,0:0:0:0:
245,275,109765,1,0,0:0:0:0:
245,275,110077,1,8,0:0:0:0:
228,207,110390,1,0,0:0:0:0:
244,277,111015,1,8,0:0:0:0:
242,279,111640,1,0,0:0:0:0:
242,279,111952,1,8,0:0:0:0:
242,279,112890,1,0,0:0:0:0:
256,192,113202,1,0,0:0:0:0:
242,279,113515,1,8,0:0:0:0:
242,279,114140,1,0,0:0:0:0:
242,279,114765,1,8,0:0:0:0:
242,279,115077,1,8,0:0:0:0:
242,279,115390,1,0,0:0:0:0:
242,279,116015,1,8,0:0:0:0:
242,279,116640,1,0,0:0:0:0:
242,279,116952,1,8,0:0:0:0:
242,279,117890,1,0,0:0:0:0:
283,213,119140,1,0,0:0:0:0:
258,247,119765,1,8,0:0:0:0:
191,107,120390,1,0,0:0:0:0:
242,144,121015,1,8,0:0:0:0:
233,211,121640,1,0,0:0:0:0:
242,144,121952,1,8,0:0:0:0:
233,211,122265,1,8,0:0:0:0:
233,211,122890,1,0,0:0:0:0:
242,144,123515,1,8,0:0:0:0:
225,185,124140,1,0,0:0:0:0:
116,175,124452,1,8,0:0:0:0:
242,144,124765,1,0,0:0:0:0:
225,185,125390,1,0,0:0:0:0:
225,185,126015,1,8,0:0:0:0:
225,185,126640,1,0,0:0:0:0:
242,144,126952,1,8,0:0:0:0:
242,144,127265,1,8,0:0:0:0:
225,185,127890,1,0,0:0:0:0:
242,144,128515,1,8,0:0:0:0:
225,185,129140,1,8,0:0:0:0:
164,205,129452,1,0,0:0:0:0:
225,185,129765,1,8,0:0:0:0:
225,185,130390,1,0,0:0:0:0:
308,166,131015,1,0,0:0:0:0:
226,185,131640,1,0,0:0:0:0:
165,162,131952,1,0,0:0:0:0:
312,168,132265,1,8,0:0:0:0:
227,186,132890,1,0,0:0:0:0:
313,168,133515,1,8,0:0:0:0:
224,224,133827,1,0,0:0:0:0:
227,186,134140,1,8,0:0:0:0:
227,186,134765,1,8,0:0:0:0:
202,166,135077,1,8,0:0:0:0:
227,186,135390,1,0,0:0:0:0:
176,166,136015,1,8,0:0:0:0:
227,186,136640,1,0,0:0:0:0:
227,186,137265,1,8,0:0:0:0:
316,177,137577,1,0,0:0:0:0:
227,186,137890,1,8,0:0:0:0:
273,124,138515,1,0,0:0:0:0:
227,186,139140,1,8,0:0:0:0:
273,124,139452,1,8,0:0:0:0:
273,124,139765,1,0,0:0:0:0:
227,187,140390,1,0,0:0:0:0:
168,219,141015,1,8,0:0:0:0:
274,124,141640,1,0,0:0:0:0:
274,124,141952,1,8,0:0:0:0:
227,187,142890,1,0,0:0:0:0:
216,247,143202,1,8,0:0:0:0:
227,187,143515,1,8,0:0:0:0:
274,124,144140,1,0,0:0:0:0:
227,187,144765,1,8,0:0:0:0:
227,187,145390,1,0,0:0:0:0:
231,172,146015,1,8,0:0:0:0:
274,124,146640,1,0,0:0:0:0:
192,83,146952,1,8,0:0:0:0:
227,187,147890,1,0,0:0:0:0:
218,143,148515,1,8,0:0:0:0:
227,187,149140,1,8,0:0:0:0:
218,143,149452,1,0,0:0:0:0:
227,187,149765,1,8,0:0:0:0:
227,187,150390,1,0,0:0:0:0:
153,153,160390,5,0,0:0:0:0:
153,153,161015,1,8,0:0:0:0:
200,148,161640,1,0,0:0:0:0:
242,162,161952,1,8,0:0:0:0:
171,182,162890,1,0,0:0:0:0:
256,206,163202,1,0,0:0:0:0:
242,162,163515,1,8,0:0:0:0:
171,182,164140,1,8,0:0:0:0:
242,162,164452,1,0,0:0:0:0:
173,181,164765,1,8,0:0:0:0:
173,181,165390,1,0,0:0:0:0:
173,181,166015,1,8,0:0:0:0:
242,163,166640,1,0,0:0:0:0:
242,163,166952,1,8,0:0:0:0:
173,181,167890,1,0,0:0:0:0:
229,223,168202,1,8,0:0:0:0:
242,163,168515,1,8,0:0:0:0:
173,181,169140,1,0,0:0:0:0:
173,181,169765,1,8,0:0:0:0:
173,181,170390,1,0,0:0:0:0:
173,181,171015,1,8,0:0:0:0:
98,192,171640,1,0,0:0:0:0:
98,192,171952,1,0,0:0:0:0:
184,274,172265,1,8,0:0:0:0:
221,163,172577,1,8,0:0:0:0:
117,151,172733,1,0,0:0:0:0:
98,192,173515,1,8,0:0:0:0:
271,201,173827,1,8,0:0:0:0:
151,182,174140,1,0,0:0:0:0:
224,123,174765,1,8,0:0:0:0:
119,268,175390,1,0,0:0:0:0:
99,144,176015,1,8,0:0:0:0:
98,192,176640,1,0,0:0:0:0:
98,192,176952,1,0,0:0:0:0:
213,259,177265,1,8,0:0:0:0:
227,146,177577,1,8,0:0:0:0:
211,142,177733,1,0,0:0:0:0:
98,192,178515,1,0,0:0:0:0:
316,278,179140,1,8,0:0:0:0:
98,193,179452,1,0,0:0:0:0:
111,146,179765,1,8,0:0:0:0:
192,275,180390,1,0,0:0:0:0:
270,189,181015,1,8,0:0:0:0:
98,193,181640,1,0,0:0:0:0:
98,193,181952,1,8,0:0:0:0:
238,187,182265,1,0,0:0:0:0:
178,133,182577,1,8,0:0:0:0:
101,121,182733,1,8,0:0:0:0:
98,193,183515,1,0,0:0:0:0:
121,261,184140,1,8,0:0:0:0:
253,227,184452,1,0,0:0:0:0:
246,290,184765,1,8,0:0:0:0:
185,196,185390,1,0,0:0:0:0:
159,220,186015,1,8,0:0:0:0:
99,193,186640,1,0,0:0:0:0:
99,193,186952,1,8,0:0:0:0:
166,181,187265,1,0,0:0:0:0:
253,227,187577,1,8,0:0:0:0:
305,250,187733,1,8,0:0:0:0:
99,193,188515,1,8,0:0:0:0:
256,245,188827,1,8,0:0:0:0:
200,250,189140,1,0,0:0:0:0:
178,194,189765,1,8,0:0:0:0:
205,249,190390,1,0,0:0:0:0:
116,254,191015,1,8,0:0:0:0:
205,247,191640,1,8,0:0:0:0:
116,254,191952,1,0,0:0:0:0:
205,247,192265,1,8,0:0:0:0:
133,212,192577,1,0,0:0:0:0:
180,191,192733,1,0,0:0:0:0:
240,184,193202,1,0,0:0:0:0:
116,254,193515,1,8,0:0:0:0:
180,259,194140,1,8,0:0:0:0:
93,247,194452,1,0,0:0:0:0:
133,172,194765,1,8,0:0:0:0:
237,249,195390,1,0,0:0:0:0:
93,247,196015,1,8,0:0:0:0:
289,272,196640,1,8,0:0:0:0:
93,247,196952,1,0,0:0:0:0:
147,168,197265,1,8,0:0:0:0:
117,219,197577,1,0,0:0:0:0:
179,280,197733,1,0,0:0:0:0:
208,194,198202,1,8,0:0:0:0:
93,247,198515,1,0,0:0:0:0:
196,165,199140,1,0,0:0:0:0:
152,255,199765,1,8,0:0:0:0:
126,139,200390,1,0,0:0:0:0:
195,236,201015,1,8,0:0:0:0:
93,247,201640,1,0,0:0:0:0:
93,247,201952,1,8,0:0:0:0:
149,146,202265,1,0,0:0:0:0:
125,192,202577,1,8,0:0:0:0:
270,264,202733,1,8,0:0:0:0:
261,230,203202,1,0,0:0:0:0:
328,204,203515,1,8,0:0:0:0:
93,247,204140,1,0,0:0:0:0:
93,247,204452,1,0,0:0:0:0:
203,232,204765,1,8,0:0:0:0:
310,284,205390,1,0,0:0:0:0:
138,143,206015,1,8,0:0:0:0:
93,247,206640,1,0,0:0:0:0:
93,247,206952,1,8,0:0:0:0:
220,201,207265,1,0,0:0:0:0:
136,220,207577,1,8,0:0:0:0:
171,150,207733,1,8,0:0:0:0:
256,192,208202,1,0,0:0:0:0:
338,255,208515,1,8,0:0:0:0:
82,204,208827,1,0,0:0:0:0:
237,184,209140,1,8,0:0:0:0:
111,110,209765,1,8,0:0:0:0:
129,276,210390,1,0,0:0:0:0:
231,182,211015,1,8,0:0:0:0:
201,248,211640,1,0,0:0:0:0:
152,195,212265,1,8,0:0:0:0:
107,76,212577,1,8,0:0:0:0:
190,198,212733,1,0,0:0:0:0:
227,185,213515,1,8,0:0:0:0:
271,245,214140,1,0,0:0:0:0:
256,192,214452,1,0,0:0:0:0:
93,249,214765,1,8,0:0:0:0:
167,227,215390,1,0,0:0:0:0:
261,170,216015,1,8,0:0:0:0:
241,203,216640,1,0,0:0:0:0:
127,112,217265,1,8,0:0:0:0:
102,107,217577,1,8,0:0:0:0:
135,257,217733,1,0,0:0:0:0:
142,194,218515,1,8,0:0:0:0:
311,254,219140,1,8,0:0:0:0:
142,194,219452,1,0,0:0:0:0:
107,118,219765,1,8,0:0:0:0:
237,212,220390,1,0,0:0:0:0:
261,170,221015,1,8,0:0:0:0:
209,200,221640,1,8,0:0:0:0:
142,194,222265,1,0,0:0:0:0:
160,145,222577,1,8,0:0:0:0:
70,212,222733,1,8,0:0:0:0:
142,194,223515,1,8,0:0:0:0:
160,148,224140,1,0,0:0:0:0:
224,203,224452,1,0,0:0:0:0:
261,149,224765,1,8,0:0:0:0:
273,263,225390,1,0,0:0:0:0:
228,247,226015,1,8,0:0:0:0:
178,161,226640,1,0,0:0:0:0:
142,190,227265,1,8,0:0:0:0:
93,173,227577,1,8,0:0:0:0:
229,227,227733,1,8,0:0:0:0:
136,174,228515,1,8,0:0:0:0:
254,240,228827,1,0,0:0:0:0:
98,150,229140,1,8,0:0:0:0:
243,283,229765,1,8,0:0:0:0:
144,192,230077,1,8,0:0:0:0:
344,209,230390,1,0,0:0:0:0:
211,196,231640,1,0,0:0:0:0:
55,119,231952,1,0,0:0:0:0:
264,176,232265,1,8,0:0:0:0:
172,179,232890,1,0,0:0:0:0:
147,164,233515,1,8,0:0:0:0:
240,179,234140,1,8,0:0:0:0:
240,179,234452,1,0,0:0:0:0:
302,121,234765,1,8,0:0:0:0:
256,292,235390,1,0,0:0:0:0:
218,219,236640,1,0,0:0:0:0:
148,165,236952,1,8,0:0:0:0:
124,125,237265,1,0,0:0:0:0:
252,223,237890,1,0,0:0:0:0:
149,130,238515,1,8,0:0:0:0:
380,307,239140,1,0,0:0:0:0:
242,163,239452,1,8,0:0:0:0:
309,250,239765,1,8,0:0:0:0:
94,210,240390,1,0,0:0:0:0:
156,174,241640,1,8,0:0:0:0:
148,165,241952,1,0,0:0:0:0:
148,165,242265,1,8,0:0:0:0:
195,181,242890,1,0,0:0:0:0:
148,111,243515,1,8,0:0:0:0:
196,181,244140,1,0,0:0:0:0:
411,220,244452,1,0,0:0:0:0:
309,147,244765,1,8,0:0:0:0:
369,293,245390,1,0,0:0:0:0:
148,151,246640,1,8,0:0:0:0:
296,161,246952,1,0,0:0:0:0:
234,147,247265,1,8,0:0:0:0:
173,247,247890,1,0,0:0:0:0:
148,110,248515,1,8,0:0:0:0:
313,145,249140,1,0,0:0:0:0:
296,161,249452,1,0,0:0:0:0:
303,199,249765,1,8,0:0:0:0:
110,143,250390,1,0,0:0:0:0:
260,191,251015,1,8,0:0:0:0:
163,230,251640,1,0,0:0:0:0:
188,214,251952,1,0,0:0:0:0:
147,110,252265,1,8,0:0:0:0:
162,230,252890,1,0,0:0:0:0:
217,183,253515,1,8,0:0:0:0:
