osu file format v14

[General]
AudioFilename: Lost Imagination.mp3
AudioLeadIn: 0
PreviewTime: 19467
Countdown: 0
SampleSet: Soft
StackLeniency: 0.7
Mode: 0
LetterboxInBreaks: 1
EpilepsyWarning: 1
WidescreenStoryboard: 1

[Editor]
Bookmarks: 14192,29999,40391,51107,61656
DistanceSpacing: 1.1
BeatDivisor: 4
GridSize: 16
TimelineZoom: 2.3

[Metadata]
Title:Lost Imagination
TitleUnicode:Lost Imagination
Artist:Raujika
ArtistUnicode:Raujika
Creator:ByBy
Version:Normal
Source:
Tags:pallete sounds collab collaboration shmiklak wajinshu ByBy_ChAn ByBy13
BeatmapID:976179
BeatmapSetID:455412

[Difficulty]
HPDrainRate:3
CircleSize:3.7
OverallDifficulty:4
ApproachRate:4
SliderMultiplier:1.4
SliderTickRate:1

[Events]
//Background and Video events
0,0,"BG.jpg",0,0
//Break Periods
//Storyboard Layer 0 (Background)
//Storyboard Layer 1 (Fail)
//Storyboard Layer 2 (Pass)
//Storyboard Layer 3 (Foreground)
//Storyboard Sound Samples

[TimingPoints]
14193,659.340659340659,4,2,1,20,1,0
19467,645.161290322581,4,2,1,20,1,0
20757,674.157303370787,4,2,1,20,1,0
22105,652.173913043478,4,2,1,20,1,0
24061,722.89156626506,4,2,1,20,1,0
24783,600,4,2,1,20,1,0
25383,697.674418604651,4,2,1,20,1,0
26080,638.297872340426,4,2,1,20,1,0
26718,659.340659340659,4,2,1,20,1,0
28366,600,4,2,1,20,1,0
28666,666.666666666667,4,2,1,20,1,0
31332,659.340659340659,4,2,1,20,1,0
34628,697.674418604651,4,2,1,20,1,0
35325,618.556701030928,4,2,1,20,1,0
35943,674.157303370787,4,2,1,20,1,0
36617,652.173913043478,4,2,1,20,1,0
39225,666.666666666667,4,2,1,20,1,0
40558,659.340659340659,4,2,1,20,1,0
51107,-100,4,2,1,20,0,1
61656,-100,4,2,1,20,0,0
74184,-100,4,2,1,15,0,0
74843,-100,4,2,1,10,0,0
75503,-100,4,2,1,5,0,0

[Colours]
Combo1 : 255,146,94
Combo2 : 135,67,67
Combo3 : 225,225,0
Combo4 : 0,166,166

[HitObjects]
188,243,14192,6,0,L|169:330,2,70,2|0|2,0:0|0:0|0:0,0:0:0:0:
206,167,15182,1,0,0:0:0:0:
279,187,15511,2,0,P|320:188|369:172,1,70,2|0,0:0|0:0,0:0:0:0:
401,125,16171,2,0,P|433:87|467:77,1,70,2|0,0:0|0:0,0:0:0:0:
474,152,16830,6,0,L|463:250,1,70,2|0,0:0|0:0,0:0:0:0:
420,283,17489,2,0,P|375:274|338:280,1,70,2|0,0:0|0:0,0:0:0:0:
296,330,18149,2,0,P|262:342|212:331,2,70,2|0|2,0:0|0:0|0:0,0:0:0:0:
251,266,19138,1,0,0:0:0:0:
301,206,19467,6,0,P|239:129|111:214,1,280,4|2,0:0|0:0,0:0:0:0:
306,334,21768,2,0,L|370:328,1,35,2|0,0:0|0:0,0:0:0:0:
378,318,22105,6,0,P|379:266|313:207,1,140,2|0,0:0|0:0,0:0:0:0:
169,170,23409,1,2,0:0:0:0:
95,287,24061,1,0,0:0:0:0:
259,199,24783,6,0,P|252:127|172:78,1,140,2|0,0:0|0:0,0:0:0:0:
48,18,26080,1,2,0:0:0:0:
10,161,26718,1,0,0:0:0:0:
127,260,27377,6,0,P|196:285|272:246,1,140,2|0,0:0|0:0,0:0:0:0:
343,146,28666,1,2,0:0:0:0:
458,247,29332,1,0,0:0:0:0:
329,331,29999,6,0,P|256:319|177:334,1,140,4|0,0:0|0:0,0:0:0:0:
114,331,30999,1,0,0:0:0:0:
119,253,31332,2,0,P|146:203|124:100,1,140,2|0,0:0|0:0,0:0:0:0:
105,52,32321,2,0,L|151:37,1,35,2|0,0:0|0:0,0:0:0:0:
176,35,32650,6,0,B|240:66|240:66|308:67,1,140,2|0,0:0|0:0,0:0:0:0:
429,163,33969,2,0,P|427:216|418:237,1,70,2|0,0:0|0:0,0:0:0:0:
362,274,34628,2,0,P|318:266|276:271,1,70,2|0,0:0|0:0,0:0:0:0:
215,306,35325,6,0,P|187:335|172:365,2,70,2|0|0,0:0|0:0|0:0,0:0:0:0:
94,201,36617,2,0,B|79:125|119:142|100:63,1,140,2|0,0:0|0:0,0:0:0:0:
165,23,37595,1,0,0:0:0:0:
204,88,37921,6,0,L|194:163,2,70,2|0|0,0:0|0:0|0:0,0:0:0:0:
266,42,38899,1,0,0:0:0:0:
341,45,39225,2,0,P|413:53|455:109,1,140,2|0,0:0|0:0,0:0:0:0:
438,257,40558,6,0,P|452:301|449:339,2,70,4|0|0,0:0|0:0|0:0,0:0:0:0:
376,211,41547,1,0,0:0:0:0:
310,250,41876,2,0,P|235:251|167:195,1,140,2|0,0:0|0:0,0:0:0:0:
150,146,42865,2,0,L|139:100,1,35,2|0,0:0|0:0,0:0:0:0:
146,73,43195,6,0,B|184:49|236:60|236:60|286:95,1,140,2|0,0:0|0:0,0:0:0:0:
333,135,44184,1,0,0:0:0:0:
361,206,44514,2,0,L|352:264,2,35,2|0|0,0:0|0:0|0:0,0:0:0:0:
413,149,45173,2,0,P|408:102|374:64,1,70,2|0,0:0|0:0,0:0:0:0:
324,56,45832,6,0,P|265:69|184:55,1,140,2|0,0:0|0:0,0:0:0:0:
121,17,46821,1,0,0:0:0:0:
71,75,47151,2,0,B|53:110|68:144|68:144|92:181|62:223,1,140,2|0,0:0|0:0,0:0:0:0:
60,362,48470,6,0,P|116:337|198:345,1,140,2|0,0:0|0:0,0:0:0:0:
266,364,49459,1,0,0:0:0:0:
329,320,49788,2,0,P|363:267|354:179,1,140,2|0,0:0|0:0,0:0:0:0:
252,82,51107,6,0,B|194:41|194:41|112:41,1,140,4|0,0:0|0:0,0:0:0:0:
66,90,52096,1,0,0:0:0:0:
61,166,52426,2,0,P|43:203|19:225,2,70,2|0|0,0:0|0:0|0:0,0:0:0:0:
132,137,53415,2,0,L|173:136,1,35,2|0,0:0|0:0,0:0:0:0:
203,149,53744,6,0,P|203:213|214:238,2,70,2|0|0,0:0|0:0|0:0,0:0:0:0:
261,98,54733,1,0,0:0:0:0:
331,66,55063,2,0,P|369:100|381:186,1,140,2|0,0:0|0:0,0:0:0:0:
279,300,56382,6,0,L|291:377,2,70,2|0|0,0:0|0:0|0:0,0:0:0:0:
225,244,57371,1,0,0:0:0:0:
154,213,57700,2,0,P|124:141|136:61,1,140,2|0,0:0|0:0,0:0:0:0:
271,23,59019,6,0,B|341:35|341:35|411:70,1,140,2|0,0:0|0:0,0:0:0:0:
468,106,60008,1,0,0:0:0:0:
420,166,60338,2,0,P|371:207|350:298,1,140,2|0,0:0|0:0,0:0:0:0:
326,351,61327,1,0,0:0:0:0:
249,354,61656,6,0,P|200:364|128:303,1,140,4|0,0:0|0:0,0:0:0:0:
95,245,62645,1,0,0:0:0:0:
139,181,62975,2,0,L|234:182,2,70,2|0|0,0:0|0:0|0:0,0:0:0:0:
84,126,63964,1,0,0:0:0:0:
144,78,64294,6,0,P|199:65|274:128,1,140,2|0,0:0|0:0,0:0:0:0:
311,169,65283,1,0,0:0:0:0:
285,241,65612,2,0,L|300:291,2,35,2|0|0,0:0|0:0|0:0,0:0:0:0:
223,193,66272,1,2,0:0:0:0:
172,249,66601,1,0,0:0:0:0:
114,197,66931,6,0,P|96:155|107:100,1,70,2|0,0:0|0:0,0:0:0:0:
168,104,67590,2,0,P|172:69|161:36,1,70,2|0,0:0|0:0,0:0:0:0:
233,9,68250,2,0,P|250:53|335:92,1,140,2|0,0:0|0:0,0:0:0:0:
465,164,69568,6,0,P|477:235|408:298,1,140,2|0,0:0|0:0,0:0:0:0:
371,324,70557,1,0,0:0:0:0:
302,289,70887,2,0,P|268:279|233:282,1,70,2|0,0:0|0:0,0:0:0:0:
181,339,71547,2,0,P|133:337|101:315,1,70,2|0,0:0|0:0,0:0:0:0:
62,270,72206,1,4,0:0:0:0:
256,192,72371,12,0,75503,0:0:0:0:
