osu file format v14

[General]
AudioFilename: audio.mp3
AudioLeadIn: 0
PreviewTime: 160390
Countdown: 0
SampleSet: Normal
StackLeniency: 0.7
Mode: 1
LetterboxInBreaks: 0
WidescreenStoryboard: 1

[Editor]
Bookmarks: 17900,30400,40400,60400,80400,90400,100400,120400,130400,135400,140400,150400,160400,170400,190400,210400,230400
DistanceSpacing: 1.2
BeatDivisor: 4
GridSize: 32
TimelineZoom: 1.3

[Metadata]
Title:Grim
TitleUnicode:Grim
Artist:Raujika
ArtistUnicode:Raujika
Creator:Gamelan4
Version:Pleasant Oni
Source:
Tags:Lost Imagination Sounds of color Vol.2 electronic palette sounds Etsu
BeatmapID:2071318
BeatmapSetID:986569

[Difficulty]
HPDrainRate:5
CircleSize:2
OverallDifficulty:6
ApproachRate:0
SliderMultiplier:1.4
SliderTickRate:1

[Events]
//Background and Video events
0,0,"bg Grim Osu.jpg",0,0
//Break Periods
//Storyboard Layer 0 (Background)
//Storyboard Layer 1 (Fail)
//Storyboard Layer 2 (Pass)
//Storyboard Layer 3 (Foreground)
//Storyboard Layer 4 (Overlay)
//Storyboard Sound Samples

[TimingPoints]
2890,625,4,1,0,5,1,0
5390,-100,4,1,0,10,0,0
7890,-100,4,1,0,15,0,0
10390,-100,4,1,0,20,0,0
12890,-100,4,1,0,25,0,0
15390,-100,4,1,0,40,0,0
21640,-100,4,1,0,45,0,0
24765,-100,4,1,0,50,0,0
30390,-100,4,1,0,60,0,0
40390,-100,4,1,0,70,0,1
60390,-100,4,1,0,60,0,0
80390,-97.0873786407767,4,1,0,70,0,1
100390,-97.0873786407767,4,1,0,60,0,0
101015,-100,4,1,0,60,0,0
170390,-100,4,1,0,80,0,1
190077,-100,4,1,0,85,0,0
190390,-97.0873786407767,4,1,0,90,0,1
210390,-100,4,1,0,70,0,0
230390,-100,4,1,0,60,0,0
240390,-100,4,1,0,50,0,0
246483,-100,4,1,0,45,0,0

[HitObjects]
256,192,2890,12,0,15390,0:0:0:0:
256,192,17890,5,0,0:0:0:0:
256,192,19765,5,0,0:0:0:0:
256,192,20390,5,8,0:0:0:0:
256,192,21640,1,0,0:0:0:0:
256,192,22265,1,8,0:0:0:0:
256,192,22890,5,0,0:0:0:0:
256,192,24765,5,0,0:0:0:0:
256,192,25390,1,8,0:0:0:0:
256,192,26640,1,0,0:0:0:0:
256,192,27265,1,8,0:0:0:0:
256,192,27890,1,0,0:0:0:0:
256,192,29452,1,0,0:0:0:0:
256,192,29765,5,8,0:0:0:0:
256,192,30077,1,0,0:0:0:0:
256,192,30233,1,8,0:0:0:0:
256,192,30390,1,0,0:0:0:0:
256,192,30702,1,0,0:0:0:0:
256,192,31015,1,8,0:0:0:0:
256,192,31483,1,0,0:0:0:0:
256,192,31952,1,0,0:0:0:0:
256,192,32108,1,0,0:0:0:0:
256,192,32265,1,8,0:0:0:0:
256,192,32577,1,0,0:0:0:0:
256,192,32733,1,8,0:0:0:0:
256,192,32890,1,0,0:0:0:0:
256,192,33202,1,0,0:0:0:0:
256,192,33515,1,8,0:0:0:0:
256,192,33983,1,0,0:0:0:0:
256,192,34452,1,0,0:0:0:0:
256,192,34608,1,0,0:0:0:0:
256,192,34765,1,8,0:0:0:0:
256,192,35077,1,0,0:0:0:0:
256,192,35233,1,8,0:0:0:0:
256,192,35390,1,0,0:0:0:0:
256,192,35702,1,0,0:0:0:0:
256,192,36015,1,8,0:0:0:0:
256,192,36483,1,0,0:0:0:0:
256,192,36952,1,0,0:0:0:0:
256,192,37108,1,0,0:0:0:0:
256,192,37265,1,8,0:0:0:0:
256,192,37577,1,0,0:0:0:0:
256,192,37733,1,8,0:0:0:0:
256,192,37890,1,0,0:0:0:0:
256,192,38202,1,0,0:0:0:0:
256,192,38515,1,8,0:0:0:0:
256,192,39140,1,8,0:0:0:0:
256,192,39296,1,0,0:0:0:0:
256,192,39452,1,0,0:0:0:0:
256,192,39765,1,8,0:0:0:0:
256,192,40077,1,8,0:0:0:0:
256,192,40390,1,4,0:0:0:0:
256,192,40701,1,0,0:0:0:0:
256,192,40858,1,0,0:0:0:0:
256,192,41014,1,8,0:0:0:0:
256,192,41171,1,0,0:0:0:0:
256,192,41327,1,0,0:0:0:0:
256,192,41640,1,8,0:0:0:0:
256,192,41796,1,0,0:0:0:0:
256,192,41952,1,8,0:0:0:0:
256,192,42265,1,0,0:0:0:0:
256,192,42577,1,8,0:0:0:0:
256,192,42734,1,0,0:0:0:0:
256,192,43202,1,0,0:0:0:0:
256,192,43358,1,8,0:0:0:0:
256,192,43515,1,0,0:0:0:0:
256,192,43827,1,0,0:0:0:0:
256,192,44140,1,8,0:0:0:0:
256,192,44296,1,0,0:0:0:0:
256,192,44452,1,0,0:0:0:0:
256,192,44608,1,8,0:0:0:0:
256,192,44765,1,8,0:0:0:0:
256,192,45077,1,0,0:0:0:0:
256,192,45702,1,0,0:0:0:0:
256,192,45859,1,0,0:0:0:0:
256,192,46015,1,8,0:0:0:0:
256,192,46328,1,0,0:0:0:0:
256,192,46641,1,8,0:0:0:0:
256,192,46796,1,0,0:0:0:0:
256,192,46953,1,8,0:0:0:0:
256,192,47266,1,0,0:0:0:0:
256,192,47578,1,8,0:0:0:0:
256,192,47733,1,0,0:0:0:0:
256,192,48203,1,0,0:0:0:0:
256,192,48359,1,8,0:0:0:0:
256,192,48516,1,0,0:0:0:0:
256,192,48828,1,0,0:0:0:0:
256,192,49141,1,8,0:0:0:0:
256,192,49296,1,0,0:0:0:0:
256,192,49453,1,0,0:0:0:0:
256,192,49608,1,8,0:0:0:0:
256,192,49766,1,0,0:0:0:0:
256,192,50078,1,8,0:0:0:0:
256,192,50702,1,0,0:0:0:0:
256,192,50859,1,8,0:0:0:0:
256,192,51015,1,8,0:0:0:0:
256,192,51171,1,0,0:0:0:0:
256,192,51328,1,0,0:0:0:0:
256,192,51641,1,8,0:0:0:0:
256,192,51796,1,0,0:0:0:0:
256,192,51953,1,8,0:0:0:0:
256,192,52266,1,0,0:0:0:0:
256,192,52578,1,8,0:0:0:0:
256,192,52733,1,0,0:0:0:0:
256,192,53203,1,8,0:0:0:0:
256,192,53359,1,8,0:0:0:0:
256,192,53516,1,0,0:0:0:0:
256,192,53828,1,0,0:0:0:0:
256,192,54141,1,8,0:0:0:0:
256,192,54296,1,0,0:0:0:0:
256,192,54453,1,8,0:0:0:0:
256,192,54608,1,0,0:0:0:0:
256,192,54766,1,0,0:0:0:0:
256,192,55078,1,8,0:0:0:0:
256,192,55702,1,0,0:0:0:0:
256,192,55858,1,8,0:0:0:0:
256,192,56015,1,8,0:0:0:0:
256,192,56171,1,0,0:0:0:0:
256,192,56327,1,0,0:0:0:0:
256,192,56641,1,8,0:0:0:0:
256,192,56796,1,0,0:0:0:0:
256,192,56953,1,8,0:0:0:0:
256,192,57266,1,0,0:0:0:0:
256,192,57577,1,8,0:0:0:0:
256,192,57733,1,0,0:0:0:0:
256,192,57890,1,0,0:0:0:0:
256,192,58046,1,8,0:0:0:0:
256,192,58203,1,0,0:0:0:0:
256,192,58358,1,8,0:0:0:0:
256,192,58515,1,0,0:0:0:0:
256,192,58827,1,8,0:0:0:0:
256,192,59139,1,0,0:0:0:0:
256,192,59296,1,8,0:0:0:0:
256,192,59452,1,8,0:0:0:0:
256,192,59608,1,0,0:0:0:0:
256,192,59765,1,0,0:0:0:0:
256,192,60077,1,8,0:0:0:0:
256,192,60390,1,0,0:0:0:0:
252,192,61015,1,8,0:0:0:0:
252,192,61640,1,0,0:0:0:0:
252,192,61952,1,8,0:0:0:0:
252,192,62264,1,0,0:0:0:0:
252,192,62577,1,8,0:0:0:0:
252,192,62733,1,8,0:0:0:0:
252,192,63202,1,0,0:0:0:0:
252,192,63358,1,0,0:0:0:0:
252,192,63515,1,8,0:0:0:0:
252,192,63827,1,0,0:0:0:0:
252,192,64139,1,8,0:0:0:0:
252,192,64295,1,0,0:0:0:0:
252,192,64452,1,0,0:0:0:0:
252,192,64608,1,0,0:0:0:0:
252,192,64764,1,8,0:0:0:0:
252,192,65077,1,8,0:0:0:0:
252,192,65390,1,0,0:0:0:0:
252,192,65702,1,0,0:0:0:0:
252,192,65858,1,0,0:0:0:0:
252,192,66015,1,8,0:0:0:0:
252,192,66641,1,0,0:0:0:0:
252,192,66953,1,8,0:0:0:0:
252,192,67108,1,8,0:0:0:0:
252,192,67265,1,0,0:0:0:0:
252,192,67578,1,8,0:0:0:0:
252,192,67734,1,0,0:0:0:0:
252,192,68203,1,0,0:0:0:0:
252,192,68359,1,0,0:0:0:0:
252,192,68516,1,8,0:0:0:0:
252,192,68827,1,0,0:0:0:0:
252,192,69140,1,8,0:0:0:0:
252,192,69296,1,0,0:0:0:0:
252,192,69453,1,0,0:0:0:0:
252,192,69608,1,0,0:0:0:0:
252,192,69765,1,8,0:0:0:0:
252,192,70078,1,8,0:0:0:0:
252,192,70233,1,8,0:0:0:0:
252,192,70390,1,0,0:0:0:0:
256,196,70702,1,0,0:0:0:0:
252,192,70858,1,0,0:0:0:0:
252,192,71015,1,8,0:0:0:0:
252,192,71641,1,0,0:0:0:0:
252,192,71953,1,8,0:0:0:0:
252,192,72265,1,0,0:0:0:0:
252,192,72578,1,0,0:0:0:0:
252,192,72733,1,8,0:0:0:0:
252,192,73203,1,0,0:0:0:0:
252,192,73359,1,0,0:0:0:0:
252,192,73516,1,8,0:0:0:0:
252,192,74140,1,8,0:0:0:0:
252,192,74296,1,0,0:0:0:0:
252,192,74453,1,0,0:0:0:0:
252,192,74608,1,0,0:0:0:0:
252,192,74765,1,8,0:0:0:0:
252,192,75078,1,8,0:0:0:0:
252,192,75390,1,0,0:0:0:0:
252,192,75702,1,0,0:0:0:0:
252,192,75858,1,0,0:0:0:0:
252,192,76015,1,8,0:0:0:0:
252,192,76641,1,0,0:0:0:0:
252,192,76953,1,8,0:0:0:0:
252,192,77265,1,0,0:0:0:0:
252,192,77578,1,8,0:0:0:0:
252,192,77734,1,0,0:0:0:0:
252,192,78203,1,0,0:0:0:0:
252,192,78359,1,0,0:0:0:0:
252,192,78516,1,8,0:0:0:0:
252,192,79140,1,0,0:0:0:0:
252,192,79296,1,8,0:0:0:0:
252,192,79608,1,0,0:0:0:0:
252,192,79765,1,8,0:0:0:0:
252,192,80078,1,0,0:0:0:0:
252,192,80390,1,4,0:0:0:0:
252,192,80702,1,0,0:0:0:0:
252,192,80858,1,0,0:0:0:0:
252,192,81014,1,8,0:0:0:0:
252,192,81327,1,0,0:0:0:0:
252,192,81640,1,0,0:0:0:0:
252,192,81796,1,8,0:0:0:0:
252,192,81952,1,8,0:0:0:0:
252,192,82265,1,0,0:0:0:0:
252,192,82577,1,8,0:0:0:0:
252,192,82734,1,0,0:0:0:0:
248,184,83202,1,0,0:0:0:0:
252,192,83358,1,0,0:0:0:0:
252,192,83514,1,8,0:0:0:0:
252,192,83827,1,0,0:0:0:0:
252,192,84140,1,0,0:0:0:0:
252,192,84296,1,8,0:0:0:0:
248,184,84452,1,0,0:0:0:0:
252,192,84608,1,0,0:0:0:0:
252,192,84765,1,8,0:0:0:0:
252,192,85077,1,8,0:0:0:0:
248,184,85390,1,0,0:0:0:0:
252,192,85702,1,0,0:0:0:0:
252,192,85858,1,0,0:0:0:0:
252,192,86014,1,8,0:0:0:0:
252,192,86327,1,0,0:0:0:0:
252,192,86640,1,8,0:0:0:0:
252,192,86796,1,0,0:0:0:0:
252,192,86952,1,8,0:0:0:0:
252,192,87265,1,0,0:0:0:0:
252,192,87577,1,0,0:0:0:0:
252,192,87733,1,8,0:0:0:0:
252,192,88202,1,0,0:0:0:0:
252,192,88358,1,8,0:0:0:0:
252,192,88515,1,0,0:0:0:0:
252,192,88827,1,0,0:0:0:0:
252,192,89140,1,0,0:0:0:0:
252,192,89296,1,8,0:0:0:0:
256,197,89452,1,0,0:0:0:0:
252,192,89608,1,0,0:0:0:0:
252,192,89765,1,8,0:0:0:0:
252,192,90077,1,0,0:0:0:0:
252,192,90702,1,0,0:0:0:0:
252,192,90858,1,8,0:0:0:0:
252,192,91014,1,8,0:0:0:0:
248,184,91327,1,0,0:0:0:0:
252,192,91640,1,8,0:0:0:0:
252,192,91796,1,0,0:0:0:0:
252,192,91952,1,8,0:0:0:0:
252,192,92265,1,0,0:0:0:0:
252,192,92577,1,0,0:0:0:0:
252,192,92733,1,8,0:0:0:0:
252,192,93202,1,0,0:0:0:0:
252,192,93358,1,8,0:0:0:0:
252,192,93515,1,8,0:0:0:0:
252,192,93827,1,0,0:0:0:0:
252,192,94140,1,0,0:0:0:0:
252,192,94296,1,0,0:0:0:0:
252,192,94452,1,8,0:0:0:0:
252,192,94608,1,0,0:0:0:0:
252,192,94765,1,8,0:0:0:0:
252,192,95077,1,8,0:0:0:0:
252,192,95390,1,0,0:0:0:0:
256,192,95702,1,0,0:0:0:0:
256,192,95859,1,0,0:0:0:0:
256,192,96015,1,8,0:0:0:0:
252,192,96327,1,8,0:0:0:0:
256,192,96641,1,8,0:0:0:0:
248,196,96796,1,0,0:0:0:0:
256,192,96953,1,8,0:0:0:0:
256,192,97266,1,0,0:0:0:0:
256,192,97577,1,8,0:0:0:0:
256,192,97890,1,0,0:0:0:0:
256,192,98046,1,8,0:0:0:0:
256,192,98202,1,0,0:0:0:0:
256,192,98359,1,0,0:0:0:0:
256,192,98515,1,8,0:0:0:0:
248,196,98671,1,0,0:0:0:0:
256,192,98827,1,8,0:0:0:0:
256,192,99140,1,0,0:0:0:0:
256,192,99296,1,8,0:0:0:0:
256,192,99452,1,8,0:0:0:0:
256,192,99609,1,0,0:0:0:0:
256,192,99765,1,0,0:0:0:0:
248,196,99921,1,0,0:0:0:0:
256,192,100077,1,8,0:0:0:0:
256,192,100390,1,4,0:0:0:0:
256,192,101015,1,8,0:0:0:0:
256,192,101640,1,0,0:0:0:0:
256,192,101952,1,8,0:0:0:0:
256,192,102265,1,0,0:0:0:0:
256,192,102577,1,8,0:0:0:0:
256,192,102733,1,8,0:0:0:0:
256,192,103202,1,0,0:0:0:0:
256,192,103358,1,0,0:0:0:0:
256,192,103515,1,8,0:0:0:0:
256,192,104140,1,0,0:0:0:0:
256,192,104452,1,0,0:0:0:0:
256,192,104608,1,8,0:0:0:0:
256,192,104765,1,8,0:0:0:0:
256,192,105077,1,8,0:0:0:0:
256,192,105390,1,8,0:0:0:0:
256,192,105546,1,8,0:0:0:0:
256,192,105702,1,0,0:0:0:0:
256,192,105858,1,0,0:0:0:0:
256,192,106015,1,8,0:0:0:0:
256,192,106327,1,0,0:0:0:0:
256,192,106483,1,0,0:0:0:0:
256,192,106640,1,0,0:0:0:0:
256,192,106952,1,8,0:0:0:0:
256,192,107265,1,0,0:0:0:0:
256,192,107577,1,8,0:0:0:0:
256,192,107733,1,8,0:0:0:0:
256,192,108202,1,0,0:0:0:0:
256,192,108358,1,0,0:0:0:0:
256,192,108514,1,8,0:0:0:0:
256,192,109140,5,0,0:0:0:0:
256,192,109296,1,0,0:0:0:0:
256,192,109452,1,8,0:0:0:0:
256,192,109608,1,0,0:0:0:0:
256,192,109765,1,8,0:0:0:0:
256,192,110077,1,8,0:0:0:0:
256,192,110390,5,0,0:0:0:0:
256,192,111015,1,8,0:0:0:0:
256,192,111640,1,0,0:0:0:0:
256,192,111952,1,8,0:0:0:0:
256,192,112265,1,0,0:0:0:0:
256,192,112577,1,8,0:0:0:0:
256,192,112733,1,8,0:0:0:0:
256,192,113202,1,0,0:0:0:0:
256,192,113358,1,0,0:0:0:0:
256,192,113515,1,8,0:0:0:0:
256,192,114140,1,0,0:0:0:0:
256,192,114296,1,8,0:0:0:0:
256,192,114452,1,0,0:0:0:0:
256,192,114765,1,8,0:0:0:0:
256,192,115077,1,8,0:0:0:0:
256,192,115390,1,0,0:0:0:0:
256,192,115546,1,0,0:0:0:0:
256,192,115702,1,0,0:0:0:0:
256,192,115858,1,0,0:0:0:0:
256,192,116014,1,8,0:0:0:0:
256,192,116327,1,0,0:0:0:0:
256,192,116483,1,0,0:0:0:0:
256,192,116640,1,0,0:0:0:0:
256,192,116952,1,8,0:0:0:0:
256,192,117265,1,0,0:0:0:0:
256,192,117577,1,8,0:0:0:0:
256,192,117733,1,8,0:0:0:0:
256,192,117890,1,0,0:0:0:0:
256,192,118515,1,8,0:0:0:0:
256,192,119140,1,0,0:0:0:0:
256,192,119765,1,8,0:0:0:0:
256,192,120077,1,8,0:0:0:0:
256,192,120233,1,8,0:0:0:0:
256,192,120390,5,0,0:0:0:0:
256,192,120546,1,0,0:0:0:0:
256,192,120702,1,0,0:0:0:0:
256,192,120858,1,0,0:0:0:0:
256,192,121015,1,8,0:0:0:0:
256,192,121327,1,0,0:0:0:0:
256,192,121483,1,0,0:0:0:0:
256,192,121640,1,0,0:0:0:0:
256,192,121952,1,8,0:0:0:0:
256,192,122265,1,0,0:0:0:0:
256,192,122577,1,0,0:0:0:0:
256,192,122733,1,8,0:0:0:0:
256,192,123046,1,8,0:0:0:0:
256,192,123202,1,0,0:0:0:0:
256,192,123358,1,0,0:0:0:0:
256,192,123515,1,8,0:0:0:0:
256,192,123983,1,0,0:0:0:0:
256,192,124140,1,0,0:0:0:0:
256,192,124296,1,0,0:0:0:0:
256,192,124452,1,8,0:0:0:0:
256,192,124765,1,0,0:0:0:0:
256,192,125077,1,0,0:0:0:0:
256,192,125233,1,8,0:0:0:0:
256,192,125390,1,0,0:0:0:0:
256,192,125546,1,0,0:0:0:0:
256,192,125702,1,8,0:0:0:0:
256,192,125858,1,0,0:0:0:0:
256,192,126015,1,8,0:0:0:0:
256,192,126327,1,8,0:0:0:0:
256,192,126640,1,0,0:0:0:0:
256,192,126796,1,0,0:0:0:0:
256,192,126952,1,8,0:0:0:0:
256,192,127265,1,0,0:0:0:0:
256,192,127577,1,0,0:0:0:0:
256,192,127733,1,8,0:0:0:0:
256,192,128046,1,8,0:0:0:0:
256,192,128202,1,0,0:0:0:0:
256,192,128359,1,0,0:0:0:0:
256,192,128515,1,8,0:0:0:0:
256,192,129140,1,8,0:0:0:0:
256,192,129452,1,0,0:0:0:0:
256,192,129608,1,8,0:0:0:0:
256,192,129765,1,8,0:0:0:0:
256,192,129921,1,0,0:0:0:0:
256,192,130077,1,8,0:0:0:0:
256,192,130390,1,4,0:0:0:0:
256,192,131015,5,12,0:0:0:0:
256,192,131483,1,8,0:0:0:0:
256,192,131640,1,0,0:0:0:0:
256,192,131796,1,0,0:0:0:0:
256,192,131952,1,8,0:0:0:0:
256,192,132265,1,12,0:0:0:0:
256,192,132890,1,4,0:0:0:0:
256,192,133358,1,0,0:0:0:0:
256,192,133515,1,8,0:0:0:0:
256,192,133827,1,8,0:0:0:0:
256,192,133983,1,0,0:0:0:0:
256,192,134140,1,0,0:0:0:0:
256,192,134296,1,8,0:0:0:0:
256,192,134608,1,8,0:0:0:0:
256,192,134765,1,0,0:0:0:0:
256,192,135077,1,8,0:0:0:0:
256,192,135233,1,8,0:0:0:0:
256,192,135390,1,0,0:0:0:0:
256,192,135702,1,0,0:0:0:0:
256,192,135858,1,0,0:0:0:0:
256,192,136015,1,8,0:0:0:0:
256,192,136640,1,0,0:0:0:0:
256,192,136796,1,0,0:0:0:0:
256,192,136952,1,8,0:0:0:0:
256,192,137265,1,8,0:0:0:0:
256,192,137577,1,0,0:0:0:0:
256,192,137733,1,8,0:0:0:0:
256,192,138046,1,0,0:0:0:0:
256,192,138202,1,8,0:0:0:0:
256,192,138358,1,0,0:0:0:0:
256,192,138514,1,8,0:0:0:0:
256,192,138671,1,8,0:0:0:0:
256,192,138827,1,0,0:0:0:0:
256,192,139140,1,0,0:0:0:0:
256,192,139764,1,12,0:0:0:0:
256,192,140390,5,0,0:0:0:0:
256,192,140546,1,0,0:0:0:0:
256,192,140702,1,0,0:0:0:0:
256,192,140858,1,0,0:0:0:0:
256,192,141015,1,8,0:0:0:0:
256,192,141483,1,8,0:0:0:0:
256,192,141640,1,0,0:0:0:0:
256,192,141952,1,8,0:0:0:0:
256,192,142265,1,0,0:0:0:0:
256,192,142577,1,8,0:0:0:0:
256,192,142733,1,8,0:0:0:0:
256,192,143202,1,0,0:0:0:0:
256,192,143358,1,0,0:0:0:0:
256,192,143515,1,8,0:0:0:0:
256,192,143983,1,0,0:0:0:0:
256,192,144139,1,0,0:0:0:0:
256,192,144296,1,8,0:0:0:0:
256,192,144452,1,8,0:0:0:0:
256,192,144765,1,8,0:0:0:0:
256,192,145077,1,8,0:0:0:0:
256,192,145390,1,0,0:0:0:0:
256,192,145702,1,0,0:0:0:0:
256,192,145858,1,0,0:0:0:0:
256,192,146014,1,8,0:0:0:0:
256,192,146327,1,0,0:0:0:0:
256,192,146483,1,0,0:0:0:0:
256,192,146640,1,0,0:0:0:0:
256,192,146952,1,8,0:0:0:0:
256,192,147265,1,0,0:0:0:0:
256,192,147577,1,8,0:0:0:0:
256,192,147733,1,8,0:0:0:0:
256,192,148202,1,0,0:0:0:0:
256,192,148358,1,0,0:0:0:0:
256,192,148515,1,8,0:0:0:0:
256,192,149140,1,8,0:0:0:0:
256,192,149296,1,0,0:0:0:0:
256,192,149452,1,8,0:0:0:0:
256,192,149765,1,8,0:0:0:0:
256,192,150077,1,8,0:0:0:0:
256,192,150390,5,0,0:0:0:0:
256,192,150494,1,0,0:0:0:0:
256,192,150598,1,0,0:0:0:0:
256,192,150702,1,8,0:0:0:0:
256,192,151015,1,0,0:0:0:0:
256,192,151483,1,8,0:0:0:0:
256,192,151640,1,0,0:0:0:0:
256,192,152473,1,8,0:0:0:0:
256,192,152577,5,0,0:0:0:0:
256,192,152681,1,0,0:0:0:0:
256,192,152890,1,8,0:0:0:0:
256,192,153202,1,0,0:0:0:0:
256,192,153358,1,8,0:0:0:0:
256,192,153514,1,0,0:0:0:0:
256,192,154140,1,0,0:0:0:0:
256,192,154297,1,0,0:0:0:0:
256,192,154453,1,8,0:0:0:0:
256,192,154609,1,8,0:0:0:0:
256,192,154765,1,8,0:0:0:0:
256,192,155077,1,8,0:0:0:0:
256,192,155390,5,0,0:0:0:0:
256,192,155858,1,0,0:0:0:0:
256,192,156015,1,8,0:0:0:0:
256,192,156640,1,8,0:0:0:0:
256,192,156952,1,8,0:0:0:0:
256,192,157108,1,8,0:0:0:0:
256,192,157265,1,0,0:0:0:0:
256,192,157890,1,0,0:0:0:0:
256,192,158202,1,0,0:0:0:0:
256,192,158306,1,0,0:0:0:0:
256,192,158410,1,0,0:0:0:0:
256,192,158515,1,8,0:0:0:0:
256,192,158827,1,0,0:0:0:0:
256,192,159140,1,8,0:0:0:0:
256,192,159452,1,8,0:0:0:0:
256,192,159765,1,0,0:0:0:0:
256,192,160077,1,8,0:0:0:0:
256,192,160390,1,0,0:0:0:0:
256,192,160702,1,0,0:0:0:0:
256,192,160859,1,0,0:0:0:0:
256,192,161015,1,8,0:0:0:0:
256,192,161327,1,0,0:0:0:0:
256,192,161483,1,8,0:0:0:0:
256,192,161639,1,0,0:0:0:0:
256,192,161952,1,8,0:0:0:0:
256,192,162108,1,0,0:0:0:0:
256,192,162265,1,0,0:0:0:0:
256,192,162577,1,8,0:0:0:0:
256,192,162733,1,0,0:0:0:0:
249,196,163202,1,0,0:0:0:0:
256,192,163358,1,8,0:0:0:0:
256,192,163515,1,8,0:0:0:0:
256,192,164140,1,0,0:0:0:0:
256,192,164296,1,0,0:0:0:0:
256,192,164452,1,8,0:0:0:0:
256,192,164608,1,8,0:0:0:0:
256,192,164765,1,8,0:0:0:0:
256,192,165077,1,8,0:0:0:0:
256,192,165390,1,0,0:0:0:0:
256,192,165702,1,0,0:0:0:0:
256,192,165859,1,0,0:0:0:0:
256,192,166015,1,8,0:0:0:0:
256,192,166327,1,0,0:0:0:0:
256,192,166640,1,8,0:0:0:0:
256,192,166952,1,8,0:0:0:0:
256,192,167108,1,8,0:0:0:0:
256,192,167265,1,0,0:0:0:0:
256,192,167577,1,8,0:0:0:0:
256,192,167734,1,0,0:0:0:0:
256,192,168202,1,8,0:0:0:0:
256,192,168306,1,8,0:0:0:0:
256,192,168410,1,8,0:0:0:0:
256,192,168515,1,0,0:0:0:0:
256,192,168827,1,0,0:0:0:0:
256,192,169140,1,0,0:0:0:0:
256,192,169296,1,8,0:0:0:0:
256,192,169452,1,8,0:0:0:0:
256,192,169765,1,8,0:0:0:0:
256,192,170077,1,8,0:0:0:0:
256,192,170390,1,4,0:0:0:0:
256,192,170701,1,0,0:0:0:0:
256,192,170858,1,0,0:0:0:0:
256,192,171014,1,8,0:0:0:0:
256,192,171327,1,0,0:0:0:0:
256,192,171640,1,8,0:0:0:0:
256,192,171796,1,0,0:0:0:0:
256,192,171952,1,8,0:0:0:0:
256,192,172108,1,8,0:0:0:0:
256,192,172265,1,0,0:0:0:0:
256,192,172577,1,8,0:0:0:0:
256,192,172734,1,0,0:0:0:0:
256,192,173202,1,0,0:0:0:0:
256,192,173358,1,8,0:0:0:0:
256,192,173515,1,0,0:0:0:0:
256,192,173827,1,0,0:0:0:0:
256,192,173983,1,0,0:0:0:0:
256,192,174140,1,8,0:0:0:0:
256,192,174296,1,0,0:0:0:0:
256,192,174452,1,0,0:0:0:0:
256,192,174608,1,8,0:0:0:0:
256,192,174765,1,8,0:0:0:0:
256,192,175077,1,8,0:0:0:0:
256,192,175390,1,0,0:0:0:0:
256,192,175702,1,0,0:0:0:0:
256,192,175859,1,8,0:0:0:0:
256,192,176015,1,0,0:0:0:0:
256,192,176327,1,0,0:0:0:0:
256,192,176641,1,8,0:0:0:0:
256,192,176796,1,0,0:0:0:0:
256,192,176953,1,8,0:0:0:0:
256,192,177266,1,0,0:0:0:0:
256,192,177578,1,8,0:0:0:0:
256,192,177733,1,0,0:0:0:0:
256,192,178203,1,8,0:0:0:0:
256,192,178306,1,8,0:0:0:0:
256,192,178410,1,8,0:0:0:0:
256,192,178516,1,0,0:0:0:0:
256,192,178827,1,0,0:0:0:0:
256,192,178983,1,0,0:0:0:0:
256,192,179141,1,8,0:0:0:0:
256,192,179296,1,8,0:0:0:0:
256,192,179453,1,0,0:0:0:0:
256,192,179608,1,0,0:0:0:0:
256,192,179766,1,8,0:0:0:0:
256,192,180078,1,8,0:0:0:0:
256,192,180390,1,0,0:0:0:0:
256,192,180702,1,0,0:0:0:0:
256,192,180859,1,0,0:0:0:0:
256,192,181015,1,8,0:0:0:0:
256,192,181328,1,0,0:0:0:0:
256,192,181641,1,8,0:0:0:0:
256,192,181797,1,8,0:0:0:0:
256,192,181953,1,0,0:0:0:0:
256,192,182266,1,0,0:0:0:0:
256,192,182577,1,8,0:0:0:0:
256,192,182733,1,0,0:0:0:0:
256,192,183203,1,0,0:0:0:0:
256,192,183359,1,8,0:0:0:0:
256,192,183516,1,0,0:0:0:0:
256,192,183828,1,0,0:0:0:0:
256,192,184141,1,8,0:0:0:0:
256,192,184296,1,8,0:0:0:0:
256,192,184453,1,0,0:0:0:0:
256,192,184608,1,0,0:0:0:0:
256,192,184766,1,8,0:0:0:0:
256,192,185078,1,8,0:0:0:0:
256,192,185390,1,0,0:0:0:0:
256,192,185702,1,0,0:0:0:0:
256,192,185859,1,0,0:0:0:0:
256,192,186015,1,8,0:0:0:0:
256,192,186328,1,0,0:0:0:0:
256,192,186483,1,8,0:0:0:0:
256,192,186641,1,8,0:0:0:0:
256,192,186953,1,8,0:0:0:0:
256,192,187266,1,0,0:0:0:0:
256,192,187577,1,8,0:0:0:0:
256,192,187733,1,0,0:0:0:0:
256,192,187890,1,0,0:0:0:0:
256,192,188046,1,8,0:0:0:0:
256,192,188202,1,0,0:0:0:0:
256,192,188306,1,0,0:0:0:0:
256,192,188410,1,0,0:0:0:0:
256,192,188515,1,8,0:0:0:0:
256,192,188827,1,8,0:0:0:0:
256,192,189139,1,0,0:0:0:0:
256,192,189296,1,8,0:0:0:0:
256,192,189452,1,8,0:0:0:0:
256,192,189608,1,0,0:0:0:0:
256,192,189765,1,0,0:0:0:0:
256,192,190077,1,8,0:0:0:0:
256,192,190390,1,4,0:0:0:0:
256,192,190701,1,0,0:0:0:0:
256,192,190858,1,0,0:0:0:0:
256,192,191014,1,8,0:0:0:0:
256,192,191327,1,0,0:0:0:0:
256,192,191640,1,8,0:0:0:0:
256,192,191796,1,0,0:0:0:0:
256,192,191952,1,0,0:0:0:0:
256,192,192108,1,8,0:0:0:0:
256,192,192265,1,0,0:0:0:0:
256,192,192577,1,8,0:0:0:0:
256,192,192734,1,0,0:0:0:0:
256,192,193202,1,0,0:0:0:0:
256,192,193358,1,8,0:0:0:0:
256,192,193515,1,0,0:0:0:0:
256,192,193827,1,0,0:0:0:0:
256,192,193983,1,8,0:0:0:0:
256,192,194140,1,8,0:0:0:0:
256,192,194296,1,0,0:0:0:0:
256,192,194452,1,0,0:0:0:0:
256,192,194608,1,0,0:0:0:0:
256,192,194765,1,8,0:0:0:0:
256,192,195077,1,8,0:0:0:0:
256,192,195390,1,0,0:0:0:0:
256,192,195702,1,0,0:0:0:0:
256,192,195859,1,0,0:0:0:0:
256,192,196015,1,8,0:0:0:0:
256,192,196328,1,0,0:0:0:0:
256,192,196641,1,0,0:0:0:0:
256,192,196796,1,8,0:0:0:0:
256,192,196953,1,8,0:0:0:0:
256,192,197108,1,8,0:0:0:0:
256,192,197266,1,0,0:0:0:0:
256,192,197577,1,8,0:0:0:0:
256,192,197733,1,0,0:0:0:0:
256,192,198203,1,0,0:0:0:0:
256,192,198306,1,0,0:0:0:0:
256,192,198410,1,8,0:0:0:0:
256,192,198516,1,0,0:0:0:0:
256,192,198827,1,0,0:0:0:0:
256,192,199141,1,0,0:0:0:0:
256,192,199296,1,0,0:0:0:0:
256,192,199452,1,8,0:0:0:0:
256,192,199608,1,0,0:0:0:0:
256,192,199765,1,8,0:0:0:0:
256,192,200078,1,8,0:0:0:0:
256,192,200390,1,0,0:0:0:0:
256,192,200702,1,0,0:0:0:0:
256,192,200858,1,8,0:0:0:0:
256,192,201015,1,8,0:0:0:0:
256,192,201327,1,0,0:0:0:0:
256,192,201483,1,0,0:0:0:0:
256,192,201640,1,0,0:0:0:0:
256,192,201796,1,0,0:0:0:0:
256,192,201952,1,8,0:0:0:0:
256,192,202265,1,0,0:0:0:0:
256,192,202577,1,8,0:0:0:0:
256,192,202733,1,0,0:0:0:0:
256,192,203202,1,0,0:0:0:0:
256,192,203358,1,0,0:0:0:0:
256,192,203515,1,8,0:0:0:0:
256,192,203827,1,0,0:0:0:0:
256,192,204140,1,0,0:0:0:0:
256,192,204296,1,8,0:0:0:0:
256,192,204452,1,0,0:0:0:0:
256,192,204608,1,8,0:0:0:0:
256,192,204765,1,8,0:0:0:0:
256,192,205077,1,8,0:0:0:0:
256,192,205390,1,0,0:0:0:0:
256,192,205546,1,8,0:0:0:0:
256,192,205702,1,0,0:0:0:0:
256,192,205858,1,0,0:0:0:0:
256,192,206015,1,8,0:0:0:0:
256,192,206327,1,8,0:0:0:0:
256,192,206483,1,0,0:0:0:0:
256,192,206640,1,0,0:0:0:0:
256,192,206796,1,0,0:0:0:0:
256,192,206952,1,8,0:0:0:0:
256,192,207108,1,8,0:0:0:0:
256,192,207265,1,0,0:0:0:0:
256,192,207577,1,8,0:0:0:0:
256,192,207733,1,0,0:0:0:0:
256,192,207890,1,0,0:0:0:0:
256,192,208046,1,0,0:0:0:0:
256,192,208202,1,8,0:0:0:0:
256,192,208306,1,0,0:0:0:0:
256,192,208410,1,0,0:0:0:0:
256,192,208515,1,8,0:0:0:0:
256,192,208827,1,8,0:0:0:0:
256,192,209140,1,0,0:0:0:0:
256,192,209296,1,0,0:0:0:0:
256,192,209452,1,8,0:0:0:0:
256,192,209608,1,0,0:0:0:0:
256,192,209765,1,0,0:0:0:0:
256,192,210077,1,8,0:0:0:0:
256,192,210390,1,4,0:0:0:0:
256,192,210702,1,0,0:0:0:0:
256,192,210858,1,8,0:0:0:0:
256,192,211015,1,8,0:0:0:0:
256,192,211327,1,0,0:0:0:0:
256,192,211640,1,0,0:0:0:0:
256,192,211952,1,8,0:0:0:0:
256,192,212265,1,0,0:0:0:0:
256,192,212577,1,8,0:0:0:0:
256,192,212733,1,0,0:0:0:0:
256,192,213202,1,0,0:0:0:0:
256,192,213358,1,8,0:0:0:0:
256,192,213515,1,0,0:0:0:0:
256,192,213827,1,0,0:0:0:0:
256,192,214140,1,8,0:0:0:0:
256,192,214296,1,0,0:0:0:0:
256,192,214452,1,8,0:0:0:0:
256,192,214765,1,0,0:0:0:0:
256,192,215077,1,8,0:0:0:0:
256,192,215702,1,0,0:0:0:0:
256,192,215858,1,8,0:0:0:0:
256,192,216015,1,8,0:0:0:0:
256,192,216327,1,0,0:0:0:0:
256,192,216640,1,8,0:0:0:0:
256,192,216952,1,8,0:0:0:0:
256,192,217265,1,0,0:0:0:0:
256,192,217577,1,8,0:0:0:0:
256,192,217733,1,0,0:0:0:0:
256,192,218202,1,8,0:0:0:0:
256,192,218306,1,0,0:0:0:0:
256,192,218410,1,0,0:0:0:0:
256,192,218515,1,0,0:0:0:0:
256,192,218827,1,8,0:0:0:0:
256,192,219140,1,8,0:0:0:0:
256,192,219452,1,0,0:0:0:0:
256,192,219765,1,0,0:0:0:0:
256,192,220077,1,8,0:0:0:0:
256,192,220702,1,0,0:0:0:0:
256,192,220858,1,0,0:0:0:0:
256,192,221015,1,8,0:0:0:0:
256,192,221327,1,0,0:0:0:0:
256,192,221640,1,8,0:0:0:0:
256,192,221796,1,0,0:0:0:0:
256,192,221952,1,8,0:0:0:0:
256,192,222265,1,0,0:0:0:0:
256,192,222577,1,8,0:0:0:0:
256,192,222733,1,0,0:0:0:0:
256,192,223202,1,0,0:0:0:0:
256,192,223358,1,8,0:0:0:0:
256,192,223515,1,0,0:0:0:0:
256,192,223827,1,0,0:0:0:0:
256,192,224140,1,8,0:0:0:0:
256,192,224296,1,0,0:0:0:0:
256,192,224452,1,8,0:0:0:0:
256,192,224765,1,0,0:0:0:0:
256,192,225077,1,8,0:0:0:0:
256,192,225702,1,0,0:0:0:0:
256,192,225858,1,0,0:0:0:0:
256,192,226015,1,8,0:0:0:0:
256,192,226327,1,0,0:0:0:0:
256,192,226640,1,8,0:0:0:0:
256,192,226796,1,0,0:0:0:0:
256,192,226952,1,8,0:0:0:0:
256,192,227265,1,8,0:0:0:0:
256,192,227577,1,0,0:0:0:0:
256,192,227890,1,0,0:0:0:0:
256,192,228046,1,8,0:0:0:0:
256,192,228202,1,0,0:0:0:0:
256,192,228306,1,0,0:0:0:0:
256,192,228410,1,0,0:0:0:0:
256,192,228515,1,8,0:0:0:0:
256,192,228827,1,8,0:0:0:0:
256,192,229140,1,0,0:0:0:0:
256,192,229296,1,8,0:0:0:0:
256,192,229452,1,0,0:0:0:0:
256,192,229608,1,0,0:0:0:0:
256,192,229765,1,8,0:0:0:0:
256,192,230077,1,8,0:0:0:0:
256,192,230390,1,0,0:0:0:0:
256,192,230702,1,0,0:0:0:0:
256,192,230858,1,8,0:0:0:0:
256,192,231015,1,8,0:0:0:0:
256,192,231327,1,0,0:0:0:0:
256,192,231640,1,8,0:0:0:0:
256,192,231952,1,8,0:0:0:0:
256,192,232265,1,0,0:0:0:0:
256,192,232577,1,8,0:0:0:0:
256,192,232733,1,0,0:0:0:0:
256,192,233515,1,8,0:0:0:0:
252,196,233983,1,0,0:0:0:0:
256,192,234452,1,0,0:0:0:0:
252,196,234765,1,8,0:0:0:0:
252,196,235390,1,0,0:0:0:0:
252,196,235702,1,8,0:0:0:0:
252,196,235858,1,0,0:0:0:0:
252,196,236015,1,8,0:0:0:0:
252,196,236327,1,0,0:0:0:0:
252,196,236640,1,8,0:0:0:0:
252,196,236952,1,8,0:0:0:0:
252,196,237265,1,0,0:0:0:0:
252,196,237890,1,0,0:0:0:0:
252,196,238515,1,8,0:0:0:0:
252,196,238983,1,0,0:0:0:0:
252,196,239452,1,0,0:0:0:0:
252,196,239765,1,8,0:0:0:0:
252,196,240390,1,0,0:0:0:0:
252,196,240702,1,0,0:0:0:0:
252,196,240858,1,8,0:0:0:0:
252,196,241015,1,8,0:0:0:0:
252,196,241327,1,0,0:0:0:0:
252,196,241640,1,8,0:0:0:0:
252,196,241952,1,8,0:0:0:0:
252,196,242265,1,0,0:0:0:0:
252,196,242890,1,0,0:0:0:0:
252,196,243515,1,8,0:0:0:0:
252,196,243983,1,0,0:0:0:0:
252,196,244452,1,0,0:0:0:0:
252,196,244765,1,8,0:0:0:0:
252,196,245390,1,0,0:0:0:0:
252,196,245702,1,8,0:0:0:0:
252,196,245858,1,8,0:0:0:0:
252,196,246015,1,8,0:0:0:0:
252,196,246483,1,0,0:0:0:0:
252,196,246796,1,0,0:0:0:0:
252,196,246952,1,0,0:0:0:0:
252,196,247265,1,8,0:0:0:0:
252,196,247890,1,0,0:0:0:0:
252,196,248515,1,8,0:0:0:0:
252,196,248983,1,0,0:0:0:0:
252,196,249452,1,0,0:0:0:0:
252,196,249765,1,8,0:0:0:0:
252,196,250390,1,0,0:0:0:0:
252,196,251015,1,8,0:0:0:0:
252,192,251483,1,0,0:0:0:0:
252,192,251952,1,0,0:0:0:0:
252,192,252265,1,8,0:0:0:0:
252,192,252890,1,0,0:0:0:0:
252,192,253515,1,8,0:0:0:0:
252,192,253827,1,0,0:0:0:0:
