osu file format v14

[General]
AudioFilename: audio.mp3
AudioLeadIn: 0
PreviewTime: 210400
Countdown: 0
SampleSet: Soft
StackLeniency: 0.5
Mode: 0
LetterboxInBreaks: 0
WidescreenStoryboard: 0

[Editor]
Bookmarks: 100405,110405,130405,130561,131030,131186,131498,131655,131811,131967,132123,132280,132436,132592,132905,133061,133373,133530,133686,133842,133998,134155,134311,134467,134780,135092,135248,150405,157905
DistanceSpacing: 1.6
BeatDivisor: 4
GridSize: 4
TimelineZoom: 1.9

[Metadata]
Title:Grim
TitleUnicode:Grim
Artist:Raujika
ArtistUnicode:Raujika
Creator:Fall
Version:Collab Hard
Source:
Tags:Palette Sounds Lost Imagination Sounds of color vol.2 _tranquility Beomsan Chinochan collab collaboration english instrumental electronic chill
BeatmapID:2382334
BeatmapSetID:1140557

[Difficulty]
HPDrainRate:5
CircleSize:4
OverallDifficulty:6
ApproachRate:7.7
SliderMultiplier:2.6
SliderTickRate:1

[Events]
//Background and Video events
0,0,"map bg.jpg",0,0
//Break Periods
2,150599,157105
//Storyboard Layer 0 (Background)
//Storyboard Layer 1 (Fail)
//Storyboard Layer 2 (Pass)
//Storyboard Layer 3 (Foreground)
//Storyboard Layer 4 (Overlay)
//Storyboard Sound Samples

[TimingPoints]
400,625,4,2,1,60,1,0
30400,-133.333333333333,4,2,1,60,0,0
40400,-117.647058823529,4,2,1,80,0,1
60400,-200,4,2,1,40,0,0
60868,-200,4,2,1,23,0,0
61025,-133.333333333333,4,2,1,60,0,0
80400,-117.647058823529,4,2,1,80,0,1
100400,-117.647058823529,4,2,1,80,0,0
101025,-133.333333333333,4,2,1,60,0,0
117900,-133.333333333333,4,2,1,30,0,0
119462,-133.333333333333,4,2,1,60,0,0
124696,-133.333333333333,4,2,1,5,0,0
124775,-133.333333333333,4,2,1,60,0,0
157900,-200,4,2,1,60,0,0
159775,-166.666666666667,4,2,1,60,0,0
160400,-133.333333333333,4,2,1,60,0,0
170400,-117.647058823529,4,2,1,80,0,1
210400,-117.647058823529,4,2,1,80,0,0
249150,-117.647058823529,4,2,1,60,0,0
250400,-117.647058823529,4,2,1,60,0,0
253837,-117.647058823529,4,2,2,80,0,0

[Colours]
Combo1 : 180,104,255
Combo2 : 128,128,192
Combo3 : 0,128,192

[HitObjects]
13,185,30400,5,2,3:2:0:0:
112,58,30712,1,0,3:0:0:0:
263,113,31025,1,8,0:0:0:0:
257,274,31337,2,0,L|209:265,1,48.750001859665,0|0,0:0|3:0,0:0:0:0:
130,291,31650,6,0,L|82:299,2,48.750001859665,0|0|0,0:0|0:0|3:0,0:0:0:0:
177,132,32275,2,0,P|222:113|270:128,1,97.50000371933,8|0,0:0|0:0,0:0:0:0:
326,183,32743,1,8,0:0:0:0:
388,238,32900,6,0,P|434:250|478:231,1,97.50000371933,2|0,3:2|3:0,0:0:0:0:
432,72,33525,2,0,L|332:81,1,97.50000371933,8|0,0:0|0:0,0:0:0:0:
266,125,33993,1,0,3:0:0:0:
186,98,34150,6,0,P|178:77|176:48,2,48.750001859665,0|0|0,0:0|0:0|3:0,0:0:0:0:
204,263,34775,2,0,P|205:312|177:355,1,97.50000371933,8|0,0:0|0:0,0:0:0:0:
126,289,35243,1,8,0:0:0:0:
141,207,35400,6,0,B|155:161|155:161|131:118,2,97.50000371933,2|0|8,3:2|3:0|0:0,0:0:0:0:
296,263,36337,2,0,L|343:254,1,48.750001859665,0|0,0:0|3:0,0:0:0:0:
423,280,36650,6,0,L|470:288,2,48.750001859665,0|0|0,0:0|0:0|3:0,0:0:0:0:
396,116,37275,2,0,P|376:72|384:21,1,97.50000371933,8|0,0:0|0:0,0:0:0:0:
457,60,37743,1,8,0:0:0:0:
478,140,37900,6,0,P|451:183|406:203,1,97.50000371933,2|0,3:2|3:0,0:0:0:0:
331,176,38368,1,0,0:0:0:0:
272,117,38525,2,0,L|279:61,2,48.750001859665,8|0|0,0:0|0:0|0:0,0:0:0:0:
331,176,38993,1,0,3:0:0:0:
284,244,39150,6,0,B|242:221|242:221|195:234,1,97.50000371933,4|0,0:0|3:0,0:0:0:0:
229,308,39618,1,0,0:0:0:0:
310,325,39775,2,0,B|334:314|334:314|351:293,1,48.750001859665,2|2,0:0|0:0,0:0:0:0:
421,258,40087,2,0,B|435:275|435:275|459:286,1,48.750001859665,2|2,0:0|0:0,0:0:0:0:
350,208,40400,6,0,L|372:92,1,110.50000210762,6|2,3:2|3:2,0:0:0:0:
312,33,40868,1,2,0:2:0:0:
228,62,41025,2,0,P|174:66|126:31,1,110.50000210762,10|2,0:2|0:0,0:0:0:0:
74,203,41650,6,0,P|118:172|172:176,1,110.50000210762,2|2,0:2|3:2,0:0:0:0:
223,249,42118,1,0,0:0:0:0:
174,323,42275,2,0,P|152:303|139:275,2,55.2500010538101,10|0|2,0:2|0:0|0:2,0:0:0:0:
261,330,42743,1,10,0:2:0:0:
306,253,42900,6,0,P|358:240|405:269,1,110.50000210762,2|2,3:2|3:2,0:0:0:0:
457,197,43368,1,2,0:2:0:0:
445,108,43525,2,0,L|425:54,2,55.2500010538101,10|0|2,0:2|0:0|0:0,0:0:0:0:
356,104,43993,1,0,3:0:0:0:
268,93,44150,6,0,L|248:39,2,55.2500010538101,2|0|2,0:0|0:0|3:2,0:0:0:0:
197,255,44775,2,0,P|173:206|182:149,1,110.50000210762,10|2,0:2|0:0,0:0:0:0:
259,192,45243,1,8,0:0:0:0:
285,276,45400,6,0,P|253:326|207:347,1,110.50000210762,2|2,3:2|3:2,0:0:0:0:
132,301,45868,1,2,0:2:0:0:
53,342,46025,2,0,B|33:289|33:289|42:231,1,110.50000210762,10|2,0:2|0:0,0:0:0:0:
141,89,46650,6,0,B|161:142|161:142|152:200,1,110.50000210762,2|2,0:2|3:2,0:0:0:0:
74,153,47118,1,0,0:0:0:0:
57,65,47275,2,0,P|70:39|89:22,2,55.2500010538101,10|0|2,0:2|0:0|0:2,0:0:0:0:
74,153,47743,1,10,0:2:0:0:
152,195,47900,6,0,L|208:186,1,55.2500010538101,2|0,3:2|0:0,0:0:0:0:
290,213,48212,2,0,L|344:221,1,55.2500010538101,2|2,3:2|0:2,0:0:0:0:
425,185,48525,2,0,P|439:162|447:132,2,55.2500010538101,10|0|2,0:2|0:0|0:0,0:0:0:0:
388,358,49150,6,0,L|381:298,1,55.2500010538101,2|0,0:0|0:0,0:0:0:0:
344,221,49462,2,0,L|290:213,1,55.2500010538101,2|0,3:2|0:0,0:0:0:0:
202,228,49775,2,0,P|174:273|180:334,1,110.50000210762,10|2,0:2|0:0,0:0:0:0:
259,296,50243,1,8,0:0:0:0:
290,213,50400,6,0,L|276:95,1,110.50000210762,2|2,3:2|3:2,0:0:0:0:
331,33,50868,1,2,0:2:0:0:
400,88,51025,2,0,L|414:206,1,110.50000210762,10|2,0:2|0:0,0:0:0:0:
262,291,51650,6,0,P|211:274|160:295,1,110.50000210762,2|2,0:2|3:2,0:0:0:0:
103,361,52118,1,0,0:0:0:0:
81,274,52275,2,0,P|92:249|112:228,2,55.2500010538101,10|0|2,0:2|0:0|0:2,0:0:0:0:
103,361,52743,1,10,0:2:0:0:
191,363,52900,6,0,L|302:349,1,110.50000210762,2|2,3:2|3:2,0:0:0:0:
351,276,53368,1,2,0:2:0:0:
340,187,53525,2,0,L|323:131,2,55.2500010538101,10|0|2,0:2|0:0|0:0,0:0:0:0:
351,276,53993,1,0,3:0:0:0:
419,219,54150,6,0,L|475:202,2,55.2500010538101,2|0|2,0:0|0:0|3:2,0:0:0:0:
241,223,54775,2,0,B|192:198|192:198|139:226,1,110.50000210762,10|2,0:2|0:0,0:0:0:0:
65,267,55243,1,8,0:0:0:0:
67,178,55400,6,0,L|164:124,1,110.50000210762,2|2,3:2|3:2,0:0:0:0:
211,49,55868,1,2,0:2:0:0:
299,47,56025,2,0,L|310:106,2,55.2500010538101,10|0|2,0:2|0:0|0:0,0:0:0:0:
211,49,56493,1,0,3:0:0:0:
163,124,56650,6,0,L|152:183,2,55.2500010538101,2|0|2,0:2|0:0|3:2,0:0:0:0:
91,71,57118,1,0,0:0:0:0:
27,133,57275,2,0,L|38:192,1,55.2500010538101,10|0,0:2|0:0,0:0:0:0:
96,252,57587,2,0,P|127:255|151:267,1,55.2500010538101,2|10,0:2|0:2,0:0:0:0:
215,323,57900,6,0,P|246:320|270:308,2,55.2500010538101,2|2|2,3:2|0:0|3:2,0:0:0:0:
148,265,58368,1,2,0:2:0:0:
220,213,58525,2,0,B|274:202|274:202|323:229,1,110.50000210762,10|2,0:2|0:0,0:0:0:0:
424,373,59150,6,0,B|438:348|438:348|443:314,2,55.2500010538101,2|2|2,0:0|0:0|3:2,0:0:0:0:
359,312,59618,1,2,0:0:0:0:
408,238,59775,2,0,P|463:231|510:262,1,110.50000210762,10|2,0:2|0:0,0:0:0:0:
322,228,60400,6,0,L|347:97,1,130,2|8,0:0|0:0,0:0:0:0:
360,23,61181,5,0,0:0:0:0:
421,71,61337,2,0,B|424:96|424:96|437:116,1,48.750001859665,2|2,0:2|3:2,0:0:0:0:
458,191,61650,6,0,L|406:197,2,48.750001859665,2|2|2,0:2|0:2|3:2,0:0:0:0:
482,264,62118,1,2,0:0:0:0:
498,340,62275,2,0,L|396:353,1,97.50000371933,8|2,0:0|0:0,0:0:0:0:
330,320,62743,1,10,0:0:0:0:
330,320,62900,6,0,L|223:307,1,97.50000371933,2|2,3:2|3:2,0:0:0:0:
171,364,63368,1,2,0:2:0:0:
94,330,63525,2,0,P|68:292|66:239,1,97.50000371933,10|0,0:2|0:0,0:0:0:0:
91,163,63993,1,0,3:0:0:0:
152,106,64150,6,0,L|200:110,2,48.750001859665,2|2|2,0:2|0:2|3:2,0:0:0:0:
91,163,64618,1,0,0:0:0:0:
73,81,64775,2,0,P|96:46|146:24,1,97.50000371933,10|2,0:2|0:0,0:0:0:0:
228,29,65243,1,8,0:0:0:0:
299,70,65400,6,0,B|323:64|323:64|348:48,1,48.750001859665,2|2,3:2|0:0,0:0:0:0:
419,83,65712,2,0,B|443:89|443:89|468:105,1,48.750001859665,2|2,3:2|0:0,0:0:0:0:
408,164,66025,2,0,B|420:261|420:260,1,97.50000371933,8|2,0:0|0:2,0:0:0:0:
362,319,66493,1,2,3:2:0:0:
282,293,66650,6,0,P|256:299|236:312,2,48.750001859665,2|2|2,0:2|0:2|3:2,0:0:0:0:
362,319,67118,1,2,0:0:0:0:
345,237,67275,2,0,L|264:180,1,97.50000371933,8|2,0:0|0:0,0:0:0:0:
189,214,67743,1,10,0:0:0:0:
189,214,67900,6,0,B|179:236|179:236|179:260,2,48.750001859665,2|2|2,3:2|0:2|3:2,0:0:0:0:
265,180,68368,1,2,0:2:0:0:
256,97,68525,2,0,B|210:114|210:114|161:97,1,97.50000371933,10|0,0:2|0:0,0:0:0:0:
208,28,68993,1,0,3:0:0:0:
290,13,69150,6,0,P|313:27|329:46,1,48.750001859665,2|2,0:2|0:2,0:0:0:0:
358,120,69462,2,0,L|407:106,1,48.750001859665,2|0,3:2|0:0,0:0:0:0:
483,80,69775,1,10,0:2:0:0:
483,80,70087,5,2,0:0:0:0:
472,162,70243,1,10,0:0:0:0:
465,245,70400,6,0,L|485:298,2,48.750001859665,2|2|2,3:2|0:0|3:2,0:0:0:0:
383,233,70868,1,2,0:0:0:0:
321,288,71025,2,0,L|216:271,1,97.50000371933,8|2,0:0|0:2,0:0:0:0:
148,303,71493,1,2,3:2:0:0:
89,244,71650,6,0,L|87:192,2,48.750001859665,2|2|2,0:2|0:2|3:2,0:0:0:0:
148,303,72118,1,2,0:0:0:0:
224,272,72275,2,0,L|217:170,1,97.50000371933,8|2,0:0|0:0,0:0:0:0:
285,128,72743,1,10,0:0:0:0:
285,128,72900,6,0,B|309:125|309:125|332:132,2,48.750001859665,2|2|2,3:2|0:2|3:2,0:0:0:0:
298,209,73368,1,2,0:2:0:0:
380,198,73525,2,0,P|408:157|406:107,1,97.50000371933,10|0,0:2|0:0,0:0:0:0:
354,47,73993,1,0,3:0:0:0:
435,32,74150,6,0,L|477:61,2,48.750001859665,2|2|2,0:2|0:2|3:2,0:0:0:0:
354,47,74618,1,0,0:0:0:0:
282,89,74775,2,0,B|240:65|240:65|192:89,1,97.50000371933,10|2,0:2|0:0,0:0:0:0:
161,162,75243,1,8,0:0:0:0:
173,244,75400,6,0,L|163:292,2,48.750001859665,2|2|2,3:2|0:0|3:2,0:0:0:0:
161,162,75868,1,2,0:0:0:0:
97,215,76025,2,0,B|84:286|84:286|92:327,1,97.50000371933,8|2,0:0|0:2,0:0:0:0:
145,371,76493,1,2,3:2:0:0:
145,371,76650,6,0,B|170:374|170:374|194:364,2,48.750001859665,2|2|2,0:2|0:2|3:2,0:0:0:0:
88,310,77118,1,2,0:0:0:0:
160,268,77275,2,0,L|256:278,1,97.50000371933,8|2,0:0|0:0,0:0:0:0:
329,317,77743,1,10,0:0:0:0:
385,256,77900,6,0,L|377:200,1,48.750001859665,2|2,3:2|0:2,0:0:0:0:
459,194,78212,2,0,L|467:250,1,48.750001859665,2|2,3:2|0:2,0:0:0:0:
440,321,78525,1,10,0:2:0:0:
256,278,78837,2,0,L|262:229,1,48.750001859665,0|0,0:0|3:0,0:0:0:0:
308,159,79150,6,0,L|301:110,2,48.750001859665,2|2|2,0:2|0:2|3:2,0:0:0:0:
113,64,79775,6,0,L|121:120,1,48.750001859665,10|0,0:2|0:0,0:0:0:0:
85,187,80087,1,2,0:0:0:0:
85,187,80243,1,10,0:0:0:0:
169,181,80400,6,0,B|218:205|218:205|243:255,1,110.50000210762,6|2,3:2|3:2,0:0:0:0:
190,325,80868,1,2,0:2:0:0:
258,381,81025,2,0,P|302:349|357:357,1,110.50000210762,10|2,0:2|0:0,0:0:0:0:
468,220,81650,6,0,P|414:226|370:194,1,110.50000210762,2|2,0:2|3:2,0:0:0:0:
284,177,82118,1,0,0:0:0:0:
261,91,82275,2,0,L|269:29,1,55.2500010538101,10|0,0:2|0:0,0:0:0:0:
353,58,82587,2,0,L|345:120,1,55.2500010538101,2|10,0:2|0:2,0:0:0:0:
284,177,82900,6,0,P|230:178|190:216,1,110.50000210762,2|2,3:2|3:2,0:0:0:0:
163,298,83368,1,2,0:2:0:0:
205,375,83525,2,0,L|263:381,2,55.2500010538101,10|0|2,0:2|0:0|0:0,0:0:0:0:
163,298,83993,1,0,3:0:0:0:
85,253,84150,6,0,B|56:254|56:254|30:269,2,55.2500010538101,2|2|2,0:0|0:0|3:2,0:0:0:0:
22,87,84775,2,0,B|73:108|73:108|129:88,1,110.50000210762,10|2,0:2|0:0,0:0:0:0:
201,45,85243,1,8,0:0:0:0:
276,91,85400,6,0,L|285:201,1,110.50000210762,2|2,3:2|3:2,0:0:0:0:
355,254,85868,1,2,0:2:0:0:
417,190,86025,2,0,P|471:191|514:229,1,110.50000210762,10|2,0:2|0:0,0:0:0:0:
379,342,86650,6,0,P|325:341|282:303,1,110.50000210762,2|2,0:2|3:2,0:0:0:0:
260,220,87118,1,0,0:0:0:0:
269,131,87275,2,0,L|285:79,2,55.2500010538101,10|0|2,0:2|0:0|0:2,0:0:0:0:
260,220,87743,1,10,0:2:0:0:
187,269,87900,6,0,B|132:266|132:266|87:306,1,110.50000210762,2|2,3:2|3:2,0:0:0:0:
160,356,88368,1,2,0:2:0:0:
75,383,88525,2,0,P|28:355|15:297,1,110.50000210762,10|2,0:2|0:0,0:0:0:0:
84,141,89150,6,0,B|60:128|60:128|30:130,2,55.2500010538101,2|0|2,0:0|0:0|3:2,0:0:0:0:
164,105,89618,1,0,0:0:0:0:
164,105,89775,2,0,P|218:113|264:84,1,110.50000210762,10|2,0:2|0:0,0:0:0:0:
306,7,90243,1,8,0:0:0:0:
379,56,90400,6,0,L|392:165,1,110.50000210762,2|2,3:2|3:2,0:0:0:0:
459,222,90868,1,2,0:2:0:0:
417,300,91025,2,0,P|369:278|312:291,1,110.50000210762,10|2,0:2|0:0,0:0:0:0:
142,332,91650,6,0,P|190:354|247:341,1,110.50000210762,2|2,0:2|3:2,0:0:0:0:
314,289,92118,1,0,0:0:0:0:
302,200,92275,2,0,L|292:143,1,55.2500010538101,10|0,0:2|0:0,0:0:0:0:
327,64,92587,2,0,P|350:78|379:83,1,55.2500010538101,2|10,0:2|0:2,0:0:0:0:
240,73,92900,6,0,P|186:72|141:103,1,110.50000210762,2|2,3:2|3:2,0:0:0:0:
110,186,93368,1,2,0:2:0:0:
118,274,93525,2,0,L|129:330,2,55.2500010538101,10|0|2,0:2|0:0|0:0,0:0:0:0:
110,186,93993,1,0,3:0:0:0:
58,113,94150,6,0,B|29:115|29:115|9:131,2,55.2500010538101,2|2|2,0:0|0:0|3:2,0:0:0:0:
213,198,94775,2,0,B|265:218|265:218|315:190,1,110.50000210762,10|2,0:2|0:0,0:0:0:0:
395,223,95243,1,8,0:0:0:0:
444,148,95400,6,0,L|422:40,1,110.50000210762,2|2,3:2|3:2,0:0:0:0:
333,46,95868,1,2,0:2:0:0:
333,46,96025,2,0,B|307:43|307:43|280:24,2,55.2500010538101,10|0|2,0:2|0:0|0:0,0:0:0:0:
421,39,96493,1,0,3:0:0:0:
384,119,96650,6,0,B|343:157|343:157|289:167,1,110.50000210762,2|2,0:2|3:2,0:0:0:0:
211,125,97118,1,0,0:0:0:0:
147,187,97275,2,0,L|143:243,2,55.2500010538101,10|0|2,0:2|0:0|0:2,0:0:0:0:
211,125,97743,1,10,0:2:0:0:
126,98,97900,6,0,L|72:108,1,55.2500010538101,2|2,3:2|0:0,0:0:0:0:
92,197,98212,2,0,L|146:187,1,55.2500010538101,2|2,3:2|0:2,0:0:0:0:
211,125,98525,2,0,P|210:69|176:22,2,110.50000210762,10|2|2,0:2|0:0|0:0,0:0:0:0:
255,201,99306,5,2,0:0:0:0:
338,229,99462,2,0,L|398:217,1,55.2500010538101,2|2,3:2|0:0,0:0:0:0:
436,295,99775,2,0,L|323:316,1,110.50000210762,10|2,0:2|0:0,0:0:0:0:
253,363,100243,1,8,0:0:0:0:
175,319,100400,6,0,L|169:251,1,55.2500010538101,2|2,3:2|0:0,0:0:0:0:
101,208,100712,2,0,L|107:140,1,55.2500010538101,2|2,3:2|0:0,0:0:0:0:
153,90,101025,2,0,B|239:84|208:142|316:137,1,146.250005578995,8|2,0:0|3:2,0:0:0:0:
352,92,101650,6,0,L|403:87,1,48.750001859665,2|2,0:2|0:2,0:0:0:0:
480,74,101962,1,2,3:2:0:0:
480,74,102118,1,2,0:0:0:0:
456,148,102275,2,0,P|451:201|459:220,1,48.750001859665,8|0,0:0|0:0,0:0:0:0:
406,258,102587,2,0,P|411:311|403:330,1,48.750001859665,2|10,0:0|0:0,0:0:0:0:
355,360,102900,5,2,3:2:0:0:
248,246,103212,2,0,L|199:249,1,48.750001859665,2|2,3:2|0:2,0:0:0:0:
121,257,103525,2,0,P|135:178|109:109,1,146.250005578995,10|0,0:2|3:0,0:0:0:0:
51,70,104150,6,0,P|37:110|44:136,1,48.750001859665,2|2,0:2|0:2,0:0:0:0:
2,185,104462,2,0,P|16:210|16:232,2,48.750001859665,2|0|10,3:2|0:0|0:2,0:0:0:0:
61,329,105087,1,2,0:0:0:0:
184,232,105400,6,0,L|247:227,1,48.750001859665,2|2,3:2|0:0,0:0:0:0:
287,173,105712,2,0,L|350:178,1,48.750001859665,2|2,3:2|0:0,0:0:0:0:
397,224,106025,2,0,P|372:169|416:84,1,146.250005578995,8|2,0:0|3:2,0:0:0:0:
466,47,106650,6,0,P|448:31|411:20,1,48.750001859665,2|2,0:2|0:2,0:0:0:0:
348,35,106962,1,2,3:2:0:0:
348,35,107118,1,2,0:0:0:0:
275,6,107275,1,8,0:0:0:0:
143,89,107587,2,0,L|150:145,1,48.750001859665,2|10,0:0|0:0,0:0:0:0:
101,199,107900,6,0,L|97:255,2,48.750001859665,2|2|2,3:2|0:2|3:2,0:0:0:0:
36,154,108368,1,2,0:2:0:0:
36,154,108525,1,10,0:2:0:0:
50,309,108837,2,0,P|93:324|120:323,1,48.750001859665,0|0,0:0|3:0,0:0:0:0:
166,291,109150,6,0,B|213:275|213:275|285:279,1,97.50000371933,2|2,0:2|3:2,0:0:0:0:
322,229,109618,1,0,0:0:0:0:
260,178,109775,2,0,P|255:129|282:85,1,97.50000371933,10|2,0:2|0:0,0:0:0:0:
312,18,110243,1,10,0:0:0:0:
388,52,110400,6,0,L|406:109,1,48.750001859665,2|2,3:2|0:0,0:0:0:0:
392,175,110712,2,0,P|375:194|363:216,1,48.750001859665,2|2,3:2|0:0,0:0:0:0:
346,290,111025,2,0,L|246:281,1,97.50000371933,8|2,0:0|0:2,0:0:0:0:
202,218,111493,1,2,3:2:0:0:
150,152,111650,6,0,L|52:143,1,97.50000371933,2|2,0:2|3:2,0:0:0:0:
146,280,112275,2,0,P|131:259|123:231,2,48.750001859665,8|0|2,0:0|0:0|0:0,0:0:0:0:
202,218,112743,1,10,0:0:0:0:
285,212,112900,6,0,P|274:166|232:142,1,97.50000371933,2|2,3:2|3:2,0:0:0:0:
358,33,113525,2,0,L|363:144,1,97.50000371933,10|0,0:2|0:0,0:0:0:0:
423,186,113993,1,0,3:0:0:0:
480,246,114150,6,0,P|494:269|502:291,2,48.750001859665,2|2|2,0:2|0:2|3:2,0:0:0:0:
321,295,114775,2,0,L|216:298,1,97.50000371933,10|2,0:2|0:0,0:0:0:0:
140,303,115243,1,10,0:0:0:0:
179,229,115400,6,0,P|177:202|167:182,1,48.750001859665,2|2,3:2|0:0,0:0:0:0:
119,115,115712,2,0,P|120:88|130:68,1,48.750001859665,2|2,3:2|0:0,0:0:0:0:
197,19,116025,2,0,L|295:36,1,97.50000371933,8|2,0:0|0:2,0:0:0:0:
374,52,116493,1,2,3:2:0:0:
318,114,116650,6,0,L|335:212,1,97.50000371933,2|2,0:2|3:2,0:0:0:0:
469,306,117275,2,0,P|486:332|491:354,2,48.750001859665,8|0|2,0:0|0:0|0:0,0:0:0:0:
389,282,117743,1,10,0:0:0:0:
335,345,117900,6,0,L|228:357,1,97.50000371933,2|2,3:2|3:2,0:0:0:0:
156,368,118368,1,2,0:2:0:0:
188,291,118525,2,0,L|207:242,2,48.750001859665,10|0|0,0:2|0:0|0:0,0:0:0:0:
105,298,118993,1,0,3:0:0:0:
21,300,119150,6,0,L|2:251,1,48.750001859665,2|2,0:2|0:2,0:0:0:0:
80,223,119462,2,0,B|95:176|95:176|64:138,1,97.50000371933,2|10,3:2|0:2,0:0:0:0:
2,83,119931,1,0,0:0:0:0:
80,56,120087,2,0,L|128:48,1,48.750001859665,2|10,0:0|0:0,0:0:0:0:
194,99,120400,6,0,P|212:112|241:119,2,48.750001859665,2|2|2,3:2|0:2|3:2,0:0:0:0:
217,19,120868,1,2,0:2:0:0:
290,58,121025,2,0,P|338:67|381:43,1,97.50000371933,10|2,0:2|0:2,0:0:0:0:
461,42,121493,1,2,3:2:0:0:
424,116,121650,6,0,L|417:164,1,48.750001859665,2|2,0:2|0:2,0:0:0:0:
350,212,121962,2,0,L|356:260,1,48.750001859665,2|2,3:2|0:2,0:0:0:0:
372,342,122275,2,0,L|272:360,1,97.50000371933,10|2,0:2|0:0,0:0:0:0:
193,367,122743,1,8,0:0:0:0:
228,291,122900,6,0,B|211:272|211:272|202:242,2,48.750001859665,2|2|2,3:2|0:2|3:2,0:0:0:0:
274,222,123368,1,2,0:2:0:0:
239,146,123525,2,0,L|235:88,1,48.750001859665,10|2,0:2|0:0,0:0:0:0:
152,97,123837,2,0,L|148:145,1,48.750001859665,2|2,0:2|3:2,0:0:0:0:
132,227,124150,6,0,P|107:226|85:216,1,48.750001859665,2|2,0:2|0:2,0:0:0:0:
5,236,124462,2,0,P|0:188|28:151,1,97.50000371933,2|10,3:2|0:2,0:0:0:0:
68,77,124931,2,0,L|49:30,2,48.750001859665,2|2|10,0:0|0:0|0:0,0:0:0:0:
152,97,125400,6,0,L|253:80,1,97.50000371933,2|2,3:2|3:2,0:0:0:0:
329,68,125868,1,2,0:2:0:0:
303,147,126025,2,0,B|302:173|302:173|312:197,1,48.750001859665,10|0,0:2|0:0,0:0:0:0:
366,254,126337,2,0,B|367:280|367:280|357:304,1,48.750001859665,2|2,0:2|3:2,0:0:0:0:
288,345,126650,6,0,L|240:335,2,48.750001859665,2|2|2,0:2|0:2|3:2,0:0:0:0:
362,379,127118,1,2,0:2:0:0:
435,339,127275,2,0,L|451:243,1,97.50000371933,10|2,0:2|0:0,0:0:0:0:
437,161,127743,1,8,0:0:0:0:
437,161,127900,6,0,L|433:110,2,48.750001859665,2|2|2,3:2|0:2|3:2,0:0:0:0:
376,217,128368,1,2,0:2:0:0:
323,151,128525,2,0,L|319:100,1,48.750001859665,10|2,0:2|0:0,0:0:0:0:
327,20,128837,2,0,P|302:22|276:34,1,48.750001859665,2|2,0:2|3:2,0:0:0:0:
232,100,129150,6,0,B|209:106|209:106|178:103,2,48.750001859665,2|2|2,0:2|0:2|3:2,0:0:0:0:
196,25,129618,1,2,0:2:0:0:
118,54,129775,2,0,L|68:50,2,48.750001859665,10|0|0,0:2|0:0|0:0,0:0:0:0:
112,136,130243,1,8,0:0:0:0:
178,185,130400,5,0,3:0:0:0:
178,185,130556,2,0,L|200:287,1,97.50000371933,2|0,0:0|0:0,0:0:0:0:
250,345,131025,1,2,3:2:0:0:
250,345,131181,2,0,L|148:367,1,97.50000371933,2|2,0:0|3:2,0:0:0:0:
94,315,131650,5,2,3:2:0:0:
94,315,131806,2,0,P|76:300|51:292,2,48.750001859665,2|0|0,0:0|3:2|0:0,0:0:0:0:
168,278,132275,2,0,L|155:230,1,48.750001859665,8|2,0:2|0:0,0:0:0:0:
126,153,132587,1,0,0:0:0:0:
275,127,132900,5,2,3:2:0:0:
275,127,133056,2,0,P|314:98|361:95,1,97.50000371933,2|2,0:0|3:2,0:0:0:0:
431,130,133525,2,0,L|482:118,2,48.750001859665,10|2|2,0:2|0:2|0:2,0:0:0:0:
392,197,133993,1,2,3:2:0:0:
353,265,134150,6,0,L|302:277,2,48.750001859665,2|2|2,0:2|3:2|3:2,0:0:0:0:
416,309,134618,1,0,0:0:0:0:
349,350,134775,2,0,L|298:362,1,48.750001859665,10|0,0:0|0:0,0:0:0:0:
236,318,135087,1,2,0:0:0:0:
174,366,135243,1,2,0:0:0:0:
114,315,135400,6,0,L|124:260,2,48.750001859665,2|2|2,3:2|0:2|3:2,0:0:0:0:
174,366,135868,1,2,0:2:0:0:
236,318,136025,2,0,L|231:215,1,97.50000371933,10|2,0:2|0:2,0:0:0:0:
226,142,136493,1,2,3:2:0:0:
164,92,136650,6,0,B|138:92|138:92|113:106,2,48.750001859665,2|2|2,0:2|0:2|3:2,0:0:0:0:
226,142,137118,1,2,0:2:0:0:
301,120,137275,2,0,B|350:124|350:124|386:90,1,97.50000371933,10|2,0:2|0:0,0:0:0:0:
323,45,137743,1,8,0:0:0:0:
301,120,137900,6,0,B|308:175|308:173,1,48.750001859665,2|2,3:2|0:2,0:0:0:0:
302,246,138212,2,0,B|309:301|309:299,1,48.750001859665,2|2,3:2|0:2,0:0:0:0:
373,337,138525,2,0,B|396:331|396:331|414:314,2,48.750001859665,10|2|2,0:2|0:0|0:2,0:0:0:0:
308,294,138993,1,2,3:2:0:0:
237,329,139150,6,0,L|187:323,1,48.750001859665,2|2,0:2|0:2,0:0:0:0:
114,285,139462,2,0,L|65:279,1,48.750001859665,2|2,3:2|0:2,0:0:0:0:
16,211,139775,2,0,L|22:161,2,48.750001859665,10|2|2,0:2|0:0|0:0,0:0:0:0:
98,203,140243,1,10,0:0:0:0:
180,192,140400,6,0,L|169:96,1,97.50000371933,2|2,3:2|3:2,0:0:0:0:
157,13,140868,1,2,0:0:0:0:
235,41,141025,2,0,B|279:21|279:21|322:43,1,97.50000371933,8|2,0:0|0:2,0:0:0:0:
381,102,141493,1,2,3:2:0:0:
342,175,141650,6,0,B|386:195|386:195|429:173,1,97.50000371933,2|2,0:2|3:2,0:0:0:0:
274,230,142275,2,0,L|277:278,2,48.750001859665,8|0|2,0:0|0:0|0:0,0:0:0:0:
219,167,142743,1,10,0:0:0:0:
154,220,142900,6,0,L|136:316,1,97.50000371933,2|2,3:2|3:2,0:0:0:0:
214,342,143368,1,2,0:2:0:0:
296,356,143525,2,0,P|317:350|342:331,2,48.750001859665,10|0|0,0:2|0:0|0:0,0:0:0:0:
277,278,143993,1,0,3:0:0:0:
353,244,144150,6,0,L|344:187,1,48.750001859665,2|2,0:2|0:2,0:0:0:0:
281,142,144462,1,2,3:2:0:0:
281,142,144775,2,0,B|259:135|259:135|233:138,2,48.750001859665,10|0|2,0:2|0:0|0:0,0:0:0:0:
359,115,145243,1,10,0:0:0:0:
296,60,145400,6,0,L|193:53,1,97.50000371933,2|2,3:2|3:2,0:0:0:0:
151,121,145868,1,2,0:0:0:0:
167,202,146025,2,0,L|270:209,1,97.50000371933,8|2,0:0|0:2,0:0:0:0:
346,213,146493,1,2,3:2:0:0:
299,282,146650,6,0,B|305:331|305:331|281:375,1,97.50000371933,2|2,0:2|3:2,0:0:0:0:
199,369,147118,1,2,0:0:0:0:
117,351,147275,2,0,L|132:301,2,48.750001859665,8|0|2,0:0|0:0|0:0,0:0:0:0:
35,337,147743,1,10,0:0:0:0:
35,337,147900,6,0,B|29:288|29:288|53:244,1,97.50000371933,2|2,3:2|3:2,0:0:0:0:
123,203,148368,1,2,0:2:0:0:
123,203,148525,2,0,L|111:151,2,48.750001859665,10|0|0,0:2|0:0|0:0,0:0:0:0:
205,194,148993,1,0,3:0:0:0:
285,214,149150,6,0,L|273:266,2,48.750001859665,2|2|2,0:2|0:2|3:2,0:0:0:0:
337,56,149775,2,0,P|380:75|407:115,1,97.50000371933,10|2,0:2|0:0,0:0:0:0:
386,195,150243,2,0,L|374:243,1,48.750001859665,10|2,0:0|0:0,0:0:0:0:
63,267,157900,6,0,L|135:254,1,65
165,247,158368,2,0,L|191:242,2,16.25
158,324,158837,1,0,0:0:0:0:
229,356,159150,6,0,B|262:348|262:348|283:322,2,65
262,243,160087,1,0,0:0:0:0:
335,268,160243,1,0,0:0:0:0:
412,238,160400,6,0,L|422:135,1,97.50000371933,2|2,3:2|3:2,0:0:0:0:
367,77,160868,1,2,0:0:0:0:
289,107,161025,2,0,P|243:104|202:72,1,97.50000371933,8|2,0:0|0:2,0:0:0:0:
126,59,161493,1,2,3:2:0:0:
61,103,161650,6,0,L|45:203,1,97.50000371933,2|2,0:2|3:2,0:0:0:0:
45,199,162275,2,0,L|-4:209,2,48.750001859665,8|0|2,0:0|0:0|0:0,0:0:0:0:
99,254,162743,1,10,0:0:0:0:
146,316,162900,6,0,B|194:327|194:327|241:306,1,97.50000371933,2|2,3:2|3:2,0:0:0:0:
306,270,163368,1,2,0:2:0:0:
372,229,163525,2,0,B|416:209|416:209|464:220,2,97.50000371933,10|0|2,0:2|0:0|0:2,0:0:0:0:
306,270,164306,2,0,P|326:293|346:304,2,48.750001859665,2|2|0,0:2|3:2|0:0,0:0:0:0:
302,191,164775,2,0,P|316:146|304:95,1,97.50000371933,10|2,0:2|0:0,0:0:0:0:
257,36,165243,1,10,0:0:0:0:
181,56,165400,6,0,B|145:61|145:61|133:73|133:73|85:79,1,97.50000371933,2|2,3:2|3:2,0:0:0:0:
48,145,165868,1,2,0:0:0:0:
91,210,166025,2,0,B|127:215|127:215|139:227|139:227|187:233,1,97.50000371933,8|2,0:0|0:2,0:0:0:0:
260,237,166493,1,2,3:2:0:0:
296,306,166650,6,0,L|284:364,2,48.750001859665,2|2|2,0:2|0:2|3:2,0:0:0:0:
260,237,167118,1,2,0:0:0:0:
317,183,167275,2,0,P|338:192|364:194,2,48.750001859665,8|0|2,0:0|0:0|0:0,0:0:0:0:
270,120,167743,1,10,0:0:0:0:
227,54,167900,6,0,B|183:74|183:74|133:61,1,97.50000371933,2|2,3:2|3:2,0:0:0:0:
57,69,168368,2,0,L|51:103,2,24.3750009298325,2|0|10,0:2|0:0|0:2,0:0:0:0:
135,61,168681,1,0,0:0:0:0:
119,137,168837,2,0,L|109:186,1,48.750001859665,0|0,0:0|3:0,0:0:0:0:
74,255,169150,6,0,P|48:265|28:281,2,48.750001859665,2|2|2,0:2|0:2|3:2,0:0:0:0:
224,297,169775,2,0,P|245:312|268:320,2,48.750001859665,10|0|2,0:2|0:0|0:0,0:0:0:0:
278,241,170243,1,10,0:0:0:0:
162,208,170400,6,0,L|140:92,1,110.50000210762,6|2,3:2|3:2,0:0:0:0:
200,33,170868,1,2,0:2:0:0:
284,62,171025,2,0,P|338:66|386:31,1,110.50000210762,10|2,0:2|0:0,0:0:0:0:
438,203,171650,6,0,P|394:172|340:176,1,110.50000210762,2|2,0:2|3:2,0:0:0:0:
289,249,172118,1,0,0:0:0:0:
338,323,172275,2,0,P|360:303|373:275,2,55.2500010538101,10|0|2,0:2|0:0|0:2,0:0:0:0:
251,330,172743,1,10,0:2:0:0:
206,253,172900,6,0,P|154:240|107:269,1,110.50000210762,2|2,3:2|3:2,0:0:0:0:
55,197,173368,1,2,0:2:0:0:
67,108,173525,2,0,L|87:54,2,55.2500010538101,10|0|2,0:2|0:0|0:0,0:0:0:0:
156,104,173993,1,0,3:0:0:0:
244,93,174150,6,0,L|264:39,2,55.2500010538101,2|0|2,0:0|0:0|3:2,0:0:0:0:
315,255,174775,2,0,P|339:206|330:149,1,110.50000210762,10|2,0:2|0:0,0:0:0:0:
253,192,175243,1,8,0:0:0:0:
227,276,175400,6,0,P|259:326|305:347,1,110.50000210762,2|2,3:2|3:2,0:0:0:0:
380,301,175868,1,2,0:2:0:0:
459,342,176025,2,0,B|479:289|479:289|470:231,1,110.50000210762,10|2,0:2|0:0,0:0:0:0:
371,89,176650,6,0,B|351:142|351:142|360:200,1,110.50000210762,2|2,0:2|3:2,0:0:0:0:
438,153,177118,1,0,0:0:0:0:
455,65,177275,2,0,P|442:39|423:22,2,55.2500010538101,10|0|2,0:2|0:0|0:2,0:0:0:0:
438,153,177743,1,10,0:2:0:0:
360,195,177900,6,0,L|304:186,1,55.2500010538101,2|0,3:2|0:0,0:0:0:0:
222,213,178212,2,0,L|168:221,1,55.2500010538101,2|2,3:2|0:2,0:0:0:0:
87,185,178525,2,0,P|73:162|65:132,2,55.2500010538101,10|0|2,0:2|0:0|0:0,0:0:0:0:
124,358,179150,6,0,L|130:303,1,55.2500010538101,2|0,0:0|0:0,0:0:0:0:
168,221,179462,2,0,L|222:213,1,55.2500010538101,2|0,3:2|0:0,0:0:0:0:
310,228,179775,2,0,P|338:273|332:334,1,110.50000210762,10|2,0:2|0:0,0:0:0:0:
253,296,180243,1,8,0:0:0:0:
222,213,180400,6,0,L|236:158,1,55.2500010538101,2|0,3:2|0:0,0:0:0:0:
172,89,180712,2,0,L|158:144,1,55.2500010538101,2|2,3:2|0:2,0:0:0:0:
65,134,181025,2,0,L|94:18,1,110.50000210762,10|2,0:2|0:0,0:0:0:0:
272,77,181650,6,0,P|320:55|377:68,1,110.50000210762,2|2,0:2|3:2,0:0:0:0:
451,120,182118,1,0,0:0:0:0:
482,208,182275,2,0,L|472:265,1,55.2500010538101,10|0,0:2|0:0,0:0:0:0:
426,344,182587,2,0,P|403:358|374:363,1,55.2500010538101,2|10,0:2|0:2,0:0:0:0:
295,312,182900,6,0,P|241:311|196:342,1,110.50000210762,2|2,3:2|3:2,0:0:0:0:
103,326,183368,1,2,0:2:0:0:
158,249,183525,2,0,L|169:193,2,55.2500010538101,10|0|2,0:2|0:0|0:0,0:0:0:0:
64,244,183993,1,0,3:0:0:0:
96,155,184150,6,0,B|94:126|94:126|78:106,2,55.2500010538101,2|0|2,0:0|0:0|3:2,0:0:0:0:
268,201,184775,2,0,B|216:221|216:221|166:193,1,110.50000210762,10|2,0:2|0:0,0:0:0:0:
181,101,185243,1,8,0:0:0:0:
213,12,185400,6,0,L|321:34,1,110.50000210762,2|2,3:2|3:2,0:0:0:0:
409,67,185868,1,2,0:2:0:0:
420,160,186025,2,0,B|446:157|446:157|473:138,2,55.2500010538101,10|0|2,0:2|0:0|0:0,0:0:0:0:
330,131,186493,1,0,3:0:0:0:
349,223,186650,6,0,B|311:264|311:264|301:318,1,110.50000210762,2|2,0:2|3:2,0:0:0:0:
227,375,187118,1,0,0:0:0:0:
150,319,187275,2,0,L|146:263,2,55.2500010538101,10|0|2,0:2|0:0|0:2,0:0:0:0:
224,261,187743,1,10,0:2:0:0:
185,174,187900,6,0,L|131:164,1,55.2500010538101,2|2,3:2|0:0,0:0:0:0:
67,233,188212,2,0,L|13:243,1,55.2500010538101,2|2,3:2|0:2,0:0:0:0:
52,157,188525,2,0,P|53:101|87:54,2,110.50000210762,10|2|2,0:2|0:0|0:0,0:0:0:0:
12,243,189306,5,2,0:0:0:0:
84,302,189462,2,0,L|96:362,1,55.2500010538101,2|2,3:2|0:0,0:0:0:0:
189,356,189775,2,0,L|210:243,1,110.50000210762,10|2,0:2|0:0,0:0:0:0:
295,209,190243,1,8,0:0:0:0:
371,264,190400,6,0,B|385:240|385:240|389:208,2,55.2500010538101,2|0|2,3:2|0:0|3:2,0:0:0:0:
287,307,190868,1,2,0:2:0:0:
295,209,191025,2,0,P|261:169|191:157,1,110.50000210762,10|2,0:2|0:0,0:0:0:0:
29,217,191650,6,0,P|83:223|127:191,1,110.50000210762,2|2,0:2|3:2,0:0:0:0:
142,99,192118,1,0,0:0:0:0:
213,37,192275,2,0,L|275:29,1,55.2500010538101,10|0,0:2|0:0,0:0:0:0:
339,90,192587,2,0,L|401:98,1,55.2500010538101,2|10,0:2|0:2,0:0:0:0:
451,22,192900,6,0,P|488:60|489:116,1,110.50000210762,2|2,3:2|3:2,0:0:0:0:
422,179,193368,1,2,0:2:0:0:
409,272,193525,2,0,L|351:278,2,55.2500010538101,10|0|2,0:2|0:0|0:0,0:0:0:0:
476,337,193993,1,0,3:0:0:0:
384,361,194150,6,0,B|358:363|358:363|329:377,2,55.2500010538101,2|2|2,0:0|0:0|3:2,0:0:0:0:
422,179,194775,2,0,B|371:200|371:200|315:180,1,110.50000210762,10|2,0:2|0:0,0:0:0:0:
294,90,195243,1,8,0:0:0:0:
203,118,195400,6,0,L|194:228,1,110.50000210762,2|2,3:2|3:2,0:0:0:0:
117,282,195868,1,2,0:2:0:0:
95,190,196025,2,0,P|41:191|-2:229,1,110.50000210762,10|2,0:2|0:0,0:0:0:0:
107,380,196650,6,0,P|161:379|204:341,1,110.50000210762,2|2,0:2|3:2,0:0:0:0:
264,273,197118,1,0,0:0:0:0:
319,196,197275,2,0,L|303:144,2,55.2500010538101,10|0|2,0:2|0:0|0:2,0:0:0:0:
388,259,197743,1,10,0:2:0:0:
479,280,197900,6,0,B|482:225|482:225|442:180,1,110.50000210762,2|2,3:2|3:2,0:0:0:0:
383,113,198368,1,2,0:2:0:0:
299,69,198525,2,0,P|245:88|231:152,1,110.50000210762,10|2,0:2|0:0,0:0:0:0:
227,134,199150,6,0,B|203:147|203:147|173:145,2,55.2500010538101,2|0|2,0:0|0:0|3:2,0:0:0:0:
247,225,199618,1,0,0:0:0:0:
284,311,199775,2,0,P|230:319|184:290,1,110.50000210762,10|2,0:2|0:0,0:0:0:0:
135,210,200243,1,8,0:0:0:0:
92,125,200400,6,0,B|72:77|72:77|91:18,1,110.50000210762,2|2,3:2|3:2,0:0:0:0:
183,26,200868,1,2,0:2:0:0:
273,51,201025,6,0,B|321:71|321:71|380:52,1,110.50000210762,10|2,0:2|0:0,0:0:0:0:
479,210,201650,2,0,B|496:154|496:154|476:106,1,110.50000210762,2|2,0:2|3:2,0:0:0:0:
390,143,202118,1,0,0:0:0:0:
312,196,202275,2,0,P|313:224|324:253,2,55.2500010538101,10|0|2,0:2|0:0|0:2,0:0:0:0:
239,136,202743,1,10,0:2:0:0:
196,220,202900,6,0,P|157:183|148:129,1,110.50000210762,2|2,3:2|3:2,0:0:0:0:
205,54,203368,1,2,0:2:0:0:
120,14,203525,2,0,B|68:-6|68:-6|15:17,1,110.50000210762,10|2,0:2|0:0,0:0:0:0:
74,212,204150,6,0,L|68:157,2,55.2500010538101,2|2|2,0:0|0:0|3:2,0:0:0:0:
37,298,204618,1,2,0:0:0:0:
102,365,204775,2,0,B|213:353,1,110.50000210762,10|2,0:2|0:0,0:0:0:0:
281,289,205243,1,8,0:0:0:0:
359,341,205400,6,0,P|375:288|358:236,1,110.50000210762,2|2,3:2|3:2,0:0:0:0:
280,185,205868,1,2,0:2:0:0:
317,98,206025,2,0,L|308:36,1,55.2500010538101,10|0,0:2|0:0,0:0:0:0:
217,61,206337,2,0,L|226:123,1,55.2500010538101,2|0,0:0|3:0,0:0:0:0:
189,196,206650,6,0,B|138:179|138:179|94:214,1,110.50000210762,2|2,0:2|3:2,0:0:0:0:
72,300,207118,1,0,0:0:0:0:
123,372,207275,2,0,L|178:361,1,55.2500010538101,10|0,0:2|0:0,0:0:0:0:
126,289,207587,2,0,L|71:300,1,55.2500010538101,2|10,0:2|0:2,0:0:0:0:
8,238,207900,6,0,B|2:209|2:209|13:179,2,55.2500010538101,2|2|2,3:2|0:0|3:2,0:0:0:0:
93,214,208368,1,2,0:2:0:0:
157,152,208525,2,0,L|142:33,1,110.50000210762,10|2,0:2|0:0,0:0:0:0:
317,75,209150,6,0,B|344:79|344:79|368:95,2,55.2500010538101,2|2|2,0:0|0:0|3:2,0:0:0:0:
312,163,209618,1,2,0:0:0:0:
400,174,209775,2,0,P|441:140|452:84,1,110.50000210762,10|2,0:2|0:0,0:0:0:0:
367,94,210243,1,8,0:0:0:0:
312,163,210400,6,0,L|325:277,1,110.50000210762,6|2,3:2|3:2,0:0:0:0:
254,327,210868,1,2,0:2:0:0:
254,327,211025,2,0,P|213:294|157:300,2,110.50000210762,10|2|2,0:2|0:2|0:2,0:0:0:0:
428,351,211962,1,2,3:2:0:0:
368,184,212275,2,0,B|412:151|412:151|417:93,1,110.50000210762,10|2,0:2|0:2,0:0:0:0:
355,31,212743,1,10,0:2:0:0:
273,65,212900,6,0,L|160:50,1,110.50000210762,2|2,3:2|3:2,0:0:0:0:
87,95,213368,1,2,0:2:0:0:
123,176,213525,2,0,L|113:234,2,55.2500010538101,10|2|2,0:2|0:2|0:2,0:0:0:0:
181,343,214150,6,0,L|191:285,2,55.2500010538101,2|2|2,0:2|0:2|3:2,0:0:0:0:
350,290,214775,2,0,B|397:261|397:261|451:267,1,110.50000210762,10|2,0:2|0:2,0:0:0:0:
486,186,215243,1,10,0:2:0:0:
408,141,215400,6,0,L|400:23,1,110.50000210762,2|2,3:2|3:2,0:0:0:0:
321,71,215868,1,2,0:2:0:0:
321,71,216025,2,0,P|283:33|230:35,2,110.50000210762,10|2|2,0:2|0:2|0:2,0:0:0:0:
189,188,216962,1,2,3:2:0:0:
53,73,217275,2,0,L|28:183,1,110.50000210762,10|2,0:2|0:2,0:0:0:0:
68,259,217743,1,10,0:2:0:0:
124,327,217900,6,0,B|177:307|177:307|226:330,1,110.50000210762,2|2,3:2|3:2,0:0:0:0:
313,331,218368,2,0,L|320:360,2,27.6250005269051,2|0|10,0:2|0:0|0:2,0:0:0:0:
277,157,218837,2,0,L|296:100,1,55.2500010538101,2|2,0:2|3:2,0:0:0:0:
366,52,219150,6,0,P|376:77|395:99,2,55.2500010538101,2|2|2,0:2|0:2|3:2,0:0:0:0:
193,90,219775,2,0,P|160:48|105:42,1,110.50000210762,10|2,0:2|0:2,0:0:0:0:
24,75,220243,1,10,0:2:0:0:
14,163,220400,6,0,L|40:271,1,110.50000210762,2|2,3:2|3:2,0:0:0:0:
122,301,220868,1,2,0:2:0:0:
122,301,221025,2,0,B|146:294|165:278|165:278|193:297|224:292,2,110.50000210762,10|2|2,0:2|0:2|0:2,0:0:0:0:
233,163,221962,1,2,3:2:0:0:
373,270,222275,2,0,L|392:157,1,110.50000210762,10|2,0:2|0:2,0:0:0:0:
456,101,222743,1,10,0:2:0:0:
399,32,222900,6,0,P|350:56|293:51,1,110.50000210762,2|2,3:2|3:2,0:0:0:0:
213,20,223368,1,2,0:2:0:0:
151,83,223525,2,0,L|155:141,2,55.2500010538101,10|2|2,0:2|0:2|0:2,0:0:0:0:
69,240,224150,6,0,L|72:184,2,55.2500010538101,2|2|2,0:2|0:2|3:2,0:0:0:0:
204,354,224775,2,0,P|259:361|303:329,1,110.50000210762,10|2,0:2|0:2,0:0:0:0:
373,279,225243,1,10,0:2:0:0:
446,329,225400,6,0,P|425:278|438:221,1,110.50000210762,2|2,3:2|3:2,0:0:0:0:
483,150,225868,1,2,0:2:0:0:
394,142,226025,2,0,L|285:156,2,110.50000210762,10|2|2,0:2|0:2|0:2,0:0:0:0:
247,36,226962,1,2,3:2:0:0:
134,173,227275,2,0,B|125:220|125:220|160:281,1,110.50000210762,10|2,0:2|0:2,0:0:0:0:
240,299,227743,1,10,0:2:0:0:
324,272,227900,6,0,L|350:216,1,55.2500010538101,2|2,3:2|0:2,0:0:0:0:
404,154,228212,2,0,P|389:135|378:98,1,55.2500010538101,2|2,3:2|0:2,0:0:0:0:
367,17,228525,2,0,B|323:24|323:24|311:36|311:36|262:44,2,110.50000210762,10|2|2,0:2|0:2|0:2,0:0:0:0:
378,105,229306,5,2,0:2:0:0:
292,126,229462,2,0,P|263:131|236:126,1,55.2500010538101,2|2,3:2|0:2,0:0:0:0:
172,66,229775,2,0,L|144:175,1,110.50000210762,10|2,0:2|0:2,0:0:0:0:
123,258,230243,1,10,0:2:0:0:
123,258,230400,6,0,B|178:249|178:249|225:279,1,110.50000210762,2|2,3:2|3:2,0:0:0:0:
278,348,230868,1,2,0:2:0:0:
278,348,231025,2,0,L|388:334,2,110.50000210762,10|2|2,0:2|0:2|0:2,0:0:0:0:
315,175,231962,1,2,3:2:0:0:
201,39,232275,2,0,P|149:42|109:83,1,110.50000210762,10|2,0:2|0:2,0:0:0:0:
91,168,232743,1,10,0:2:0:0:
152,232,232900,6,0,B|156:287|156:287|123:331,2,110.50000210762,2|0|8,3:2|3:0|0:0,0:0:0:0:
67,76,233837,2,0,L|126:86,1,55.2500010538101,0|0,0:0|3:0,0:0:0:0:
206,110,234150,6,0,L|260:100,2,55.2500010538101,0|0|0,0:0|0:0|3:0,0:0:0:0:
372,49,234775,2,0,L|352:161,1,110.50000210762,8|0,0:0|0:0,0:0:0:0:
391,237,235243,1,8,0:0:0:0:
432,315,235400,6,0,P|386:290|331:306,1,110.50000210762,2|2,3:2|3:2,0:0:0:0:
279,375,235868,1,2,0:2:0:0:
249,291,236025,2,0,L|266:174,2,110.50000210762,10|2|2,0:2|0:2|0:2,0:0:0:0:
89,214,236962,1,2,3:2:0:0:
152,48,237275,2,0,P|206:35|252:64,1,110.50000210762,10|2,0:2|0:2,0:0:0:0:
297,136,237743,1,10,0:2:0:0:
354,203,237900,6,0,P|400:230|452:217,2,110.50000210762,2|0|8,3:2|3:0|0:0,0:0:0:0:
249,60,238837,2,0,L|211:102,1,55.2500010538101,0|0,0:0|3:0,0:0:0:0:
184,185,239150,6,0,P|196:207|203:239,2,55.2500010538101,0|0|0,0:0|0:0|3:0,0:0:0:0:
127,352,239775,2,0,L|241:323,1,110.50000210762,8|0,0:0|0:0,0:0:0:0:
285,252,240243,1,8,0:0:0:0:
368,281,240400,6,0,P|422:279|464:316,1,110.50000210762,2|2,3:2|3:2,0:0:0:0:
434,230,240868,1,2,0:2:0:0:
405,145,241025,2,0,B|405:90|405:90|446:50,2,110.50000210762,10|2|2,0:2|0:2|0:2,0:0:0:0:
277,22,241962,1,2,3:2:0:0:
162,156,242275,2,0,P|109:148|62:177,1,110.50000210762,10|2,0:2|0:2,0:0:0:0:
126,236,242743,1,8,0:2:0:0:
86,315,242900,6,0,L|198:331,1,110.50000210762,2|0,3:2|3:0,0:0:0:0:
322,206,243525,2,0,L|210:190,1,110.50000210762,8|0,0:0|0:0,0:0:0:0:
333,59,244150,6,0,B|323:35|323:35|325:5,2,55.2500010538101,0|0|0,0:0|0:0|3:0,0:0:0:0:
175,140,244775,2,0,B|150:130|150:130|131:107,2,55.2500010538101,8|0|0,0:0|0:0|0:0,0:0:0:0:
240,199,245243,1,8,0:0:0:0:
217,285,245400,6,0,B|177:323|177:323|116:328,1,110.50000210762,2|0,3:2|3:0,0:0:0:0:
240,199,246025,2,0,B|280:161|280:161|341:156,1,110.50000210762,8|0,0:0|0:0,0:0:0:0:
423,148,246493,1,0,3:0:0:0:
370,76,246650,2,0,P|345:69|316:70,2,55.2500010538101,0|0|0,0:0|0:0|3:0,0:0:0:0:
325,247,247275,2,0,P|306:265|292:290,2,55.2500010538101,8|0|0,0:0|0:0|0:0,0:0:0:0:
375,319,247743,1,8,0:0:0:0:
305,374,247900,6,0,L|194:360,1,110.50000210762,2|0,3:2|3:0,0:0:0:0:
38,278,248525,2,0,P|92:273|130:231,1,110.50000210762,8|0,0:0|0:0,0:0:0:0:
158,58,249150,6,0,P|169:80|172:113,2,55.2500010538101,0|0|0,0:0|0:0|3:0,0:0:0:0:
273,192,249775,2,0,P|259:212|232:231,2,55.2500010538101,8|0|0,0:0|0:0|0:0,0:0:0:0:
260,104,250243,1,8,0:0:0:0:
172,110,250400,1,2,3:2:0:0:
256,192,250556,12,2,253837,0:0:0:0:
