osu file format v14

[General]
AudioFilename: audio.mp3
AudioLeadIn: 0
PreviewTime: 170405
Countdown: 0
SampleSet: Soft
StackLeniency: 0.5
Mode: 0
LetterboxInBreaks: 0
WidescreenStoryboard: 0

[Editor]
Bookmarks: 100405,110405,130405,130561,131030,131186,131498,131655,131811,131967,132123,132280,132436,132592,150405,157905
DistanceSpacing: 1.5
BeatDivisor: 4
GridSize: 4
TimelineZoom: 1.9

[Metadata]
Title:Grim
TitleUnicode:Grim
Artist:Raujika
ArtistUnicode:Raujika
Creator:Beomsan
Version:Hi-SPEED Tragic Death Love Ultimate Reverberant Goukanau Couple Game Over Extra
Source:
Tags:Palette Sounds Lost Imagination Sounds of color vol.2
BeatmapID:1074508
BeatmapSetID:505067

[Difficulty]
HPDrainRate:6
CircleSize:4
OverallDifficulty:8
ApproachRate:9
SliderMultiplier:2.9
SliderTickRate:1

[Events]
//Background and Video events
0,0,"bg-4.png",0,0
//Break Periods
2,100605,109805
2,150917,157305
//Storyboard Layer 0 (Background)
//Storyboard Layer 1 (Fail)
//Storyboard Layer 2 (Pass)
//Storyboard Layer 3 (Foreground)
//Storyboard Sound Samples

[TimingPoints]
30405,625,4,3,2,60,1,0
30405,-133.333333333333,4,3,2,60,0,0
40405,-117.647058823529,4,2,2,80,0,1
60405,-200,4,3,2,40,0,0
60873,-200,4,3,2,5,0,0
61030,-133.333333333333,4,3,2,60,0,0
80405,-117.647058823529,4,2,2,80,0,1
101030,-133.333333333333,4,3,2,60,0,0
117905,-133.333333333333,4,3,2,30,0,0
119467,-133.333333333333,4,3,2,60,0,0
124701,-133.333333333333,4,3,2,5,0,0
124780,-133.333333333333,4,3,2,60,0,0
157905,-200,4,2,1,60,0,0
159780,-166.666666666667,4,3,2,60,0,0
160405,-133.333333333333,4,3,2,60,0,0
170405,-117.647058823529,4,2,2,80,0,1
210405,-117.647058823529,4,3,2,80,0,0
250405,-117.647058823529,4,3,2,80,0,0

[Colours]
Combo1 : 180,104,255
Combo2 : 128,128,192
Combo3 : 0,128,192

[HitObjects]
185,117,30405,6,0,P|216:94|289:87,1,108.750004148483,10|2,0:0|0:0,0:0:0:0:
405,244,31030,2,0,P|374:221|301:214,1,108.750004148483,8|2,0:2|0:0,0:0:0:0:
227,238,31498,1,8,0:0:0:0:
289,295,31655,5,2,0:0:0:0:
306,213,31811,1,0,0:0:0:0:
247,154,31967,1,10,0:0:0:0:
110,337,32280,2,0,L|115:218,1,108.750004148483,8|2,0:2|0:0,0:0:0:0:
117,146,32748,1,8,0:2:0:0:
189,190,32905,6,0,P|241:210|299:213,1,108.750004148483,10|2,0:0|0:0,0:0:0:0:
425,57,33530,2,0,P|370:60|320:80,1,108.750004148483,8|2,0:2|0:0,0:0:0:0:
360,153,33998,1,8,0:0:0:0:
241,93,34155,5,2,0:0:0:0:
368,157,34311,2,0,L|431:146,1,54.3750020742417,0|10,0:0|0:0,0:0:0:0:
380,338,34780,2,0,L|272:321,1,108.750004148483,8|2,0:2|0:0,0:0:0:0:
154,361,35248,1,8,0:2:0:0:
200,237,35405,6,0,P|201:176|174:132,1,108.750004148483,10|2,0:0|0:0,0:0:0:0:
27,270,36030,2,0,L|147:287,1,108.750004148483,8|2,0:2|0:0,0:0:0:0:
117,204,36498,1,8,0:0:0:0:
138,292,36655,5,2,0:0:0:0:
204,229,36811,1,0,0:0:0:0:
225,317,36968,1,10,0:0:0:0:
330,118,37280,2,0,L|353:230,1,108.750004148483,8|2,0:2|0:0,0:0:0:0:
420,148,37748,1,8,0:2:0:0:
418,307,37905,6,0,P|364:312|304:295,1,108.750004148483,10|2,0:0|0:0,0:0:0:0:
241,255,38373,1,0,0:0:0:0:
87,140,38530,1,8,0:2:0:0:
102,281,38686,1,0,0:0:0:0:
227,125,38842,1,2,0:0:0:0:
242,266,38998,1,8,0:2:0:0:
87,140,39155,6,0,P|91:107|104:70,1,54.3750020742417,10|0,0:0|0:0,0:0:0:0:
227,125,39467,2,0,P|234:151|236:178,1,54.3750020742417,2|0,0:0|0:0,0:0:0:0:
142,293,39780,6,0,L|85:286,1,54.3750020742417,6|2,0:1|0:0,0:0:0:0:
241,354,40092,1,2,0:0:0:0:
160,208,40248,1,2,0:0:0:0:
318,272,40405,6,0,P|352:256|378:235,1,61.6250011754036,12|0,0:1|0:0,0:0:0:0:
333,94,40717,2,0,P|311:124|299:156,1,61.6250011754036
183,243,41030,2,0,P|194:180|183:114,1,123.250002350807,8|2,2:0|0:3,0:0:0:0:
146,37,41498,1,0,0:0:0:0:
91,117,41655,6,0,P|60:112|31:102,1,61.6250011754036,2|0,0:0|0:0,0:0:0:0:
91,117,41967,1,2,0:3:0:0:
146,37,42123,1,0,0:0:0:0:
110,207,42280,1,8,0:0:0:0:
196,121,42436,1,0,0:0:0:0:
110,207,42592,2,0,L|108:268,1,61.6250011754036,2|8,0:3|0:0,0:0:0:0:
199,358,42905,6,0,P|240:315|268:258,1,123.250002350807,2|2,0:0|0:3,0:0:0:0:
195,202,43373,1,0,0:0:0:0:
267,258,43530,2,0,P|297:263|330:265,1,61.6250011754036,8|0,0:0|0:0,0:0:0:0:
195,202,43842,2,0,P|165:207|132:209,1,61.6250011754036,2|0,0:3|0:0,0:0:0:0:
264,112,44155,6,0,P|269:142|271:175,2,61.6250011754036,2|0|2,0:0|0:0|0:3,0:0:0:0:
231,25,44623,1,0,0:0:0:0:
382,137,44780,2,0,P|389:193|369:265,1,123.250002350807,8|2,0:0|0:3,0:0:0:0:
301,308,45248,1,8,0:0:0:0:
372,257,45405,5,2,0:0:0:0:
429,329,45561,1,0,0:0:0:0:
301,308,45717,2,0,P|293:279|290:237,1,61.6250011754036,2|0,0:3|0:0,0:0:0:0:
203,122,46030,2,0,P|198:180|177:251,1,123.250002350807,8|2,0:0|0:3,0:0:0:0:
118,174,46498,1,0,0:0:0:0:
97,264,46655,5,2,0:0:0:0:
180,242,46811,1,0,0:0:0:0:
97,264,46967,2,0,P|70:248|46:229,1,61.6250011754036,2|0,0:3|0:0,0:0:0:0:
72,74,47280,1,8,0:0:0:0:
111,169,47436,1,0,0:0:0:0:
260,78,47592,1,2,0:3:0:0:
220,172,47748,1,8,0:0:0:0:
308,232,47905,6,0,P|325:255|339:285,1,61.6250011754036,2|0,0:0|0:0,0:0:0:0:
313,147,48217,2,0,P|331:122|343:94,1,61.6250011754036,2|0,0:3|0:0,0:0:0:0:
241,183,48530,2,0,L|180:183,1,61.6250011754036,8|0,0:0|0:0,0:0:0:0:
91,279,48842,1,2,0:3:0:0:
84,186,48998,1,0,0:0:0:0:
184,282,49155,6,0,P|184:312|180:345,2,61.6250011754036,2|0|2,0:0|0:0|0:3,0:0:0:0:
179,183,49623,1,0,0:0:0:0:
330,313,49780,2,0,B|346:251|315:251|335:187,1,123.250002350807,8|2,0:0|0:3,0:0:0:0:
260,275,50248,1,8,0:0:0:0:
404,226,50405,6,0,P|408:192|403:153,1,61.6250011754036,2|0,0:3|0:0,0:0:0:0:
299,57,50717,2,0,P|295:91|300:130,1,61.6250011754036,2|0,0:3|0:0,0:0:0:0:
183,221,51030,2,0,P|159:183|78:161,1,123.250002350807,8|2,0:0|0:3,0:0:0:0:
96,251,51498,1,0,0:0:0:0:
191,227,51655,6,0,P|222:221|256:209,1,61.6250011754036,2|0,0:0|0:0,0:0:0:0:
326,159,51967,1,2,0:3:0:0:
307,321,52123,1,0,0:0:0:0:
414,237,52280,1,8,0:0:0:0:
250,211,52436,1,0,0:0:0:0:
414,237,52592,2,0,P|418:203|418:168,1,61.6250011754036,2|8,0:3|0:0,0:0:0:0:
333,46,52905,6,0,P|336:102|328:174,1,123.250002350807,2|2,0:0|0:3,0:0:0:0:
255,113,53373,1,0,0:0:0:0:
300,266,53530,2,0,L|365:254,1,61.6250011754036,8|0,0:0|0:0,0:0:0:0:
204,213,53842,2,0,L|181:275,1,61.6250011754036,2|0,0:3|0:0,0:0:0:0:
96,346,54155,6,0,L|75:287,2,61.6250011754036,2|0|2,0:0|0:0|0:3,0:0:0:0:
187,355,54623,1,0,0:0:0:0:
100,184,54780,2,0,P|123:128|110:63,1,123.250002350807,8|2,0:0|0:3,0:0:0:0:
33,20,55248,1,8,0:0:0:0:
112,67,55405,5,2,0:0:0:0:
31,112,55561,1,0,0:0:0:0:
81,267,55717,2,0,P|111:264|143:257,1,61.6250011754036,2|0,0:3|0:0,0:0:0:0:
254,361,56030,2,0,P|262:300|262:233,1,123.250002350807,8|2,0:0|0:3,0:0:0:0:
241,148,56498,1,0,0:0:0:0:
330,173,56655,6,0,P|363:171|397:166,1,61.6250011754036,2|0,0:0|0:0,0:0:0:0:
241,148,56967,1,2,0:3:0:0:
300,302,57123,1,0,0:0:0:0:
330,173,57280,1,8,0:0:0:0:
157,218,57436,1,0,0:0:0:0:
241,148,57592,2,0,L|237:80,1,61.6250011754036,2|8,0:3|0:0,0:0:0:0:
157,218,57905,6,0,L|96:187,1,61.6250011754036,2|2,0:0|0:0,0:0:0:0:
159,332,58217,2,0,L|102:369,1,61.6250011754036,2|2,0:3|0:0,0:0:0:0:
274,257,58530,2,0,B|291:246|302:233|302:233|322:271|308:321,2,123.250002350807,10|2|2,0:0|0:0|0:0,0:0:0:0:
237,185,59311,5,2,0:0:0:0:
386,231,59467,2,0,P|392:267|393:298,1,61.6250011754036,2|2,0:0|0:0,0:0:0:0:
237,185,59780,2,0,P|237:119|251:64,1,123.250002350807,10|2,0:0|0:0,0:0:0:0:
137,215,60405,6,0,B|97:211|97:211|72:223|72:223|32:219,1,108.75
133,298,61030,6,0,P|165:291|191:279,1,54.3750020742417,6|0,0:3|0:0,0:0:0:0:
264,203,61342,2,0,P|238:192|212:187,1,54.3750020742417,2|8,0:0|0:0,0:0:0:0:
186,109,61655,6,0,L|189:54,2,54.3750020742417,2|0|10,0:0|0:0|0:0,0:0:0:0:
136,173,62123,1,0,0:0:0:0:
269,207,62280,2,0,P|294:198|320:186,1,54.3750020742417,8|0,0:2|0:0,0:0:0:0:
381,134,62592,1,2,0:0:0:0:
356,261,62748,1,8,0:2:0:0:
424,306,62905,6,0,L|442:363,2,54.3750020742417,10|0|2,0:0|0:0|0:0,0:0:0:0:
356,261,63373,1,0,0:0:0:0:
292,312,63530,2,0,P|265:306|240:296,1,54.3750020742417,8|0,0:2|0:0,0:0:0:0:
160,216,63842,2,0,P|185:205|211:200,1,54.3750020742417,2|8,0:0|0:0,0:0:0:0:
147,313,64155,6,0,L|94:298,2,54.3750020742417,2|0|10,0:0|0:0|0:0,0:0:0:0:
160,216,64623,1,0,0:0:0:0:
16,306,64780,5,8,0:2:0:0:
319,231,65092,1,2,0:0:0:0:
228,144,65248,1,8,0:2:0:0:
352,82,65405,6,0,P|330:94|303:108,2,54.3750020742417,10|0|2,0:0|0:0|0:0,0:0:0:0:
417,33,65873,1,0,0:0:0:0:
476,143,66030,2,0,P|481:166|484:200,1,54.3750020742417,8|0,0:2|0:0,0:0:0:0:
439,264,66342,2,0,P|434:287|431:321,1,54.3750020742417,2|8,0:0|0:0,0:0:0:0:
381,198,66655,6,0,P|383:170|388:144,2,54.3750020742417,2|0|10,0:0|0:0|0:0,0:0:0:0:
337,266,67123,1,0,0:0:0:0:
224,334,67280,2,0,P|201:323|175:306,1,54.3750020742417,8|0,0:2|0:0,0:0:0:0:
125,243,67592,1,2,0:0:0:0:
251,249,67748,1,8,0:2:0:0:
125,243,67905,6,0,P|111:269|94:292,2,54.3750020742417,10|0|2,0:0|0:0|0:0,0:0:0:0:
140,163,68373,1,0,0:0:0:0:
99,91,68530,1,8,0:2:0:0:
60,162,68686,1,0,0:0:0:0:
140,163,68842,2,0,P|162:142|178:120,1,54.3750020742417,2|8,0:0|0:0,0:0:0:0:
295,71,69155,6,0,L|316:135,1,54.3750020742417,2|0,0:0|0:0,0:0:0:0:
301,251,69467,2,0,P|270:256|246:256,1,54.3750020742417,10|0,0:0|0:0,0:0:0:0:
315,132,69780,5,2,0:0:0:0:
317,142,70092,1,2,0:0:0:0:
439,135,70248,1,0,0:0:0:0:
445,257,70405,6,0,L|432:315,1,54.3750020742417,10|0,0:0|0:0,0:0:0:0:
325,342,70717,2,0,P|316:317|310:284,1,54.3750020742417,2|0,0:0|0:0,0:0:0:0:
228,187,71030,2,0,P|210:202|191:227,2,54.3750020742417,8|0|2,0:2|0:0|0:0,0:0:0:0:
307,206,71498,1,8,0:0:0:0:
283,127,71655,6,0,L|278:62,1,54.3750020742417,2|0,0:0|0:0,0:0:0:0:
307,206,71967,2,0,L|361:206,1,54.3750020742417,10|0,0:0|0:0,0:0:0:0:
442,216,72280,1,8,0:2:0:0:
414,139,72436,1,0,0:0:0:0:
356,336,72592,2,0,P|348:304|344:278,1,54.3750020742417,2|8,0:0|0:2,0:0:0:0:
231,224,72905,6,0,L|219:278,2,54.3750020742417,10|0|2,0:0|0:0|0:0,0:0:0:0:
229,142,73373,1,0,0:0:0:0:
129,219,73530,1,8,0:2:0:0:
152,95,73687,1,0,0:0:0:0:
239,231,73842,2,0,P|264:231|297:226,1,54.3750020742417,2|8,0:0|0:0,0:0:0:0:
371,202,74155,6,0,L|379:265,1,54.3750020742417,2|0,0:0|0:0,0:0:0:0:
305,360,74467,2,0,L|311:306,1,54.3750020742417,10|0,0:0|0:0,0:0:0:0:
468,305,74780,1,8,0:2:0:0:
468,305,75092,2,0,L|461:251,1,54.3750020742417,2|8,0:0|0:2,0:0:0:0:
468,123,75405,6,0,P|444:113|418:97,1,54.3750020742417,10|0,0:0|0:0,0:0:0:0:
315,56,75717,2,0,P|338:41|363:31,1,54.3750020742417,2|0,0:0|0:0,0:0:0:0:
345,139,76030,2,0,L|336:197,1,54.3750020742417,8|0,0:2|0:0,0:0:0:0:
322,272,76342,1,2,0:0:0:0:
247,172,76498,1,8,0:0:0:0:
212,323,76655,6,0,P|221:290|228:255,1,54.3750020742417,2|0,0:0|0:0,0:0:0:0:
153,149,76967,2,0,P|158:175|166:201,1,54.3750020742417,10|0,0:0|0:0,0:0:0:0:
82,316,77280,2,0,P|91:283|98:248,1,54.3750020742417,8|0,0:2|0:0,0:0:0:0:
76,183,77592,1,2,0:0:0:0:
196,221,77748,1,8,0:2:0:0:
246,67,77905,6,0,P|251:90|256:124,2,54.3750020742417,10|0|2,0:0|0:0|0:0,0:0:0:0:
175,107,78373,1,0,0:0:0:0:
256,131,78530,2,0,L|312:126,1,54.3750020742417,8|0,0:2|0:0,0:0:0:0:
387,115,78842,1,2,0:0:0:0:
359,191,78998,1,8,0:0:0:0:
490,196,79155,5,2,0:0:0:0:
468,117,79311,1,0,0:0:0:0:
423,242,79467,1,10,0:0:0:0:
423,242,79780,2,0,P|396:246|369:253,1,54.3750020742417,8|0,0:2|0:0,0:0:0:0:
174,272,80092,2,0,P|200:279|226:283,1,54.3750020742417,2|8,0:0|0:2,0:0:0:0:
305,146,80405,5,12,0:1:0:0:
305,146,80717,2,0,L|319:215,1,61.6250011754036,2|0,0:3|0:0,0:0:0:0:
174,141,81030,2,0,P|180:69|194:13,1,123.250002350807,8|2,0:0|0:3,0:0:0:0:
266,73,81498,1,0,0:0:0:0:
174,141,81655,6,0,P|146:142|109:138,1,61.6250011754036,2|0,0:0|0:0,0:0:0:0:
266,73,81967,2,0,P|294:72|331:76,1,61.6250011754036,2|0,0:3|0:0,0:0:0:0:
277,253,82280,1,8,0:0:0:0:
266,161,82436,1,0,0:0:0:0:
258,351,82592,1,2,0:3:0:0:
269,259,82748,1,8,0:0:0:0:
344,204,82905,6,0,P|402:221|454:265,1,123.250002350807,2|2,0:0|0:3,0:0:0:0:
379,319,83373,1,0,0:0:0:0:
292,284,83530,2,0,P|266:267|239:239,1,61.6250011754036,8|0,0:0|0:0,0:0:0:0:
379,319,83842,2,0,P|377:350|366:387,1,61.6250011754036,2|0,0:3|0:0,0:0:0:0:
363,226,84155,6,0,P|390:211|428:202,2,61.6250011754036,2|0|2,0:0|0:0|0:3,0:0:0:0:
184,294,84780,2,0,P|167:233|160:164,1,123.250002350807,8|2,0:0|0:3,0:0:0:0:
162,81,85248,1,8,0:0:0:0:
315,44,85405,6,0,L|302:171,1,123.250002350807,2|2,0:0|0:3,0:0:0:0:
291,258,85873,1,0,0:0:0:0:
399,192,86030,1,8,0:0:0:0:
387,284,86186,1,0,0:0:0:0:
293,157,86342,2,0,P|261:159|228:167,1,61.6250011754036,2|0,0:3|0:0,0:0:0:0:
150,209,86655,5,2,0:0:0:0:
159,117,86811,1,0,0:0:0:0:
74,261,86967,1,2,0:3:0:0:
150,209,87123,1,0,0:0:0:0:
229,257,87280,1,8,0:0:0:0:
296,194,87436,2,0,L|288:129,2,61.6250011754036,0|2|8,0:0|0:3|0:0,0:0:0:0:
452,120,87905,6,0,P|422:111|391:109,1,61.6250011754036,2|0,0:0|0:0,0:0:0:0:
299,118,88217,1,2,0:3:0:0:
337,33,88373,1,0,0:0:0:0:
451,202,88530,2,0,P|453:232|449:264,1,61.6250011754036,8|0,0:0|0:0,0:0:0:0:
351,336,88842,2,0,P|347:305|349:274,1,61.6250011754036,2|0,0:3|0:0,0:0:0:0:
245,208,89155,6,0,P|214:221|191:237,2,61.6250011754036,2|0|2,0:0|0:0|0:3,0:0:0:0:
333,182,89623,1,0,0:0:0:0:
183,62,89780,2,0,P|165:120|110:160,1,123.250002350807,8|2,0:0|0:3,0:0:0:0:
102,248,90248,1,8,0:0:0:0:
92,144,90405,6,0,P|60:144|28:149,1,61.6250011754036,2|0,0:3|0:0,0:0:0:0:
192,236,90717,2,0,P|224:236|256:231,1,61.6250011754036,2|0,0:3|0:0,0:0:0:0:
408,117,91030,2,0,P|365:72|303:46,1,123.250002350807,8|2,0:0|0:3,0:0:0:0:
284,136,91498,1,0,0:0:0:0:
214,74,91655,6,0,P|201:42|196:12,1,61.6250011754036,2|0,0:0|0:0,0:0:0:0:
284,136,91967,2,0,L|280:202,1,61.6250011754036,2|0,0:3|0:0,0:0:0:0:
272,290,92280,1,8,0:0:0:0:
354,248,92436,1,0,0:0:0:0:
206,229,92592,2,0,P|176:236|146:250,1,61.6250011754036,2|8,0:3|0:0,0:0:0:0:
295,378,92905,6,0,P|354:362|409:332,1,123.250002350807,2|2,0:0|0:3,0:0:0:0:
476,270,93373,1,0,0:0:0:0:
422,101,93530,1,8,0:0:0:0:
476,26,93686,1,0,0:0:0:0:
422,194,93842,2,0,L|359:187,1,61.6250011754036,2|0,0:3|0:0,0:0:0:0:
254,310,94155,6,0,L|279:368,2,61.6250011754036,2|0|2,0:0|0:0|0:3,0:0:0:0:
270,219,94623,1,0,0:0:0:0:
443,140,94780,2,0,P|420:84|433:19,1,123.250002350807,8|2,0:0|0:3,0:0:0:0:
512,68,95248,1,8,0:0:0:0:
462,223,95405,6,0,P|432:220|400:213,1,61.6250011754036,2|0,0:0|0:0,0:0:0:0:
259,202,95717,2,0,P|289:195|319:192,1,61.6250011754036,2|0,0:3|0:0,0:0:0:0:
267,324,96030,2,0,P|259:263|259:196,1,123.250002350807,8|2,0:0|0:3,0:0:0:0:
302,104,96498,1,0,0:0:0:0:
213,129,96655,6,0,P|180:127|146:122,1,61.6250011754036,2|0,0:0|0:0,0:0:0:0:
302,104,96967,1,2,0:3:0:0:
243,258,97123,1,0,0:0:0:0:
213,129,97280,1,8,0:0:0:0:
386,174,97436,1,0,0:0:0:0:
302,104,97592,2,0,L|306:36,1,61.6250011754036,2|8,0:3|0:0,0:0:0:0:
386,174,97905,6,0,L|447:143,1,61.6250011754036,2|2,0:0|0:0,0:0:0:0:
388,289,98217,2,0,L|445:326,1,61.6250011754036,2|2,0:0|0:0,0:0:0:0:
269,213,98530,2,0,B|252:202|241:189|241:189|221:227|235:277,2,123.250002350807,10|2|2,0:0|0:0|0:0,0:0:0:0:
306,141,99311,5,2,0:0:0:0:
157,187,99467,2,0,P|151:223|150:254,1,61.6250011754036,2|2,0:0|0:0,0:0:0:0:
306,141,99780,2,0,P|306:75|292:20,1,123.250002350807,10|2,0:0|0:3,0:0:0:0:
223,81,100248,1,8,0:0:0:0:
289,303,100405,5,12,0:1:0:0:
399,95,110405,6,0,P|405:122|408:160,1,54.3750020742417,10|0,0:0|0:0,0:0:0:0:
399,229,110717,2,0,L|385:287,1,54.3750020742417,2|0,0:0|0:0,0:0:0:0:
363,360,111030,1,8,0:2:0:0:
203,325,111342,2,0,L|217:267,1,54.3750020742417,2|8,0:0|0:0,0:0:0:0:
274,214,111655,6,0,P|218:219|162:199,1,108.750004148483,2|2,0:0|0:0,0:0:0:0:
259,66,112280,2,0,P|287:75|311:88,1,54.3750020742417,8|0,0:2|0:0,0:0:0:0:
411,210,112592,2,0,P|386:222|361:230,1,54.3750020742417,2|8,0:0|0:2,0:0:0:0:
279,241,112905,5,10,0:0:0:0:
182,110,113217,2,0,P|180:77|183:42,1,54.3750020742417,2|0,0:0|0:0,0:0:0:0:
174,218,113530,2,0,P|126:202|63:199,1,108.750004148483,8|2,0:2|0:0,0:0:0:0:
27,269,113998,1,8,0:0:0:0:
27,269,114155,6,0,L|36:328,2,54.3750020742417,2|0|10,0:0|0:0|0:0,0:0:0:0:
57,108,114780,2,0,P|102:77|160:62,1,108.750004148483,8|2,0:2|0:0,0:0:0:0:
235,60,115248,1,8,0:2:0:0:
315,76,115405,6,0,L|329:191,1,108.750004148483,10|2,0:0|0:0,0:0:0:0:
336,264,115873,1,0,0:0:0:0:
336,264,116030,1,8,0:2:0:0:
453,150,116342,2,0,P|462:123|468:91,1,54.3750020742417,2|8,0:0|0:0,0:0:0:0:
469,235,116655,6,0,P|418:223|373:185,1,108.750004148483,2|2,0:0|0:0,0:0:0:0:
275,58,117280,1,8,0:2:0:0:
275,58,117436,1,0,0:0:0:0:
275,58,117592,2,0,P|271:87|261:118,1,54.3750020742417,2|8,0:0|0:2,0:0:0:0:
196,158,117905,6,0,L|142:144,2,54.3750020742417,2|0|2,0:0|0:0|0:0,0:0:0:0:
271,188,118373,1,0,0:0:0:0:
330,243,118530,2,0,L|384:229,2,54.3750020742417,8|0|2,0:2|0:0|0:0,0:0:0:0:
255,273,118998,1,0,0:0:0:0:
175,293,119155,6,0,L|121:279,1,54.3750020742417,2|0,0:0|0:0,0:0:0:0:
341,376,119467,2,0,L|226:350,1,108.750004148483,2|8,0:0|0:2,0:0:0:0:
255,273,119936,5,0,0:0:0:0:
330,243,120092,2,0,P|335:270|335:300,1,54.3750020742417,2|8,0:0|0:2,0:0:0:0:
294,109,120405,6,0,L|355:124,1,54.3750020742417,10|0,0:0|0:0,0:0:0:0:
239,192,120717,2,0,L|186:204,1,54.3750020742417,2|0,0:0|0:0,0:0:0:0:
100,107,121030,2,0,L|161:122,1,54.3750020742417,8|0,0:2|0:0,0:0:0:0:
216,69,121342,1,2,0:0:0:0:
216,69,121498,1,8,0:0:0:0:
340,174,121655,6,0,P|339:201|332:234,1,54.3750020742417,2|0,0:0|0:0,0:0:0:0:
329,86,121967,2,0,P|352:73|384:62,1,54.3750020742417,10|0,0:0|0:0,0:0:0:0:
265,135,122280,2,0,P|242:120|217:98,1,54.3750020742417,8|0,0:2|0:0,0:0:0:0:
400,60,122592,1,2,0:0:0:0:
438,215,122748,1,8,0:2:0:0:
422,57,122905,6,0,P|422:86|419:124,1,54.3750020742417,10|0,0:0|0:0,0:0:0:0:
311,201,123217,2,0,P|336:186|370:170,1,54.3750020742417,2|0,0:0|0:0,0:0:0:0:
484,243,123530,2,0,P|458:228|427:206,1,54.3750020742417,8|0,0:2|0:0,0:0:0:0:
375,266,123842,2,0,L|386:328,1,54.3750020742417,2|8,0:0|0:0,0:0:0:0:
261,363,124155,6,0,L|270:309,1,54.3750020742417,2|0,0:0|0:0,0:0:0:0:
196,203,124467,2,0,P|158:205|114:230,1,81.5625031113626,10|0,0:0|0:0,0:0:0:0:
100,261,124780,2,0,L|111:323,1,54.3750020742417,8|0,0:2|0:0,0:0:0:0:
209,206,125092,1,2,0:0:0:0:
186,68,125248,1,8,0:2:0:0:
243,126,125405,6,0,P|270:120|301:109,1,54.3750020742417,10|0,0:0|0:0,0:0:0:0:
368,76,125717,2,0,L|389:136,1,54.3750020742417,2|0,0:0|0:0,0:0:0:0:
376,208,126030,1,8,0:2:0:0:
464,119,126186,1,0,0:0:0:0:
461,200,126342,2,0,L|461:257,1,54.3750020742417,2|8,0:0|0:0,0:0:0:0:
389,294,126655,5,2,0:0:0:0:
461,331,126811,1,0,0:0:0:0:
392,375,126967,1,10,0:0:0:0:
317,252,127123,1,0,0:0:0:0:
314,333,127280,1,8,0:2:0:0:
389,294,127436,1,0,0:0:0:0:
386,132,127592,2,0,P|355:144|329:163,1,54.3750020742417,2|8,0:0|0:2,0:0:0:0:
258,176,127905,5,10,0:0:0:0:
258,176,128061,1,0,0:0:0:0:
258,176,128217,2,0,L|237:125,1,54.3750020742417,2|0,0:0|0:0,0:0:0:0:
202,51,128530,1,8,0:2:0:0:
159,120,128686,1,0,0:0:0:0:
78,129,128842,2,0,P|52:125|20:114,1,54.3750020742417,2|8,0:0|0:0,0:0:0:0:
127,192,129155,6,0,L|130:247,1,54.3750020742417,2|0,0:0|0:0,0:0:0:0:
159,120,129467,1,10,0:0:0:0:
133,324,129623,1,0,0:0:0:0:
207,182,129780,2,0,P|236:175|268:163,1,54.3750020742417,8|0,0:2|0:0,0:0:0:0:
423,223,130092,1,2,0:0:0:0:
330,129,130248,1,8,0:2:0:0:
304,323,130405,5,12,0:1:0:0:
304,323,130561,2,0,P|332:315|400:353,1,108.750004148483,2|0,0:0|0:0,0:0:0:0:
208,323,131030,5,2,0:1:0:0:
208,323,131186,2,0,P|180:315|112:353,1,108.750004148483,2|4,0:0|0:3,0:0:0:0:
301,244,131655,5,2,0:0:0:0:
210,193,131811,1,0,0:0:0:0:
301,141,131967,5,2,0:0:0:0:
210,90,132123,1,0,0:0:0:0:
301,38,132280,5,8,0:2:0:0:
390,195,132436,1,0,0:0:0:0:
390,92,132592,1,0,0:0:0:0:
390,195,132905,6,0,P|417:186|447:184,2,54.3750020742417,2|0|10,0:1|0:0|0:0,0:0:0:0:
384,276,133373,1,0,0:0:0:0:
311,237,133530,2,0,P|289:219|267:197,1,54.3750020742417,8|0,0:2|0:0,0:0:0:0:
227,131,133842,1,2,0:0:0:0:
227,131,133998,1,0,0:0:0:0:
190,204,134155,6,0,P|170:223|149:240,1,54.3750020742417,12|0,0:1|0:0,0:0:0:0:
93,96,134467,2,0,L|152:112,1,54.3750020742417,2|0,0:0|0:0,0:0:0:0:
287,225,134780,1,10,0:1:0:0:
271,64,134936,1,0,0:0:0:0:
383,260,135092,5,0,0:0:0:0:
359,22,135248,1,0,0:0:0:0:
456,100,135405,6,0,P|462:125|465:158,1,54.3750020742417,2|0,0:1|0:0,0:0:0:0:
464,234,135717,2,0,L|479:292,1,54.3750020742417,2|0,0:0|0:0,0:0:0:0:
395,187,136030,1,8,0:2:0:0:
389,268,136186,1,0,0:0:0:0:
310,162,136342,2,0,L|323:109,1,54.3750020742417,2|8,0:0|0:0,0:0:0:0:
309,247,136655,6,0,L|256:261,2,54.3750020742417,2|0|10,0:0|0:0|0:0,0:0:0:0:
389,268,137123,1,0,0:0:0:0:
326,97,137280,2,0,P|298:86|270:79,1,54.3750020742417,8|0,0:2|0:0,0:0:0:0:
195,59,137592,1,2,0:0:0:0:
229,197,137748,1,8,0:2:0:0:
151,169,137905,6,0,P|124:171|93:179,2,54.3750020742417,10|0|2,0:0|0:0|0:0,0:0:0:0:
229,197,138373,1,0,0:0:0:0:
169,253,138530,1,8,0:2:0:0:
169,253,138686,1,0,0:0:0:0:
246,278,138842,2,0,P|275:261|296:244,1,54.3750020742417,2|8,0:0|0:0,0:0:0:0:
344,120,139155,5,2,0:0:0:0:
325,20,139311,1,0,0:0:0:0:
344,120,139467,2,0,P|354:145|372:177,1,54.3750020742417,10|0,0:0|0:0,0:0:0:0:
453,276,139780,2,0,P|465:252|475:226,1,54.3750020742417,8|0,0:2|0:0,0:0:0:0:
444,151,140092,1,2,0:0:0:0:
372,249,140248,1,8,0:2:0:0:
253,219,140405,6,0,L|201:234,2,54.3750020742417,10|0|2,0:0|0:0|0:0,0:0:0:0:
253,219,140873,1,0,0:0:0:0:
237,138,141030,2,0,L|132:169,1,108.750004148483,8|2,0:2|0:0,0:0:0:0:
120,249,141498,1,8,0:0:0:0:
298,299,141655,6,0,P|331:256|335:198,1,108.750004148483,2|10,0:0|0:0,0:0:0:0:
324,123,142123,1,0,0:0:0:0:
400,153,142280,2,0,P|428:157|462:167,1,54.3750020742417,8|0,0:2|0:0,0:0:0:0:
337,204,142592,1,2,0:0:0:0:
309,45,142748,1,8,0:2:0:0:
245,96,142905,6,0,P|217:90|190:80,2,54.3750020742417,10|0|2,0:0|0:0|0:0,0:0:0:0:
309,45,143373,1,0,0:0:0:0:
324,123,143530,2,0,P|293:166|247:205,1,108.750004148483,8|2,0:2|0:0,0:0:0:0:
185,250,143998,1,8,0:0:0:0:
260,281,144155,6,0,L|278:335,2,54.3750020742417,2|0|10,0:0|0:0|0:0,0:0:0:0:
104,229,144780,1,8,0:2:0:0:
157,167,144936,1,0,0:0:0:0:
48,46,145092,2,0,P|49:73|53:102,1,54.3750020742417,2|8,0:0|0:2,0:0:0:0:
157,167,145405,6,0,P|160:140|161:112,1,54.3750020742417,10|0,0:0|0:0,0:0:0:0:
159,31,145717,2,0,L|218:46,1,54.3750020742417,2|0,0:0|0:0,0:0:0:0:
243,120,146030,2,0,P|295:102|355:104,1,108.750004148483,8|2,0:2|0:0,0:0:0:0:
427,121,146498,1,8,0:0:0:0:
341,264,146655,6,0,P|286:264|235:246,1,108.750004148483,2|10,0:0|0:0,0:0:0:0:
290,186,147123,1,0,0:0:0:0:
417,211,147280,2,0,L|429:276,1,54.3750020742417,8|0,0:2|0:0,0:0:0:0:
445,343,147592,1,2,0:0:0:0:
503,212,147748,1,8,0:2:0:0:
426,264,147905,6,0,P|400:263|372:259,1,54.3750020742417,10|0,0:0|0:0,0:0:0:0:
340,184,148217,2,0,L|354:123,1,54.3750020742417,2|0,0:0|0:0,0:0:0:0:
226,41,148530,2,0,L|238:156,1,108.750004148483,8|2,0:2|0:0,0:0:0:0:
212,226,148998,1,8,0:0:0:0:
153,283,149155,6,0,L|93:272,2,54.3750020742417,2|0|10,0:0|0:0|0:0,0:0:0:0:
212,226,149623,1,0,0:0:0:0:
337,103,149780,2,0,L|345:221,1,108.750004148483,8|2,0:2|0:0,0:0:0:0:
422,152,150248,1,8,0:2:0:0:
257,58,150405,6,0,L|220:66,3,36.2500013828278
346,272,157905,6,0,P|323:216|322:163,1,108.75,2|2,0:0|0:0,0:0:0:0:
322,169,158451,1,2,0:0:0:0:
322,169,158530,1,2,0:0:0:0:
429,188,158842,1,2,0:0:0:0:
343,52,159155,6,0,L|306:63,1,36.25,2|0,0:0|0:0,0:0:0:0:
251,116,159467,2,0,L|216:105,1,36.25,8|0,0:0|0:0,0:0:0:0:
72,188,159780,6,0,L|120:185,2,43.4999986724854,2|0|2,0:0|0:0|0:0,0:0:0:0:
88,106,160248,1,8,0:2:0:0:
245,225,160405,6,0,P|256:256|234:328,1,108.750004148483,10|2,0:0|0:0,0:0:0:0:
179,267,160873,1,0,0:0:0:0:
175,185,161030,2,0,P|193:164|225:147,2,54.3750020742417,8|0|2,0:2|0:0|0:0,0:0:0:0:
179,267,161498,1,8,0:0:0:0:
296,146,161655,6,0,P|272:93|227:67,1,108.750004148483,2|10,0:0|0:0,0:0:0:0:
215,150,162123,1,0,0:0:0:0:
303,152,162280,2,0,P|330:143|356:129,1,54.3750020742417,8|0,0:2|0:0,0:0:0:0:
415,78,162592,1,2,0:0:0:0:
404,215,162748,1,8,0:2:0:0:
450,282,162905,6,0,P|401:267|341:268,1,108.750004148483,10|2,0:0|0:0,0:0:0:0:
264,285,163373,1,0,0:0:0:0:
323,341,163530,2,0,P|350:342|382:338,1,54.3750020742417,8|0,0:2|0:0,0:0:0:0:
264,285,163842,2,0,P|237:284|205:288,1,54.3750020742417,2|8,0:0|0:0,0:0:0:0:
166,217,164155,6,0,L|186:156,1,54.3750020742417,2|0,0:0|0:0,0:0:0:0:
275,79,164467,2,0,L|291:130,1,54.3750020742417,10|0,0:0|0:0,0:0:0:0:
386,215,164780,2,0,P|403:162|407:95,1,108.750004148483,8|2,0:2|0:0,0:0:0:0:
350,26,165248,1,8,0:2:0:0:
259,219,165405,6,0,L|294:323,1,108.750004148483,10|2,0:0|0:0,0:0:0:0:
371,347,165873,2,0,L|408:346,2,27.1875010371209,0|0|8,0:0|0:0|0:2,0:0:0:0:
292,322,166186,1,0,0:0:0:0:
351,266,166342,2,0,P|365:242|374:210,1,54.3750020742417,2|8,0:0|0:0,0:0:0:0:
391,136,166655,6,0,L|447:158,2,54.3750020742417,2|0|10,0:0|0:0|0:0,0:0:0:0:
311,154,167123,1,0,0:0:0:0:
311,154,167201,1,0,0:0:0:0:
311,154,167280,2,0,P|286:149|250:137,1,54.3750020742417,8|0,0:2|0:0,0:0:0:0:
190,96,167592,1,2,0:0:0:0:
223,231,167748,1,8,0:2:0:0:
66,224,167905,6,0,P|84:279|127:320,1,108.750004148483,2|0,0:2|0:2,0:0:0:0:
186,360,168373,1,2,0:2:0:0:
186,360,168451,1,2,0:2:0:0:
186,360,168530,2,0,P|195:332|202:300,1,54.3750020742417,2|0,0:2|0:0,0:0:0:0:
201,226,168842,2,0,L|258:240,1,54.3750020742417,2|0,0:2|0:0,0:0:0:0:
335,229,169155,5,10,0:0:0:0:
346,148,169311,1,0,0:0:0:0:
284,94,169467,1,2,0:0:0:0:
488,171,169780,5,8,0:2:0:0:
412,201,169936,1,0,0:0:0:0:
396,282,170092,1,2,0:0:0:0:
473,255,170248,1,8,0:0:0:0:
392,83,170405,6,0,L|327:104,1,61.6250011754036,12|0,0:1|0:0,0:0:0:0:
260,248,170717,2,0,L|228:187,1,61.6250011754036,2|0,0:3|0:0,0:0:0:0:
137,60,171030,2,0,L|89:173,1,123.250002350807,8|2,0:0|0:3,0:0:0:0:
150,241,171498,1,0,0:0:0:0:
231,193,171655,6,0,P|257:180|290:171,1,61.6250011754036,2|0,0:0|0:0,0:0:0:0:
150,241,171967,2,0,P|148:270|139:303,1,61.6250011754036,2|0,0:3|0:0,0:0:0:0:
142,146,172280,2,0,P|117:129|93:105,1,61.6250011754036,8|0,0:0|0:0,0:0:0:0:
46,29,172592,1,2,0:3:0:0:
208,54,172748,1,8,0:0:0:0:
83,102,172905,6,0,P|73:161|74:224,1,123.250002350807,2|2,0:0|0:3,0:0:0:0:
101,312,173373,1,0,0:0:0:0:
194,224,173530,2,0,P|192:188|189:157,1,61.6250011754036,8|0,0:0|0:0,0:0:0:0:
207,319,173842,1,2,0:3:0:0:
271,384,173998,1,0,0:0:0:0:
402,289,174155,5,2,0:0:0:0:
410,191,174311,1,0,0:0:0:0:
312,182,174467,1,2,0:3:0:0:
304,281,174623,1,0,0:0:0:0:
410,191,174780,2,0,P|408:126|395:64,1,123.250002350807,8|2,0:0|0:3,0:0:0:0:
315,22,175248,1,8,0:2:0:0:
477,112,175405,5,2,0:0:0:0:
396,69,175561,1,0,0:0:0:0:
312,109,175717,2,0,P|302:139|295:176,1,61.6250011754036,2|0,0:3|0:0,0:0:0:0:
281,331,176030,2,0,P|238:281|186:245,1,123.250002350807,8|2,0:0|0:3,0:0:0:0:
109,206,176498,1,0,0:0:0:0:
184,152,176655,5,2,0:0:0:0:
188,282,176811,1,0,0:0:0:0:
182,120,176967,2,0,P|177:85|167:54,1,61.6250011754036,2|0,0:3|0:0,0:0:0:0:
42,162,177280,2,0,L|29:225,1,61.6250011754036
117,249,177592,1,2,0:3:0:0:
23,76,177748,1,8,0:0:0:0:
117,249,177905,6,0,P|146:262|180:271,1,61.6250011754036,2|0,0:0|0:0,0:0:0:0:
266,270,178217,1,2,0:3:0:0:
261,119,178373,1,0,0:0:0:0:
261,119,178451,1,0,0:0:0:0:
261,119,178530,2,0,P|256:149|253:186,1,61.6250011754036,8|0,0:2|0:0,0:0:0:0:
369,120,178842,2,0,P|366:89|361:58,1,61.6250011754036,2|0,0:3|0:0,0:0:0:0:
334,194,179155,5,2,0:0:0:0:
241,184,179311,1,0,0:0:0:0:
174,247,179467,2,0,P|168:277|166:308,1,61.6250011754036,2|0,0:3|0:0,0:0:0:0:
117,114,179780,2,0,P|137:138|159:159,1,61.6250011754036,8|0,0:0|0:0,0:0:0:0:
200,76,180092,1,2,0:3:0:0:
76,207,180248,1,8,0:0:0:0:
251,260,180405,6,0,P|312:249|374:211,1,123.250002350807,8|2,0:1|0:3,0:0:0:0:
427,151,180873,1,0,0:0:0:0:
291,60,181030,2,0,P|259:60|228:65,1,61.6250011754036,8|0,0:0|0:0,0:0:0:0:
171,136,181342,2,0,P|187:163|206:188,1,61.6250011754036,2|0,0:3|0:0,0:0:0:0:
150,340,181655,5,2,0:0:0:0:
82,230,181811,1,0,0:0:0:0:
237,275,181967,1,2,0:3:0:0:
148,133,182123,1,0,0:0:0:0:
274,143,182280,2,0,P|296:120|317:88,1,61.6250011754036,8|0,0:0|0:0,0:0:0:0:
355,13,182592,1,2,0:3:0:0:
388,172,182748,1,8,0:0:0:0:
222,74,182905,6,0,P|223:132|211:198,1,123.250002350807,2|2,0:0|0:3,0:0:0:0:
183,284,183373,1,0,0:0:0:0:
123,212,183530,2,0,P|93:214|63:222,1,61.6250011754036,8|0,0:0|0:0,0:0:0:0:
183,284,183842,2,0,P|212:292|243:294,1,61.6250011754036,2|0,0:3|0:0,0:0:0:0:
313,233,184155,6,0,L|304:165,2,61.6250011754036,2|0|2,0:0|0:0|0:3,0:0:0:0:
333,323,184623,1,0,0:0:0:0:
391,136,184780,2,0,P|344:100|281:79,1,123.250002350807,8|2,0:0|0:3,0:0:0:0:
304,171,185248,1,8,0:2:0:0:
156,102,185405,6,0,P|163:68|174:40,1,61.6250011754036,2|0,0:0|0:0,0:0:0:0:
202,202,185717,2,0,P|212:230|218:261,1,61.6250011754036,2|0,0:3|0:0,0:0:0:0:
106,191,186030,2,0,L|42:182,2,61.6250011754036,8|0|2,0:0|0:0|0:3,0:0:0:0:
202,202,186498,1,0,0:0:0:0:
246,286,186655,6,0,L|310:277,2,61.6250011754036,2|0|2,0:0|0:0|0:3,0:0:0:0:
154,273,187123,1,0,0:0:0:0:
254,132,187280,2,0,P|267:161|278:193,1,61.6250011754036,8|0,0:2|0:0,0:0:0:0:
147,176,187592,1,2,0:3:0:0:
193,58,187748,1,8,0:2:0:0:
353,193,187905,6,0,L|414:162,1,61.6250011754036,2|2,0:0|0:0,0:0:0:0:
342,324,188217,2,0,L|399:361,1,61.6250011754036,2|2,0:0|0:0,0:0:0:0:
226,236,188530,2,0,B|209:225|198:212|198:212|178:250|192:300,2,123.250002350807,10|2|2,0:0|0:0|0:0,0:0:0:0:
263,164,189311,5,2,0:0:0:0:
114,210,189467,2,0,P|108:246|107:277,1,61.6250011754036,2|2,0:0|0:0,0:0:0:0:
263,164,189780,2,0,P|263:98|249:43,1,123.250002350807,10|2,0:0|0:0,0:0:0:0:
180,104,190248,1,0,0:0:0:0:
246,326,190405,5,12,0:1:0:0:
301,252,190561,1,0,0:0:0:0:
149,199,190717,2,0,P|150:229|159:267,1,61.6250011754036,2|0,0:3|0:0,0:0:0:0:
340,321,191030,2,0,L|356:194,1,123.250002350807,8|2,0:0|0:3,0:0:0:0:
367,107,191498,1,0,0:0:0:0:
260,222,191655,6,0,P|239:202|218:176,1,61.6250011754036,2|0,0:0|0:0,0:0:0:0:
187,20,191967,2,0,P|169:46|146:69,1,61.6250011754036,2|0,0:3|0:0,0:0:0:0:
65,205,192280,2,0,P|51:177|40:144,1,61.6250011754036,8|0,0:2|0:0,0:0:0:0:
133,153,192592,1,2,0:3:0:0:
103,313,192748,1,8,0:0:0:0:
176,256,192905,6,0,P|236:269|291:300,1,123.250002350807,2|2,0:0|0:3,0:0:0:0:
363,353,193373,1,0,0:0:0:0:
362,260,193530,2,0,P|367:228|374:197,1,61.6250011754036,8|0,0:0|0:0,0:0:0:0:
495,94,193842,2,0,P|501:124|506:154,1,61.6250011754036,2|0,0:3|0:0,0:0:0:0:
337,98,194155,6,0,P|367:102|397:108,2,61.6250011754036,2|0|2,0:0|0:0|0:3,0:0:0:0:
284,174,194623,1,0,0:0:0:0:
173,14,194780,2,0,L|191:139,1,123.250002350807,8|2,0:0|0:3,0:0:0:0:
206,226,195248,1,8,0:0:0:0:
118,193,195405,6,0,P|92:176|67:154,1,61.6250011754036,2|0,0:0|0:0,0:0:0:0:
133,274,195717,2,0,P|131:305|124:337,1,61.6250011754036,2|0,0:3|0:0,0:0:0:0:
206,226,196030,2,0,P|233:211|265:201,2,61.6250011754036,8|0|2,0:0|0:0|0:3,0:0:0:0:
268,294,196498,1,0,0:0:0:0:
272,101,196655,6,0,P|244:86|212:77,1,61.6250011754036,2|0,0:0|0:0,0:0:0:0:
288,199,196967,2,0,P|317:190|344:175,1,61.6250011754036,2|0,0:3|0:0,0:0:0:0:
181,168,197280,2,0,L|178:242,1,61.6250011754036,8|0,0:0|0:0,0:0:0:0:
177,321,197592,1,2,0:3:0:0:
90,187,197748,1,8,0:0:0:0:
42,273,197905,6,0,P|36:303|34:334,2,61.6250011754036,2|0|2,0:0|0:0|0:3,0:0:0:0:
113,89,198373,1,0,0:0:0:0:
113,89,198451,1,0,0:0:0:0:
113,89,198530,2,0,P|82:82|47:66,1,61.6250011754036,8|0,0:2|0:0,0:0:0:0:
208,122,198842,2,0,P|236:110|266:103,1,61.6250011754036,2|0,0:3|0:0,0:0:0:0:
359,101,199155,6,0,L|356:170,1,61.6250011754036,2|0,0:0|0:0,0:0:0:0:
231,271,199467,2,0,L|228:209,1,61.6250011754036,2|0,0:3|0:0,0:0:0:0:
384,70,199780,2,0,L|381:199,1,123.250002350807,8|2,0:0|0:3,0:0:0:0:
379,285,200248,1,8,0:0:0:0:
460,239,200405,5,2,0:0:0:0:
381,193,200561,1,0,0:0:0:0:
292,334,200717,2,0,P|287:298|286:268,1,61.6250011754036,2|0,0:3|0:0,0:0:0:0:
225,91,201030,2,0,P|212:152|186:207,1,123.250002350807,8|2,0:0|0:3,0:0:0:0:
131,132,201498,1,0,0:0:0:0:
310,61,201655,6,0,P|327:89|341:123,1,61.6250011754036,2|0,0:0|0:0,0:0:0:0:
407,261,201967,2,0,P|435:243|459:223,1,61.6250011754036,2|0,0:3|0:0,0:0:0:0:
295,223,202280,2,0,P|279:252|268:281,1,61.6250011754036,8|0,0:0|0:0,0:0:0:0:
245,368,202592,1,2,0:3:0:0:
184,183,202748,1,8,0:0:0:0:
354,280,202905,6,0,P|346:216|347:151,1,123.250002350807,2|2,0:0|0:3,0:0:0:0:
372,68,203373,1,0,0:0:0:0:
282,92,203530,2,0,P|259:77|231:52,1,61.6250011754036,8|0,0:0|0:0,0:0:0:0:
435,135,203842,1,2,0:3:0:0:
390,216,203998,1,0,0:0:0:0:
232,231,204155,6,0,P|233:203|241:166,2,61.6250011754036,2|0|2,0:0|0:0|0:3,0:0:0:0:
236,323,204623,1,0,0:0:0:0:
123,170,204780,2,0,P|84:220|38:260,1,123.250002350807,8|2,0:0|0:3,0:0:0:0:
17,169,205248,1,8,0:0:0:0:
175,63,205405,6,0,P|197:81|219:105,1,61.6250011754036,2|0,0:0|0:0,0:0:0:0:
189,258,205717,2,0,P|201:222|214:195,1,61.6250011754036,2|0,0:3|0:0,0:0:0:0:
307,70,206030,2,0,L|345:192,1,123.250002350807,8|2,0:0|0:3,0:0:0:0:
416,131,206498,1,0,0:0:0:0:
344,190,206655,5,2,0:0:0:0:
431,220,206811,1,0,0:0:0:0:
344,190,206967,1,2,0:3:0:0:
357,281,207123,1,0,0:0:0:0:
253,157,207280,2,0,L|243:223,1,61.6250011754036,8|0,0:0|0:0,0:0:0:0:
121,365,207592,2,0,P|109:337|100:306,1,61.6250011754036,2|8,0:3|0:0,0:0:0:0:
90,214,207905,5,2,0:0:0:0:
245,337,208061,1,2,0:0:0:0:
165,124,208217,2,0,P|182:147|199:178,1,61.6250011754036,2|2,0:0|0:0,0:0:0:0:
337,204,208530,2,0,B|351:111|351:111|326:131,2,123.250002350807,10|2|2,0:0|0:0|0:0,0:0:0:0:
425,177,209311,5,2,0:0:0:0:
343,316,209467,2,0,L|281:292,1,61.6250011754036,2|2,0:0|0:0,0:0:0:0:
130,340,209780,2,0,L|163:215,1,123.250002350807,10|2,0:0|0:3,0:0:0:0:
73,248,210248,1,8,0:2:0:0:
131,65,210405,6,0,P|162:78|189:94,1,61.6250011754036,12|0,0:1|0:0,0:0:0:0:
243,164,210717,2,0,L|307:143,1,61.6250011754036,2|0,0:0|0:0,0:0:0:0:
388,200,211030,1,8,0:2:0:0:
292,42,211342,1,2,0:0:0:0:
388,200,211655,5,10,0:0:0:0:
292,42,211967,1,2,0:0:0:0:
253,300,212280,2,0,P|242:265|235:228,1,61.6250011754036,8|0,0:2|0:0,0:0:0:0:
224,149,212592,1,2,0:0:0:0:
153,270,212748,1,8,0:2:0:0:
73,154,212905,5,10,0:0:0:0:
73,154,213217,2,0,P|74:119|80:85,1,61.6250011754036,2|0,0:0|0:0,0:0:0:0:
232,51,213530,1,8,0:2:0:0:
267,136,213686,2,0,P|271:166|272:197,2,61.6250011754036,0|2|8,0:0|0:0|0:0,0:0:0:0:
324,63,214155,6,0,L|385:67,2,61.6250011754036,2|0|10,0:0|0:0|0:0,0:0:0:0:
232,51,214623,1,0,0:0:0:0:
126,214,214780,2,0,P|106:150|98:86,1,123.250002350807,8|2,0:2|0:0,0:0:0:0:
185,126,215248,1,8,0:2:0:0:
174,286,215405,6,0,P|150:304|120:324,1,61.6250011754036,10|0,0:0|0:0,0:0:0:0:
227,209,215717,2,0,P|258:213|291:221,1,61.6250011754036,2|0,0:0|0:0,0:0:0:0:
344,313,216030,1,8,0:2:0:0:
341,128,216342,1,2,0:0:0:0:
344,313,216655,5,10,0:0:0:0:
341,128,216967,1,2,0:0:0:0:
166,190,217280,2,0,P|138:176|107:157,1,61.6250011754036,8|0,0:2|0:0,0:0:0:0:
231,54,217592,1,2,0:0:0:0:
275,208,217748,1,8,0:2:0:0:
353,38,217905,6,0,L|387:163,1,123.250002350807,10|2,0:0|0:0,0:0:0:0:
460,210,218373,1,0,0:0:0:0:
460,210,218451,1,0,0:0:0:0:
460,210,218530,2,0,P|454:240|449:276,1,61.6250011754036,8|0,0:2|0:0,0:0:0:0:
359,354,218842,2,0,P|354:323|348:293,1,61.6250011754036,2|8,0:0|0:0,0:0:0:0:
311,208,219155,6,0,L|247:218,2,61.6250011754036,2|0|10,0:0|0:0|0:0,0:0:0:0:
311,208,219623,1,0,0:0:0:0:
190,310,219780,2,0,L|254:320,1,61.6250011754036,8|0,0:2|0:0,0:0:0:0:
137,164,220092,2,0,P|113:183|91:204,1,61.6250011754036,2|8,0:0|0:2,0:0:0:0:
266,133,220405,6,0,P|257:62|243:11,1,123.250002350807,12|2,0:1|0:0,0:0:0:0:
243,12,220873,1,0,0:0:0:0:
359,90,221030,1,8,0:2:0:0:
315,269,221342,1,2,0:0:0:0:
359,90,221655,5,10,0:0:0:0:
315,269,221967,1,2,0:0:0:0:
171,151,222280,2,0,P|140:158|113:169,1,61.6250011754036,8|0,0:2|0:0,0:0:0:0:
191,308,222592,1,2,0:0:0:0:
271,170,222748,1,8,0:2:0:0:
316,358,222905,6,0,P|382:347|439:324,1,123.250002350807,10|2,0:0|0:0,0:0:0:0:
501,263,223373,1,0,0:0:0:0:
416,128,223530,2,0,P|409:153|405:188,2,61.6250011754036,8|0|2,0:2|0:0|0:0,0:0:0:0:
450,42,223998,1,8,0:0:0:0:
305,108,224155,6,0,P|278:91|256:72,1,61.6250011754036,2|0,0:0|0:0,0:0:0:0:
360,40,224467,1,10,0:0:0:0:
299,196,224623,1,0,0:0:0:0:
428,341,224780,2,0,P|439:278|437:216,1,123.250002350807,8|2,0:2|0:0,0:0:0:0:
359,268,225248,1,8,0:2:0:0:
412,116,225405,6,0,L|474:137,2,61.6250011754036,10|0|2,0:0|0:0|0:0,0:0:0:0:
320,108,225873,1,0,0:0:0:0:
206,264,226030,1,8,0:2:0:0:
179,81,226342,1,2,0:0:0:0:
206,264,226655,5,10,0:0:0:0:
179,81,226967,1,2,0:0:0:0:
316,205,227280,2,0,P|310:231|298:264,2,61.6250011754036,8|0|2,0:2|0:0|0:0,0:0:0:0:
327,113,227748,1,8,0:2:0:0:
147,214,227905,6,0,L|86:183,1,61.6250011754036,2|2,0:2|0:2,0:0:0:0:
158,345,228217,2,0,L|101:382,1,61.6250011754036,2|2,0:2|0:2,0:0:0:0:
274,257,228530,2,0,B|291:246|302:233|302:233|322:271|308:321,2,123.250002350807,10|2|2,0:2|0:2|0:2,0:0:0:0:
237,185,229311,5,2,0:2:0:0:
386,231,229467,2,0,P|392:267|393:298,1,61.6250011754036,2|2,0:2|0:2,0:0:0:0:
237,185,229780,2,0,P|237:119|251:64,1,123.250002350807,10|2,0:2|0:0,0:0:0:0:
336,132,230248,1,8,0:2:0:0:
309,239,230405,5,12,0:1:0:0:
309,239,230717,2,0,P|284:253|254:267,1,61.6250011754036,2|0,0:0|0:0,0:0:0:0:
158,101,231030,2,0,P|193:91|269:129,1,123.250002350807,8|2,0:2|0:0,0:0:0:0:
135,257,231655,5,10,0:0:0:0:
310,198,231967,1,2,0:0:0:0:
197,170,232280,1,8,0:2:0:0:
366,299,232592,2,0,P|398:288|426:272,1,61.6250011754036,2|8,0:0|0:2,0:0:0:0:
463,191,232905,6,0,P|451:148|389:101,1,123.250002350807,10|2,0:0|0:0,0:0:0:0:
254,226,233530,1,8,0:2:0:0:
174,380,233842,1,2,0:0:0:0:
86,351,233998,1,8,0:0:0:0:
86,259,234155,5,2,0:0:0:0:
174,230,234311,1,8,0:0:0:0:
229,305,234467,1,10,0:0:0:0:
210,81,234780,2,0,P|152:72|93:97,1,123.250002350807,8|2,0:2|0:0,0:0:0:0:
50,177,235248,1,8,0:2:0:0:
74,266,235405,5,10,0:0:0:0:
269,238,235717,2,0,P|283:262|297:300,1,61.6250011754036,2|0,0:0|0:0,0:0:0:0:
318,383,236030,1,8,0:2:0:0:
216,304,236342,1,2,0:0:0:0:
318,383,236655,5,10,0:0:0:0:
353,227,236967,1,2,0:0:0:0:
272,61,237280,2,0,P|243:108|257:175,1,123.250002350807,8|2,0:2|0:0,0:0:0:0:
323,126,237748,1,8,0:2:0:0:
147,186,237905,6,0,L|214:297,1,123.250002350807,10|2,0:0|0:0,0:0:0:0:
118,289,238373,1,0,0:0:0:0:
262,365,238530,2,0,P|305:329|337:266,1,123.250002350807,8|2,0:2|0:0,0:0:0:0:
420,234,238998,1,8,0:0:0:0:
344,180,239155,6,0,P|310:180|277:184,1,61.6250011754036,2|8,0:0|0:0,0:0:0:0:
420,234,239467,1,2,0:0:0:0:
275,64,239780,2,0,L|184:151,1,123.250002350807,8|2,0:2|0:0,0:0:0:0:
166,37,240248,1,8,0:2:0:0:
99,101,240405,6,0,L|37:76,2,61.6250011754036,10|0|2,0:0|0:0|0:0,0:0:0:0:
166,37,240873,1,0,0:0:0:0:
277,194,241030,2,0,P|302:234|293:318,1,123.250002350807,8|2,0:2|0:0,0:0:0:0:
213,265,241655,5,10,0:0:0:0:
337,241,241967,1,2,0:0:0:0:
192,177,242280,1,8,0:2:0:0:
242,100,242592,2,0,P|274:104|309:113,1,61.6250011754036,2|8,0:0|0:2,0:0:0:0:
382,158,242905,6,0,L|399:285,1,123.250002350807,2|2,0:0|0:0,0:0:0:0:
374,78,243530,1,8,0:2:0:0:
280,237,243842,2,0,P|248:233|213:224,1,61.6250011754036,2|8,0:0|0:0,0:0:0:0:
171,146,244155,6,0,P|200:138|231:135,2,61.6250011754036,2|0|10,0:0|0:0|0:0,0:0:0:0:
32,269,244780,2,0,P|8:210|4:144,1,123.250002350807,8|2,0:2|0:0,0:0:0:0:
89,184,245248,1,8,0:2:0:0:
153,295,245405,6,0,L|137:357,3,61.6250011754036,10|0|2|0,0:0|0:0|0:0|0:0,0:0:0:0:
267,254,246030,2,0,L|251:194,3,61.6250011754036,8|0|2|8,0:2|0:0|0:0|0:0,0:0:0:0:
356,321,246655,6,0,L|421:332,3,61.6250011754036,2|0|2|0,0:0|0:0|0:0|0:0,0:0:0:0:
490,184,247280,2,0,L|425:195,3,61.6250011754036,8|0|2|8,0:2|0:0|0:0|0:2,0:0:0:0:
341,163,247905,6,0,P|349:95|371:40,1,123.250002350807,10|2,0:0|0:0,0:0:0:0:
154,107,248530,1,8,0:2:0:0:
248,139,248842,1,2,0:0:0:0:
87,176,249155,6,0,L|41:216,2,61.6250011754036,10|0|2,0:0|0:0|0:0,0:0:0:0:
157,327,249780,2,0,L|111:367,2,61.6250011754036,8|0|2,0:2|0:0|0:0,0:0:0:0:
225,265,250248,1,8,0:2:0:0:
291,329,250405,5,8,0:0:0:0:
256,192,250561,12,2,253842,0:2:0:0:
