osu file format v14

[General]
AudioFilename: audio.mp3
AudioLeadIn: 0
PreviewTime: 170405
Countdown: 0
SampleSet: Soft
StackLeniency: 0.5
Mode: 0
LetterboxInBreaks: 0
WidescreenStoryboard: 0

[Editor]
Bookmarks: 100405,110405,130405,130561,131030,131186,131498,131655,131811,131967,132123,132280,132436,132592,150405,157905
DistanceSpacing: 1
BeatDivisor: 4
GridSize: 4
TimelineZoom: 1.9

[Metadata]
Title:Grim
TitleUnicode:Grim
Artist:Raujika
ArtistUnicode:Raujika
Creator:Beomsan
Version:Abnormal
Source:
Tags:Palette Sounds Lost Imagination Sounds of color vol.2
BeatmapID:1077048
BeatmapSetID:505067

[Difficulty]
HPDrainRate:4
CircleSize:3.3
OverallDifficulty:4
ApproachRate:4.5
SliderMultiplier:2.2
SliderTickRate:1

[Events]
//Background and Video events
0,0,"bg-4.png",0,0
//Break Periods
2,100605,109145
2,150604,156645
//Storyboard Layer 0 (Background)
//Storyboard Layer 1 (Fail)
//Storyboard Layer 2 (Pass)
//Storyboard Layer 3 (Foreground)
//Storyboard Sound Samples

[TimingPoints]
30405,625,4,3,2,60,1,0
30405,-117.647058823529,4,3,2,60,0,0
40405,-117.647058823529,4,2,2,80,0,1
60405,-117.647058823529,4,3,2,40,0,0
60873,-117.647058823529,4,3,2,5,0,0
61030,-117.647058823529,4,3,2,60,0,0
80405,-117.647058823529,4,2,2,80,0,1
100405,-117.647058823529,4,2,2,80,0,0
101030,-117.647058823529,4,3,2,60,0,0
117905,-117.647058823529,4,3,2,30,0,0
119467,-117.647058823529,4,3,2,60,0,0
124701,-117.647058823529,4,3,2,5,0,0
124780,-117.647058823529,4,3,2,60,0,0
157905,-117.647058823529,4,2,1,60,0,0
159780,-117.647058823529,4,3,2,60,0,0
160405,-117.647058823529,4,3,2,60,0,0
170405,-117.647058823529,4,2,2,80,0,1
210405,-117.647058823529,4,3,2,80,0,0
250405,-117.647058823529,4,3,2,80,0,0

[Colours]
Combo1 : 180,104,255
Combo2 : 128,128,192
Combo3 : 0,128,192

[HitObjects]
241,299,30405,6,0,B|319:270|350:333|424:293,1,187.000003566742,10|8,0:0|0:2,0:0:0:0:
374,213,31342,1,2,0:0:0:0:
318,137,31655,2,0,P|319:90|345:52,2,93.500001783371,2|10|8,0:0|0:0|0:2,0:0:0:0:
251,202,32592,2,0,L|206:190,1,46.7500008916855,2|8,0:0|0:2,0:0:0:0:
160,178,32905,6,0,L|190:371,1,187.000003566742,10|8,0:0|0:2,0:0:0:0:
98,337,33842,1,2,0:0:0:0:
47,257,34155,2,0,B|13:288|13:288|1:334,2,93.500001783371,2|10|8,0:0|0:0|0:2,0:0:0:0:
117,195,35092,2,0,L|109:143,1,46.7500008916855,2|8,0:0|0:2,0:0:0:0:
83,109,35405,6,0,B|123:102|144:79|144:79|196:97|211:67|262:87,1,187.000003566742,10|8,0:0|0:2,0:0:0:0:
346,122,36342,1,2,0:0:0:0:
391,203,36655,2,0,L|381:298,2,93.500001783371,2|10|8,0:0|0:0|0:2,0:0:0:0:
346,122,37592,2,0,P|325:137|311:158,1,46.7500008916855,2|8,0:0|0:2,0:0:0:0:
297,198,37905,6,0,B|287:290|287:290|286:343|329:375,2,187.000003566742,10|8|10,0:0|0:2|0:0,0:0:0:0:
395,38,39780,2,0,B|356:61|356:61|309:53,1,93.500001783371,6|2,0:1|0:0,0:0:0:0:
236,112,40405,6,0,B|117:99|117:99|58:131,1,187.000003566742,12|8,0:1|2:0,0:0:0:0:
26,219,41342,1,2,0:3:0:0:
79,295,41655,2,0,L|172:305,2,93.500001783371,2|2|8,0:0|0:3|0:0,0:0:0:0:
26,219,42592,2,0,L|37:167,1,46.7500008916855,2|8,0:3|0:0,0:0:0:0:
57,131,42905,6,0,B|135:102|166:165|240:125,1,187.000003566742,2|8,0:0|0:0,0:0:0:0:
311,65,43842,1,2,0:3:0:0:
402,85,44155,2,0,B|436:137|436:137|408:262,1,187.000003566742,2|8,0:0|0:0,0:0:0:0:
386,349,45092,2,0,P|366:340|342:322,1,46.7500008916855,2|8,0:3|0:0,0:0:0:0:
312,292,45405,6,0,P|225:271|155:331,1,187.000003566742,2|8,0:0|0:0,0:0:0:0:
90,262,46342,1,2,0:3:0:0:
28,191,46655,2,0,L|48:93,2,93.500001783371,2|2|8,0:0|0:3|0:0,0:0:0:0:
90,262,47592,2,0,L|140:247,1,46.7500008916855,2|8,0:3|0:0,0:0:0:0:
177,228,47905,6,0,B|225:218|225:218|268:241,2,93.500001783371,2|2|8,0:0|0:3|0:0,0:0:0:0:
174,321,48842,1,2,0:3:0:0:
263,349,49155,2,0,L|455:335,1,187.000003566742,2|8,0:0|0:0,0:0:0:0:
410,250,50092,1,2,0:3:0:0:
456,168,50405,6,0,P|457:77|382:25,1,187.000003566742,2|8,0:3|0:0,0:0:0:0:
307,77,51342,1,2,0:3:0:0:
223,34,51655,2,0,B|209:79|209:79|218:127,2,93.500001783371,2|2|8,0:0|0:3|0:0,0:0:0:0:
307,77,52592,2,0,L|315:124,1,46.7500008916855,2|8,0:3|0:0,0:0:0:0:
295,165,52905,6,0,L|105:142,1,187.000003566742,2|8,0:0|0:0,0:0:0:0:
47,212,53842,1,2,0:3:0:0:
67,303,54155,2,0,P|108:280|132:238,2,93.500001783371,2|2|8,0:0|0:3|0:0,0:0:0:0:
130,371,55092,1,2,0:3:0:0:
206,316,55405,6,0,L|394:334,1,187.000003566742,2|8,0:0|0:0,0:0:0:0:
365,245,56342,1,2,0:3:0:0:
417,167,56655,2,0,P|391:128|385:80,2,93.500001783371,2|2|8,0:0|0:3|0:0,0:0:0:0:
365,245,57592,2,0,L|320:230,1,46.7500008916855,2|8,0:3|0:0,0:0:0:0:
274,219,57905,6,0,B|186:186|186:186|102:228,1,187.000003566742,2|10,0:0|0:0,0:0:0:0:
158,302,58842,1,2,0:0:0:0:
218,373,59155,2,0,L|414:342,1,187.000003566742,2|10,0:0|0:0,0:0:0:0:
493,320,60092,1,2,0:0:0:0:
425,254,60405,6,0,B|417:219|393:200|393:200|372:175|367:137|374:111|395:83,1,187.000003566742,0|6,0:0|0:3,0:0:0:0:
466,143,61342,1,2,0:0:0:0:
466,49,61655,2,0,P|436:15|390:4,1,93.500001783371,2|10,0:0|0:0,0:0:0:0:
304,40,62280,1,8,0:2:0:0:
211,28,62592,2,0,L|154:42,1,46.7500008916855,2|8,0:0|0:2,0:0:0:0:
138,77,62905,6,0,B|102:149|102:149|114:263,1,187.000003566742,10|8,0:0|0:2,0:0:0:0:
81,344,63842,1,2,0:0:0:0:
174,351,64155,2,0,B|281:312|281:312|350:339,1,187.000003566742,2|8,0:0|0:2,0:0:0:0:
430,292,65092,2,0,L|442:238,1,46.7500008916855,2|8,0:0|0:2,0:0:0:0:
453,201,65405,6,0,P|432:114|344:85,1,187.000003566742,10|8,0:0|0:2,0:0:0:0:
262,44,66342,1,2,0:0:0:0:
190,104,66655,2,0,B|171:146|171:146|183:192,2,93.500001783371,2|10|8,0:0|0:0|0:2,0:0:0:0:
262,44,67592,2,0,L|225:17,1,46.7500008916855,2|8,0:0|0:2,0:0:0:0:
177,12,67905,6,0,P|90:33|47:115,1,187.000003566742,10|8,0:0|0:2,0:0:0:0:
64,206,68842,1,2,0:0:0:0:
132,269,69155,2,0,B|134:316|134:316|110:359,2,93.500001783371,2|10|2,0:0|0:0|0:0,0:0:0:0:
64,206,70092,2,0,P|81:188|100:178,1,46.7500008916855,2|0,0:0|0:0,0:0:0:0:
146,171,70405,6,0,B|180:174|203:198|203:198|234:167|272:158|315:176,1,187.000003566742,10|8,0:0|0:2,0:0:0:0:
271,258,71342,1,2,0:0:0:0:
320,337,71655,2,0,B|368:341|368:341|411:318,2,93.500001783371,2|10|8,0:0|0:0|0:2,0:0:0:0:
271,258,72592,2,0,L|233:214,1,46.7500008916855,2|8,0:0|0:2,0:0:0:0:
198,200,72905,6,0,P|254:128|224:45,1,187.000003566742,10|8,0:0|0:2,0:0:0:0:
134,18,73842,1,2,0:0:0:0:
57,72,74155,2,0,L|71:165,2,93.500001783371,2|10|8,0:0|0:0|0:2,0:0:0:0:
134,18,75092,2,0,L|182:31,1,46.7500008916855,2|8,0:0|0:2,0:0:0:0:
215,60,75405,6,0,B|304:33|304:33|401:49,1,187.000003566742,10|8,0:0|0:2,0:0:0:0:
458,118,76342,1,2,0:0:0:0:
421,204,76655,2,0,L|452:293,2,93.500001783371,2|10|8,0:0|0:0|0:2,0:0:0:0:
340,155,77592,2,0,P|329:178|324:207,1,46.7500008916855,2|8,0:0|0:2,0:0:0:0:
317,245,77905,6,0,B|263:234|263:234|219:249|219:249|134:232,1,187.000003566742,10|8,0:0|0:2,0:0:0:0:
108,142,78842,1,2,0:0:0:0:
144,55,79155,2,0,P|194:54|232:31,2,93.500001783371,2|10|8,0:0|0:0|0:2,0:0:0:0:
108,142,80092,2,0,P|88:130|70:110,2,46.7500008916855,2|8|12,0:0|0:2|0:1,0:0:0:0:
196,173,80717,6,0,L|248:163,1,46.7500008916855,2|0,0:3|0:0,0:0:0:0:
281,189,81030,2,0,L|314:375,1,187.000003566742,8|2,0:0|0:0,0:0:0:0:
393,324,81967,1,2,0:3:0:0:
431,238,82280,2,0,L|442:92,1,140.250002675057,8|8,0:0|0:0,0:0:0:0:
416,60,82905,6,0,B|356:46|345:91|280:75,1,140.250002675057,2|0,0:0|0:0,0:0:0:0:
234,62,83530,2,0,L|223:157,1,93.500001783371,8|2,0:0|0:3,0:0:0:0:
270,236,84155,2,0,P|289:225|315:216,2,46.7500008916855,2|0|2,0:0|0:0|0:3,0:0:0:0:
211,309,84780,2,0,P|166:308|126:280,1,93.500001783371,8|2,0:0|0:3,0:0:0:0:
74,203,85405,6,0,L|95:58,1,140.250002675057,2|0,0:0|0:0,0:0:0:0:
129,33,86030,2,0,P|168:57|215:53,1,93.500001783371,8|2,0:0|0:3,0:0:0:0:
274,124,86655,2,0,P|336:89|403:103,1,140.250002675057,2|0,0:0|0:0,0:0:0:0:
437,131,87280,2,0,L|427:273,1,140.250002675057,8|8,0:0|0:0,0:0:0:0:
393,303,87905,6,0,B|319:342|288:279|210:308,1,187.000003566742,2|8,0:0|0:0,0:0:0:0:
131,357,88842,1,2,0:3:0:0:
66,288,89155,2,0,L|76:193,1,93.500001783371,2|2,0:0|0:3,0:0:0:0:
44,106,89780,2,0,P|85:81|104:40,1,93.500001783371,8|2,0:0|0:3,0:0:0:0:
148,53,90248,1,8,0:0:0:0:
193,66,90405,6,0,B|241:71|241:71|284:45,1,93.500001783371,2|2,0:3|0:3,0:0:0:0:
371,67,91030,2,0,L|407:252,1,187.000003566742,8|2,0:0|0:0,0:0:0:0:
344,320,91967,1,2,0:3:0:0:
254,291,92280,2,0,P|173:277|79:322,1,187.000003566742,8|2,0:0|0:0,0:0:0:0:
70,227,93217,6,0,L|77:163,1,46.7500008916855,2|0,0:3|0:0,0:0:0:0:
88,136,93530,2,0,P|128:108|145:69,1,93.500001783371,8|2,0:0|0:3,0:0:0:0:
237,52,94155,2,0,P|230:28|214:6,2,46.7500008916855,2|0|2,0:0|0:0|0:3,0:0:0:0:
224,144,94780,1,8,0:0:0:0:
286,213,95092,2,0,L|336:200,1,46.7500008916855,2|8,0:3|0:0,0:0:0:0:
368,172,95405,6,0,P|348:234|370:303,1,140.250002675057,2|0,0:0|0:0,0:0:0:0:
397,341,96030,2,0,B|340:314|326:353|260:328,1,140.250002675057,8|0,0:0|0:0,0:0:0:0:
234,288,96655,2,0,P|167:284|117:333,1,140.250002675057,2|0,0:0|0:0,0:0:0:0:
105,377,97280,2,0,L|97:234,1,140.250002675057,8|8,0:0|0:0,0:0:0:0:
114,193,97905,6,0,B|153:164|153:164|202:169,2,93.500001783371,2|2|10,0:0|0:0|0:0,0:0:0:0:
29,153,98842,1,2,0:0:0:0:
59,64,99155,2,0,L|136:10,2,93.500001783371,2|2|10,0:0|0:0|0:0,0:0:0:0:
29,153,100092,2,0,L|36:209,1,46.7500008916855,2|8,0:3|0:0,0:0:0:0:
44,245,100405,5,12,0:1:0:0:
82,101,110405,6,0,B|172:124|172:124|229:47,1,187.000003566742,10|8,0:0|0:2,0:0:0:0:
314,14,111342,1,2,0:0:0:0:
396,57,111655,2,0,L|413:158,1,93.500001783371,2|2,0:0|0:0,0:0:0:0:
432,240,112280,1,8,0:2:0:0:
371,311,112592,2,0,L|327:297,1,46.7500008916855,2|8,0:0|0:2,0:0:0:0:
295,261,112905,6,0,P|241:330|150:316,1,187.000003566742,10|8,0:0|0:2,0:0:0:0:
89,246,113842,1,2,0:0:0:0:
93,152,114155,2,0,L|111:57,2,93.500001783371,2|10|8,0:0|0:0|0:2,0:0:0:0:
89,246,115092,2,0,P|114:245|138:234,1,46.7500008916855,2|8,0:0|0:2,0:0:0:0:
175,215,115405,6,0,B|253:186|284:249|358:209,1,187.000003566742,10|8,0:0|0:2,0:0:0:0:
418,139,116342,1,2,0:0:0:0:
382,52,116655,2,0,P|343:78|326:122,1,93.500001783371,2|2,0:0|0:0,0:0:0:0:
357,209,117280,1,8,0:2:0:0:
332,298,117592,2,0,L|285:292,1,46.7500008916855,2|8,0:0|0:2,0:0:0:0:
244,269,117905,6,0,B|154:255|154:255|81:326,2,187.000003566742,2|8|2,0:0|0:2|0:0,0:0:0:0:
293,189,119467,2,0,L|281:94,1,93.500001783371,2|8,0:0|0:2,0:0:0:0:
198,51,120092,2,0,L|150:66,1,46.7500008916855,2|8,0:0|0:2,0:0:0:0:
108,52,120405,6,0,B|128:143|128:143|73:221,1,187.000003566742,10|8,0:0|0:2,0:0:0:0:
24,299,121342,1,2,0:0:0:0:
85,369,121655,2,0,L|182:355,1,93.500001783371,2|10,0:0|0:0,0:0:0:0:
268,335,122280,1,8,0:2:0:0:
321,258,122592,2,0,L|368:268,1,46.7500008916855,2|8,0:0|0:2,0:0:0:0:
412,278,122905,6,0,P|470:210|436:126,1,187.000003566742,10|8,0:0|0:2,0:0:0:0:
352,87,123842,1,2,0:0:0:0:
261,61,124155,2,0,L|169:85,2,93.500001783371,2|10|8,0:0|0:0|0:2,0:0:0:0:
352,87,125092,2,0,P|345:108|329:132,1,46.7500008916855,2|8,0:0|0:2,0:0:0:0:
301,164,125405,6,0,P|276:244|331:325,1,187.000003566742,10|8,0:0|0:2,0:0:0:0:
247,367,126342,1,2,0:0:0:0:
160,331,126655,2,0,L|62:350,2,93.500001783371,2|10|8,0:0|0:0|0:2,0:0:0:0:
208,251,127592,2,0,L|188:208,1,46.7500008916855,2|8,0:0|0:2,0:0:0:0:
168,165,127905,6,0,B|183:72|183:72|271:37,1,187.000003566742,10|8,0:0|0:2,0:0:0:0:
348,87,128842,1,2,0:0:0:0:
427,38,129155,2,0,L|447:133,1,93.500001783371,2|10,0:0|0:0,0:0:0:0:
473,219,129780,1,8,0:2:0:0:
419,295,130092,2,0,L|367:281,1,46.7500008916855,2|8,0:0|0:2,0:0:0:0:
337,253,130405,6,0,L|280:263,1,46.7500008916855,12|2,0:1|0:0,0:0:0:0:
161,315,131030,2,0,L|104:325,1,46.7500008916855,2|2,0:1|0:0,0:0:0:0:
49,198,131655,6,0,L|45:150,1,46.7500008916855,2|0,0:0|0:0,0:0:0:0:
74,114,131967,2,0,L|78:66,1,46.7500008916855,2|0,0:0|0:0,0:0:0:0:
55,17,132280,1,8,0:2:0:0:
190,146,132905,6,0,B|232:127|232:127|269:156|269:156|314:133,1,140.250002675057,2|0,0:1|0:0,0:0:0:0:
335,94,133530,2,0,L|352:197,1,93.500001783371,8|2,0:2|0:0,0:0:0:0:
428,236,134155,2,0,P|407:271|404:323,1,93.500001783371,12|2,0:1|0:0,0:0:0:0:
314,351,134780,1,10,0:1:0:0:
222,333,135092,2,0,L|169:337,1,46.7500008916855,0|0,0:0|0:0,0:0:0:0:
128,341,135405,6,0,B|95:253|95:253|125:163,1,187.000003566742,2|8,0:1|0:2,0:0:0:0:
181,90,136342,1,2,0:0:0:0:
270,118,136655,2,0,L|368:99,2,93.500001783371,2|10|8,0:0|0:0|0:2,0:0:0:0:
181,90,137592,2,0,L|190:34,1,46.7500008916855,2|8,0:0|0:2,0:0:0:0:
143,29,137905,6,0,P|59:67|46:153,1,187.000003566742,10|8,0:0|0:2,0:0:0:0:
68,194,138686,2,0,L|56:240,1,46.7500008916855,0|2,0:0|0:0,0:0:0:0:
27,328,139155,2,0,B|120:312|120:312|203:354,1,187.000003566742,2|8,0:0|0:2,0:0:0:0:
276,296,140092,1,2,0:0:0:0:
350,352,140405,6,0,P|410:285|396:194,1,187.000003566742,10|8,0:0|0:2,0:0:0:0:
335,123,141342,1,2,0:0:0:0:
253,76,141655,2,0,L|157:90,2,93.500001783371,2|10|8,0:0|0:0|0:2,0:0:0:0:
241,168,142592,2,0,L|195:176,1,46.7500008916855,2|8,0:0|0:2,0:0:0:0:
149,186,142905,6,0,B|87:256|87:256|104:347,1,187.000003566742,10|8,0:0|0:2,0:0:0:0:
188,307,143842,1,2,0:0:0:0:
267,356,144155,2,0,L|362:337,1,93.500001783371,2|10,0:0|0:0,0:0:0:0:
448,311,144780,1,8,0:2:0:0:
378,248,145092,2,0,L|383:198,1,46.7500008916855,2|8,0:0|0:2,0:0:0:0:
389,155,145405,6,0,P|300:148|266:64,1,187.000003566742,10|8,0:0|0:2,0:0:0:0:
181,25,146342,1,2,0:0:0:0:
91,51,146655,2,0,L|73:144,2,93.500001783371,2|10|8,0:0|0:0|0:2,0:0:0:0:
164,109,147592,2,0,L|155:156,1,46.7500008916855,2|8,0:0|0:2,0:0:0:0:
145,200,147905,6,0,B|136:276|136:276|226:346,1,187.000003566742,10|8,0:0|0:2,0:0:0:0:
316,351,148842,1,2,0:0:0:0:
403,316,149155,2,0,B|431:279|431:279|435:226,2,93.500001783371,2|10|8,0:0|0:0|0:2,0:0:0:0:
316,351,150092,2,0,P|312:327|316:302,2,46.7500008916855,2|8|0,0:0|0:2|0:0,0:0:0:0:
337,45,157905,6,0,B|372:92|372:92|354:235,1,187.000003566742,2|2,0:0|0:0,0:0:0:0:
285,281,158842,1,2,0:0:0:0:
193,298,159155,2,0,L|3:262,1,187.000003566742,2|2,0:0|0:0,0:0:0:0:
61,185,160092,2,0,L|52:137,1,46.7500008916855,2|8,0:0|0:2,0:0:0:0:
43,92,160405,6,0,B|133:114|133:114|208:49,1,187.000003566742,10|8,0:0|0:2,0:0:0:0:
290,16,161342,1,2,0:0:0:0:
378,45,161655,2,0,L|428:130,1,93.500001783371,2|10,0:0|0:0,0:0:0:0:
479,202,162280,1,8,0:2:0:0:
417,272,162592,2,0,L|431:321,1,46.7500008916855,2|8,0:0|0:2,0:0:0:0:
444,361,162905,6,0,P|364:320|282:358,1,187.000003566742,10|8,0:0|0:2,0:0:0:0:
222,286,163842,1,2,0:0:0:0:
165,211,164155,2,0,L|177:162,2,46.7500008916855,2|0|10,0:0|0:0|0:0,0:0:0:0:
85,161,164780,2,0,P|98:118|133:85,1,93.500001783371,8|2,0:2|0:0,0:0:0:0:
219,49,165405,6,0,B|302:91|302:91|385:46,1,187.000003566742,10|8,0:0|0:2,0:0:0:0:
493,198,166655,2,0,B|410:156|410:156|327:201,1,187.000003566742,2|8,0:0|0:2,0:0:0:0:
282,282,167592,2,0,L|268:326,1,46.7500008916855,2|8,0:0|0:2,0:0:0:0:
220,325,167905,6,0,B|142:296|111:359|37:319,1,187.000003566742,2|2,0:2|0:2,0:0:0:0:
31,227,168842,1,2,0:2:0:0:
62,138,169155,2,0,L|58:88,2,46.7500008916855,10|0|2,0:0|0:0|0:0,0:0:0:0:
127,204,169780,2,0,B|172:208|172:208|210:177,1,93.500001783371,8|2,0:2|0:0,0:0:0:0:
276,112,170405,6,0,B|395:99|395:99|454:131,1,187.000003566742,12|8,0:1|0:0,0:0:0:0:
486,219,171342,1,2,0:3:0:0:
433,295,171655,2,0,L|340:305,2,93.500001783371,2|2|8,0:0|0:3|0:0,0:0:0:0:
486,219,172592,2,0,L|475:167,1,46.7500008916855,2|8,0:3|0:0,0:0:0:0:
455,131,172905,6,0,B|377:102|346:165|272:125,1,187.000003566742,2|8,0:0|0:0,0:0:0:0:
201,65,173842,1,2,0:3:0:0:
110,85,174155,2,0,B|76:137|76:137|104:262,1,187.000003566742,2|8,0:0|0:0,0:0:0:0:
126,349,175092,2,0,P|146:340|170:322,1,46.7500008916855,2|8,0:3|0:2,0:0:0:0:
200,292,175405,6,0,P|287:271|357:331,1,187.000003566742,2|8,0:0|0:0,0:0:0:0:
422,262,176342,1,2,0:3:0:0:
484,191,176655,2,0,L|464:93,2,93.500001783371,2|2|0,0:0|0:3|0:0,0:0:0:0:
422,262,177592,2,0,L|372:247,1,46.7500008916855,2|8,0:3|0:0,0:0:0:0:
335,228,177905,6,0,B|287:218|287:218|244:241,2,93.500001783371,2|2|8,0:0|0:3|0:2,0:0:0:0:
338,321,178842,1,2,0:3:0:0:
249,349,179155,2,0,L|57:335,1,187.000003566742,2|8,0:0|0:0,0:0:0:0:
93,247,180092,1,2,0:3:0:0:
42,168,180405,6,0,P|41:77|116:25,1,187.000003566742,8|8,0:1|0:0,0:0:0:0:
192,74,181342,1,2,0:3:0:0:
274,29,181655,2,0,B|288:74|288:74|279:122,2,93.500001783371,2|2|8,0:0|0:3|0:0,0:0:0:0:
192,74,182592,2,0,L|184:121,1,46.7500008916855,2|8,0:3|0:0,0:0:0:0:
205,161,182905,6,0,L|395:138,1,187.000003566742,2|8,0:0|0:0,0:0:0:0:
454,206,183842,1,2,0:3:0:0:
431,296,184155,2,0,P|390:273|366:231,2,93.500001783371,2|2|8,0:0|0:3|0:0,0:0:0:0:
380,375,185092,1,2,0:3:0:0:
307,317,185405,6,0,L|119:335,1,187.000003566742,2|8,0:0|0:0,0:0:0:0:
147,245,186342,1,2,0:3:0:0:
95,167,186655,2,0,P|121:128|127:80,2,93.500001783371,2|2|8,0:0|0:3|0:2,0:0:0:0:
147,245,187592,2,0,L|192:230,1,46.7500008916855,2|8,0:3|0:2,0:0:0:0:
238,219,187905,6,0,B|326:186|326:186|410:228,1,187.000003566742,2|10,0:0|0:0,0:0:0:0:
354,302,188842,1,2,0:0:0:0:
447,308,189155,2,0,L|434:119,1,187.000003566742,2|10,0:0|0:0,0:0:0:0:
410,30,190092,1,2,0:0:0:0:
330,79,190405,5,12,0:1:0:0:
316,173,190717,2,0,L|264:163,1,46.7500008916855,2|0,0:3|0:0,0:0:0:0:
231,189,191030,2,0,B|198:251|198:251|244:294|226:358,1,187.000003566742,8|2,0:0|0:0,0:0:0:0:
138,324,191967,1,2,0:3:0:0:
60,271,192280,2,0,P|36:209|64:142,1,140.250002675057,8|8,0:2|0:0,0:0:0:0:
96,111,192905,6,0,B|156:97|167:142|232:126,1,140.250002675057,2|0,0:0|0:0,0:0:0:0:
263,90,193530,2,0,L|274:185,1,93.500001783371,8|2,0:0|0:3,0:0:0:0:
221,260,194155,2,0,P|202:249|176:240,2,46.7500008916855,2|0|2,0:0|0:0|0:3,0:0:0:0:
301,309,194780,2,0,P|346:308|386:280,1,93.500001783371,8|2,0:0|0:3,0:0:0:0:
438,203,195405,6,0,L|417:58,1,140.250002675057,2|0,0:0|0:0,0:0:0:0:
383,33,196030,2,0,P|344:57|297:53,1,93.500001783371,8|2,0:0|0:3,0:0:0:0:
238,124,196655,2,0,P|176:89|109:103,1,140.250002675057,2|0,0:0|0:0,0:0:0:0:
75,131,197280,2,0,L|85:273,1,140.250002675057,8|8,0:0|0:0,0:0:0:0:
119,303,197905,6,0,B|193:342|224:279|302:308,1,187.000003566742,2|8,0:0|0:2,0:0:0:0:
381,357,198842,1,2,0:3:0:0:
446,288,199155,2,0,L|436:193,1,93.500001783371,2|2,0:0|0:3,0:0:0:0:
468,106,199780,2,0,P|427:81|408:40,1,93.500001783371,8|2,0:0|0:3,0:0:0:0:
364,53,200248,1,8,0:0:0:0:
319,66,200405,6,0,B|271:71|271:71|228:45,1,93.500001783371,2|2,0:0|0:3,0:0:0:0:
141,67,201030,2,0,L|105:252,1,187.000003566742,8|2,0:0|0:0,0:0:0:0:
168,320,201967,1,2,0:3:0:0:
258,291,202280,2,0,P|339:277|433:322,1,187.000003566742,8|2,0:0|0:0,0:0:0:0:
442,227,203217,6,0,L|435:163,1,46.7500008916855,2|0,0:3|0:0,0:0:0:0:
424,136,203530,2,0,P|384:108|367:69,1,93.500001783371,8|2,0:0|0:3,0:0:0:0:
275,52,204155,2,0,P|282:28|298:6,2,46.7500008916855,2|0|2,0:0|0:0|0:3,0:0:0:0:
288,144,204780,1,8,0:0:0:0:
226,213,205092,2,0,L|176:200,1,46.7500008916855,2|8,0:3|0:0,0:0:0:0:
144,172,205405,6,0,P|164:234|142:303,1,140.250002675057,2|0,0:0|0:0,0:0:0:0:
115,341,206030,2,0,B|172:314|186:353|252:328,1,140.250002675057,8|0,0:0|0:0,0:0:0:0:
278,288,206655,2,0,P|345:284|395:333,1,140.250002675057,2|0,0:0|0:0,0:0:0:0:
407,377,207280,2,0,L|415:234,1,140.250002675057,8|8,0:0|0:0,0:0:0:0:
398,193,207905,6,0,B|359:164|359:164|310:169,2,93.500001783371,2|2|10,0:0|0:0|0:0,0:0:0:0:
483,153,208842,1,2,0:0:0:0:
453,64,209155,2,0,L|376:10,2,93.500001783371,2|2|10,0:0|0:0|0:0,0:0:0:0:
483,153,210092,2,0,L|476:209,1,46.7500008916855,2|8,0:3|0:2,0:0:0:0:
468,245,210405,5,12,0:1:0:0:
407,315,210717,2,0,B|366:294|366:294|326:318,1,93.500001783371,2|8,0:0|0:2,0:0:0:0:
250,375,211342,1,2,0:0:0:0:
169,327,211655,2,0,L|182:227,2,93.500001783371,10|2|8,0:0|0:0|0:2,0:0:0:0:
86,282,212592,1,2,0:0:0:0:
48,196,212905,6,0,B|64:104|64:104|147:54,1,187.000003566742,10|8,0:0|0:2,0:0:0:0:
221,108,213842,1,2,0:0:0:0:
299,56,214155,2,0,L|344:38,2,46.7500008916855,2|0|10,0:0|0:0|0:0,0:0:0:0:
221,108,214780,2,0,P|255:140|299:150,1,93.500001783371,8|2,0:2|0:0,0:0:0:0:
391,131,215405,6,0,L|412:319,1,187.000003566742,10|8,0:0|0:2,0:0:0:0:
341,378,216342,1,2,0:0:0:0:
251,350,216655,2,0,B|219:315|219:315|216:263,2,93.500001783371,10|2|8,0:0|0:0|0:2,0:0:0:0:
302,271,217592,1,2,0:0:0:0:
297,177,217905,6,0,P|250:99|162:104,1,187.000003566742,10|8,0:0|0:2,0:0:0:0:
93,165,218842,1,2,0:0:0:0:
65,254,219155,2,0,L|59:306,2,46.7500008916855,2|0|10,0:0|0:0|0:0,0:0:0:0:
158,242,219780,2,0,L|147:335,1,93.500001783371,8|2,0:2|0:0,0:0:0:0:
230,376,220405,5,12,0:1:0:0:
320,354,220717,2,0,B|361:333|361:333|384:292,1,93.500001783371,2|8,0:0|0:2,0:0:0:0:
394,198,221342,1,2,0:0:0:0:
339,121,221655,2,0,L|236:114,2,93.500001783371,10|2|8,0:0|0:0|0:2,0:0:0:0:
394,198,222592,1,2,0:0:0:0:
340,274,222905,6,0,P|262:314|175:273,1,187.000003566742,10|8,0:0|0:2,0:0:0:0:
97,226,223842,1,2,0:0:0:0:
26,287,224155,2,0,L|25:340,2,46.7500008916855,2|0|10,0:0|0:0|0:0,0:0:0:0:
97,226,224780,2,0,L|98:125,1,93.500001783371,8|2,0:2|0:0,0:0:0:0:
161,63,225405,5,10,0:0:0:0:
244,104,225717,2,0,P|282:80|331:75,1,93.500001783371,2|8,0:0|0:2,0:0:0:0:
422,89,226342,1,2,0:0:0:0:
493,150,226655,2,0,L|479:245,2,93.500001783371,10|2|8,0:0|0:0|0:2,0:0:0:0:
422,89,227592,1,2,0:0:0:0:
329,74,227905,6,0,B|303:162|303:162|316:258,1,187.000003566742,2|10,0:2|0:2,0:0:0:0:
262,332,228842,1,2,0:2:0:0:
171,355,229155,2,0,P|86:328|70:237,1,187.000003566742,2|10,0:2|0:2,0:0:0:0:
40,151,230092,1,2,0:0:0:0:
99,78,230405,6,0,B|188:49|188:49|275:96,1,187.000003566742,12|8,0:1|0:2,0:0:0:0:
338,157,231342,1,2,0:0:0:0:
419,109,231655,2,0,B|421:63|421:63|400:21,2,93.500001783371,10|2|8,0:0|0:0|0:2,0:0:0:0:
338,157,232592,1,2,0:0:0:0:
380,240,232905,6,0,B|342:260|301:245|301:245|251:263|246:331,1,187.000003566742,10|8,0:0|0:2,0:0:0:0:
165,374,233842,1,2,0:0:0:0:
81,331,234155,2,0,L|105:234,1,93.500001783371,2|10,0:0|0:0,0:0:0:0:
63,155,234780,2,0,P|94:122|112:73,1,93.500001783371,8|2,0:2|0:0,0:0:0:0:
185,20,235405,6,0,P|256:75|348:51,1,187.000003566742,10|8,0:0|0:2,0:0:0:0:
436,35,236342,1,2,0:0:0:0:
497,105,236655,2,0,L|510:199,2,93.500001783371,10|2|8,0:0|0:0|0:2,0:0:0:0:
436,35,237592,1,2,0:0:0:0:
344,53,237905,6,0,L|361:245,1,187.000003566742,10|8,0:0|0:2,0:0:0:0:
371,332,238842,1,2,0:0:0:0:
285,293,239155,2,0,P|240:296|200:325,2,93.500001783371,2|2|8,0:0|0:0|0:2,0:0:0:0:
371,332,240092,1,2,0:0:0:0:
360,239,240405,5,10,0:0:0:0:
408,159,240717,2,0,L|461:155,2,46.7500008916855,2|0|8,0:0|0:0|0:2,0:0:0:0:
329,107,241342,1,2,0:0:0:0:
249,156,241655,2,0,B|203:155|203:155|163:130,2,93.500001783371,10|2|8,0:0|0:0|0:2,0:0:0:0:
327,207,242592,2,0,L|332:254,1,46.7500008916855,2|8,0:0|0:2,0:0:0:0:
335,300,242905,6,0,B|257:271|226:334|152:294,1,187.000003566742,2|8,0:0|0:2,0:0:0:0:
84,230,243842,1,2,0:0:0:0:
70,137,244155,2,0,L|247:66,1,187.000003566742,2|8,0:0|0:2,0:0:0:0:
337,65,245092,1,2,0:0:0:0:
256,192,245405,12,10,247905,0:0:0:0:
249,296,249155,6,0,B|283:289|306:300|306:300|377:286|386:207,1,187.000003566742,10|8,0:0|0:2,0:0:0:0:
373,118,250092,1,2,0:0:0:0:
256,192,250405,12,2,253842,0:2:0:0:
