osu file format v14

[General]
AudioFilename: audio.mp3
AudioLeadIn: 0
PreviewTime: 14047
Countdown: 0
SampleSet: Soft
StackLeniency: 0.4
Mode: 0
LetterboxInBreaks: 0
WidescreenStoryboard: 1

[Editor]
Bookmarks: 7096,14025,27923,41836,69445,69662,83576,94010,95749,97489,102694,104433,109650,110973
DistanceSpacing: 1.2
BeatDivisor: 4
GridSize: 32
TimelineZoom: 1.4

[Metadata]
Title:WHO'S READY FOR TOMORROW
TitleUnicode:WHO'S READY FOR TOMORROW
Artist:Rat Boy & IBDY
ArtistUnicode:Rat Boy & IBDY
Creator:O K U
Version:KITTY'S HARD
Source:Cyberpunk: Edgerunners
Tags:anime english male vocal vocals vocalist hip-hop alternative cyberpunk edgerunners 2077 Video Game Soundtrack hiphop hip hop OST whos o_k_u dt best mod dt_best_mod sana sanayui not your kitty not_your_kitty sightread yoshino [yoshino] lurumic
BeatmapID:4423812
BeatmapSetID:2107583

[Difficulty]
HPDrainRate:4
CircleSize:3.8
OverallDifficulty:5.4
ApproachRate:7.5
SliderMultiplier:1.5
SliderTickRate:1

[Events]
//Background and Video events
0,0,"bg.jpg",0,0
//Break Periods
2,28151,40964
2,69890,80964
//Storyboard Layer 0 (Background)
//Storyboard Layer 1 (Fail)
//Storyboard Layer 2 (Pass)
//Storyboard Layer 3 (Foreground)
//Storyboard Layer 4 (Overlay)
//Storyboard Sound Samples

[TimingPoints]
140,434.782608695652,4,2,1,40,1,0
140,-133.333333333333,4,2,1,40,0,0
7096,-117.647058823529,4,2,1,50,0,0
14038,434.782608695652,4,2,1,75,1,0
27951,-100,4,2,1,55,0,0
28059,-100,4,2,2,55,0,0
41864,-100,4,2,1,75,0,0
69690,-100,4,2,1,55,0,0
69798,-100,4,2,2,55,0,0
81864,-100,4,2,2,60,0,0
82298,-100,4,2,2,55,0,0
82516,-100,4,2,3,60,0,0
82733,-100,4,2,2,55,0,0
83603,-100,4,2,2,60,0,0
90559,-100,4,2,2,30,0,0
91429,-100,4,2,2,35,0,0
92298,-100,4,2,2,40,0,0
93168,-100,4,2,2,45,0,0
94037,-100,4,2,2,50,0,0
94907,-100,4,2,2,55,0,0
95777,-100,4,2,2,60,0,0
96646,-100,4,2,2,65,0,0
97531,434.782608695652,4,2,1,65,1,0

[Colours]
Combo1 : 238,193,153
Combo2 : 235,255,174
Combo3 : 204,225,230
Combo4 : 254,156,156

[HitObjects]
506,351,140,6,0,L|378:366,1,112.500004291535,0|2,0:0|0:0,0:0:0:0:
394,364,1009,2,0,P|363:347|414:312,1,112.500004291535,0|2,0:0|0:0,0:0:0:0:
459,250,1879,6,0,L|474:122,1,112.500004291535,0|2,0:0|0:0,0:0:0:0:
472,138,2748,2,0,P|514:113|480:77,1,112.500004291535,0|2,0:0|0:0,0:0:0:0:
437,14,3618,6,0,L|325:27,1,112.500004291535,0|2,0:0|0:0,0:0:0:0:
325,27,4487,2,0,P|282:51|316:87,1,112.500004291535,0|2,0:0|0:0,0:0:0:0:
367,144,5357,6,0,L|357:223,1,56.2500021457673
296,246,5792,2,0,L|240:239,1,56.2500021457673,2|0,0:0|0:0,0:0:0:0:
177,286,6226,2,0,L|121:279,1,56.2500021457673
43,291,6661,1,2,0:0:0:0:
43,291,7096,6,0,P|17:252|17:212,1,63.7500012159348,2|2,0:3|0:3,0:0:0:0:
88,199,7531,2,0,P|123:158|119:94,1,95.6250018239022,10|2,0:2|0:3,0:0:0:0:
149,82,7966,2,0,L|141:18,1,63.7500012159348,2|2,0:3|0:3,0:0:0:0:
223,6,8400,2,0,L|230:69,1,63.7500012159348,10|2,0:2|0:3,0:0:0:0:
213,150,8835,6,0,P|257:184|278:184,1,63.7500012159348,2|2,0:3|0:3,0:0:0:0:
333,228,9270,2,0,P|378:196|385:176,1,63.7500012159348,10|2,0:2|0:3,0:0:0:0:
455,154,9705,2,0,P|439:100|422:88,1,63.7500012159348,2|2,0:3|0:3,0:0:0:0:
386,29,10139,1,10,0:2:0:0:
315,73,10357,1,2,0:3:0:0:
230,69,10574,6,0,L|223:6,1,63.7500012159348,2|2,0:3|0:3,0:0:0:0:
141,18,11009,2,0,L|29:31,1,95.6250018239022,10|2,0:2|0:3,0:0:0:0:
20,62,11444,2,0,L|27:125,1,63.7500012159348,2|2,0:3|0:3,0:0:0:0:
82,187,11879,2,0,L|74:250,1,63.7500012159348,10|2,0:2|0:3,0:0:0:0:
14,307,12313,6,0,P|53:333|85:330,1,63.7500012159348,2|2,0:3|0:3,0:0:0:0:
143,368,12748,2,0,P|182:342|214:345,1,63.7500012159348,10|2,0:2|0:3,0:0:0:0:
274,310,13183,1,8,0:2:0:0:
328,372,13400,1,8,0:2:0:0:
409,353,13618,2,0,L|504:364,1,95.6250018239022
504,325,14038,6,0,B|458:303|458:303|471:192,1,150,4|8,3:0|0:1,0:0:0:0:
415,133,14690,1,0,3:0:0:0:
340,183,14907,2,0,L|244:194,1,75,0|0,3:0|3:0,0:0:0:0:
222,271,15342,2,0,L|269:276,2,37.5,8|8|0,3:1|0:2|3:0,0:0:0:0:
149,217,15777,5,4,3:0:0:0:
74,267,15994,1,2,0:3:0:0:
149,217,16211,2,0,L|137:121,1,75,8|0,0:1|3:0,0:0:0:0:
74,80,16646,2,0,P|88:31|184:18,1,150,0|8,3:0|3:1,0:0:0:0:
217,42,17190,1,8,0:2:0:0:
217,42,17298,1,0,3:0:0:0:
304,19,17516,6,0,L|351:24,1,37.5,4|0,3:0|0:0,0:0:0:0:
385,30,17733,1,2,0:3:0:0:
352,114,17951,2,0,L|277:104,1,75,8|0,0:1|3:0,0:0:0:0:
204,157,18385,1,0,3:0:0:0:
252,233,18603,1,0,3:0:0:0:
188,296,18820,2,0,L|140:301,2,37.5,8|8|0,3:1|0:2|3:0,0:0:0:0:
245,365,19255,6,0,L|319:374,1,75,4|2,3:0|0:3,0:0:0:0:
406,350,19690,6,0,L|480:359,1,75,8|0,0:1|3:0,0:0:0:0:
395,331,20124,6,0,L|469:340,1,75,0|0,3:0|3:0,0:0:0:0:
508,258,20559,5,8,3:1:0:0:
439,199,20777,1,8,3:2:0:0:
361,244,20994,6,0,P|313:234|285:131,1,150,4|8,3:0|0:1,0:0:0:0:
216,81,21646,1,0,3:0:0:0:
142,133,21864,2,0,L|68:142,1,75,0|0,3:0|3:0,0:0:0:0:
37,226,22298,2,0,L|-11:231,2,37.5,8|8|0,3:1|0:2|3:0,0:0:0:0:
109,279,22733,5,4,3:0:0:0:
184,230,22951,1,2,0:3:0:0:
245,295,23168,2,0,L|319:304,1,75,8|0,0:1|3:0,0:0:0:0:
405,276,23603,2,0,L|414:202,1,75,0|0,3:0|3:0,0:0:0:0:
473,134,24037,2,0,L|521:139,2,37.5,8|8|0,3:1|0:2|3:0,0:0:0:0:
402,77,24472,5,4,3:0:0:0:
330,131,24690,1,2,0:3:0:0:
244,103,24907,2,0,P|210:135|233:248,1,150,8|0,0:1|3:0,0:0:0:0:
300,264,25559,1,0,3:0:0:0:
342,343,25777,2,0,L|390:348,2,37.5,8|8|0,3:1|0:2|3:0,0:0:0:0:
300,264,26211,6,0,P|259:317|163:320,1,150,4|8,3:0|0:1,0:0:0:0:
102,373,26864,1,0,3:0:0:0:
18,339,27081,2,0,L|27:265,1,75,0|0,3:0|3:0,0:0:0:0:
85,195,27516,1,8,3:1:0:0:
22,130,27733,1,8,3:2:0:0:
75,57,27951,5,4,3:0:0:0:
75,57,41864,6,0,B|94:27|94:27|221:42,1,150,4|8,3:0|0:1,0:0:0:0:
294,13,42516,1,0,3:0:0:0:
357,76,42733,2,0,P|336:116|287:146,1,75,0|0,3:0|3:0,0:0:0:0:
234,173,43168,1,8,3:1:0:0:
234,173,43277,1,8,0:2:0:0:
266,261,43494,1,8,0:2:0:0:
266,261,43603,6,0,L|91:282,1,150,4|8,3:0|0:1,0:0:0:0:
27,291,44255,1,0,3:0:0:0:
67,210,44472,2,0,L|55:114,1,75,0|0,3:0|3:0,0:0:0:0:
116,67,44907,1,8,3:1:0:0:
116,67,45016,1,8,0:2:0:0:
205,96,45233,1,8,0:2:0:0:
205,96,45342,6,0,P|277:74|314:-1,1,150,4|8,3:0|0:1,0:0:0:0:
401,26,45994,1,0,3:0:0:0:
488,46,46211,2,0,L|478:120,1,75,0|0,3:0|3:0,0:0:0:0:
427,195,46646,1,8,3:1:0:0:
427,195,46755,1,8,0:2:0:0:
491,264,46972,1,8,0:2:0:0:
491,264,47081,6,0,L|481:338,1,75,4|2,3:0|0:3,0:0:0:0:
395,367,47516,2,0,L|321:357,1,75,8|0,0:1|3:0,0:0:0:0:
240,314,47951,1,0,3:0:0:0:
171,372,48168,1,0,3:0:0:0:
98,318,48385,1,8,3:1:0:0:
29,376,48602,1,8,3:2:0:0:
98,318,48820,6,0,P|122:278|97:162,1,150,4|8,3:0|0:1,0:0:0:0:
26,145,49472,1,0,3:0:0:0:
65,64,49690,2,0,L|139:74,1,75,0|0,3:0|3:0,0:0:0:0:
223,37,50124,1,8,3:1:0:0:
223,37,50233,1,8,0:2:0:0:
284,110,50451,1,8,0:2:0:0:
284,110,50559,6,0,L|458:88,1,150,4|8,3:0|0:1,0:0:0:0:
500,151,51211,1,0,3:0:0:0:
457,230,51429,2,0,L|383:240,1,75,0|0,3:0|3:0,0:0:0:0:
300,216,51864,1,8,3:1:0:0:
300,216,51972,1,8,0:2:0:0:
244,287,52190,1,8,0:2:0:0:
244,287,52298,6,0,P|192:287|128:199,1,150,4|8,3:0|0:1,0:0:0:0:
183,145,52951,1,0,3:0:0:0:
134,69,53168,2,0,L|60:59,1,75,0|0,3:0|3:0,0:0:0:0:
10,135,53603,1,8,3:1:0:0:
10,135,53711,1,8,0:2:0:0:
46,222,53929,1,8,0:2:0:0:
46,222,54037,6,0,L|36:296,1,75,4|2,3:0|0:3,0:0:0:0:
98,360,54472,2,0,L|172:370,1,75,8|0,0:1|3:0,0:0:0:0:
244,316,54907,1,0,3:0:0:0:
308,378,55124,1,0,3:0:0:0:
375,318,55342,1,8,3:1:0:0:
439,380,55559,1,8,3:2:0:0:
375,318,55777,6,0,P|381:269|488:242,1,150,4|8,3:0|0:1,0:0:0:0:
507,151,56429,1,0,3:0:0:0:
421,123,56646,2,0,P|386:91|377:38,1,75,0|0,3:0|3:0,0:0:0:0:
300,27,57081,1,8,3:1:0:0:
300,27,57190,2,0,L|236:34,2,37.5,8|0|8,0:2|3:0|0:2,0:0:0:0:
268,59,57516,6,0,L|109:78,1,150,4|8,3:0|0:1,0:0:0:0:
33,47,58168,1,0,3:0:0:0:
20,135,58385,2,0,B|16:166|16:166|111:178|111:178|107:210,1,150,0|8,3:0|3:1,0:0:0:0:
72,227,58929,1,8,0:2:0:0:
140,292,59146,1,8,0:2:0:0:
140,292,59255,6,0,P|192:278|219:167,1,150,4|8,3:0|0:1,0:0:0:0:
302,143,59907,1,0,3:0:0:0:
373,196,60124,2,0,L|468:207,1,75,0|0,3:0|3:0,0:0:0:0:
471,296,60559,1,8,3:1:0:0:
471,296,60668,2,0,L|534:303,2,37.5,8|0|8,0:2|3:0|0:2,0:0:0:0:
425,296,60994,6,0,P|408:341|405:390,1,75,4|2,3:0|0:3,0:0:0:0:
316,348,61429,2,0,P|333:303|336:254,1,75,8|0,0:1|3:0,0:0:0:0:
267,218,61864,1,0,3:0:0:0:
181,244,62081,1,0,3:0:0:0:
149,159,62298,1,8,3:1:0:0:
220,103,62515,1,8,3:2:0:0:
220,103,62624,1,2,0:3:0:0:
220,103,62733,6,0,B|251:106|251:106|295:144|295:144|359:152,1,150,4|8,3:0|0:1,0:0:0:0:
435,110,63385,1,0,3:0:0:0:
497,174,63603,2,0,L|488:248,1,75,0|0,3:0|3:0,0:0:0:0:
433,320,64037,1,8,3:1:0:0:
433,320,64146,2,0,L|426:383,2,37.5,8|0|8,0:2|3:0|0:2,0:0:0:0:
406,283,64472,6,0,P|357:269|272:349,1,150,4|8,3:0|0:1,0:0:0:0:
205,372,65124,1,0,3:0:0:0:
120,340,65342,2,0,B|24:351|24:351|16:288,1,150,0|8,3:0|3:1,0:0:0:0:
40,259,65885,1,8,0:2:0:0:
116,208,66103,1,8,0:2:0:0:
116,208,66211,6,0,P|123:163|114:32,1,150,4|8,3:0|0:1,0:0:0:0:
197,12,66864,1,0,3:0:0:0:
265,70,67081,2,0,P|268:124|277:167,1,75,0|0,3:0|3:0,0:0:0:0:
239,231,67516,1,8,3:1:0:0:
239,231,67624,2,0,L|176:224,2,37.5,8|0|8,0:2|3:0|0:2,0:0:0:0:
266,267,67951,6,0,L|340:275,1,75,4|2,3:0|0:3,0:0:0:0:
330,364,68385,2,0,L|255:355,1,75,8|0,0:1|3:0,0:0:0:0:
165,344,68820,1,0,3:0:0:0:
78,367,69037,1,0,3:0:0:0:
11,306,69255,1,8,3:1:0:0:
56,231,69472,1,8,3:2:0:0:
56,231,69581,1,2,0:3:0:0:
56,231,69690,5,0,3:0:0:0:
56,231,81864,6,0,P|94:209|217:214,1,150,8|8,0:0|0:2,0:0:0:0:
266,264,82516,2,0,P|340:269|407:239,1,150,8|0,0:3|3:0,0:0:0:0:
490,203,83168,1,8,0:1:0:0:
490,203,83603,6,0,B|484:155|484:155|466:141|466:141|454:46,1,150,0|8,3:0|0:2,0:0:0:0:
387,17,84255,2,0,P|339:20|375:150,1,225,8|8,0:2|0:2,0:0:0:0:
265,286,85342,6,0,L|106:266,1,150,0|8,0:0|0:2,0:0:0:0:
33,270,85994,2,0,B|23:190|23:190|118:178,1,150,8|0,0:2|0:0,0:0:0:0:
147,119,86646,1,8,0:2:0:0:
147,119,87081,6,0,P|205:97|239:180,1,150,0|8,0:0|0:2,0:0:0:0:
307,217,87733,2,0,L|465:197,1,150,8|0,0:2|0:0,0:0:0:0:
494,125,88385,2,0,L|484:45,1,75,8|0,0:2|0:0,0:0:0:0:
406,24,88820,5,0,0:0:0:0:
406,24,89255,1,8,0:2:0:0:
351,85,89472,2,0,P|286:98|217:38,1,150,8|0,0:2|0:0,0:0:0:0:
146,18,90124,1,8,0:2:0:0:
146,18,90559,6,0,P|89:22|55:122,1,150,8|8,3:1|3:1,0:0:0:0:
21,175,91211,2,0,B|84:182|84:182|128:220|128:220|255:236,1,225,8|8,0:1|3:1,0:0:0:0:
308,204,92081,1,8,0:1:0:0:
355,271,92298,6,0,P|418:253|437:164,1,150,8|8,3:1|3:1,0:0:0:0:
493,113,92951,2,0,B|500:49|500:49|389:35,1,150,8|8,0:1|0:1,0:0:0:0:
335,16,93603,2,0,P|332:56|355:99,1,75,8|8,3:1|0:1,0:0:0:0:
294,152,94037,6,0,P|226:152|176:80,1,150,8|8,3:1|3:1,0:0:0:0:
98,65,94690,2,0,B|62:37|62:37|75:148,1,150,8|8,0:1|0:1,0:0:0:0:
29,209,95342,2,0,L|19:288,1,75,8|8,3:1|0:1,0:0:0:0:
31,327,95668,1,8,0:1:0:0:
31,327,95777,6,0,P|73:364|148:310,1,150,8|8,3:1|3:1,0:0:0:0:
222,291,96429,1,8,0:1:0:0:
281,348,96646,2,0,L|355:357,1,75,8|8,3:1|0:1,0:0:0:0:
437,368,97081,1,8,3:1:0:0:
495,311,97298,1,8,0:1:0:0:
495,311,97407,1,8,0:1:0:0:
495,311,97531,6,0,P|506:257|496:149,1,150,0|8,3:0|0:1,0:0:0:0:
426,109,98183,1,0,3:0:0:0:
360,170,98400,2,0,P|337:116|342:85,1,75,0|0,3:0|3:0,0:0:0:0:
290,24,98835,1,8,3:1:0:0:
208,61,99052,1,0,3:0:0:0:
124,26,99270,6,0,L|44:35,1,75,0|0,3:0|0:0,0:0:0:0:
4,112,99704,2,0,L|13:191,1,75,8|0,0:1|3:0,0:0:0:0:
96,218,100139,1,0,3:0:0:0:
171,168,100357,1,0,3:0:0:0:
96,218,100574,1,8,3:1:0:0:
156,284,100792,1,0,3:0:0:0:
137,371,101009,6,0,L|232:359,1,75,0|0,3:0|0:0,0:0:0:0:
285,309,101444,1,8,0:1:0:0:
349,372,101661,1,0,3:0:0:0:
420,317,101878,2,0,L|499:326,1,75,0|0,3:0|3:0,0:0:0:0:
506,236,102313,1,8,3:1:0:0:
416,227,102531,1,0,3:0:0:0:
347,168,102748,6,0,L|337:88,1,75,0|0,3:0|0:0,0:0:0:0:
249,112,103183,2,0,L|258:186,1,75,8|0,0:1|3:0,0:0:0:0:
206,259,103617,1,0,3:0:0:0:
274,317,103835,1,0,3:0:0:0:
206,259,104052,1,8,3:1:0:0:
138,317,104270,1,0,3:0:0:0:
50,296,104487,6,0,L|40:221,1,75,8|8,3:2|0:2,0:0:0:0:
9,137,104922,2,0,P|60:110|80:46,1,112.5,8|8,0:1|0:2,0:0:0:0:
118,37,105357,1,8,3:2:0:0:
186,94,105574,1,8,3:2:0:0:
261,45,105791,2,0,L|335:54,1,75,8|8,3:1|3:2,0:0:0:0:
373,86,106117,1,8,0:2:0:0:
373,86,106226,6,0,L|363:161,1,75,8|8,3:2|0:2,0:0:0:0:
295,219,106661,1,8,0:1:0:0:
213,217,106878,1,8,3:2:0:0:
213,217,106987,1,8,0:2:0:0:
213,217,107096,2,0,L|223:292,1,75,8|8,3:2|3:2,0:0:0:0:
171,365,107531,1,8,3:1:0:0:
81,355,107748,1,8,3:2:0:0:
20,288,107965,6,0,L|30:213,1,75,8|8,3:2|0:2,0:0:0:0:
91,148,108400,1,8,0:1:0:0:
41,79,108617,1,8,3:2:0:0:
41,79,108726,1,8,0:2:0:0:
41,79,108835,2,0,P|97:60|131:73,1,75,8|8,3:2|3:2,0:0:0:0:
193,27,109270,2,0,P|228:74|226:110,1,75,8|8,3:1|3:2,0:0:0:0:
252,133,109596,1,8,0:2:0:0:
252,133,109704,6,0,P|217:181|182:190,2,75,8|8|8,3:2|0:2|0:1,0:0:0:0:
345,111,110357,1,8,3:2:0:0:
345,111,110465,1,8,0:2:0:0:
345,111,110574,2,0,L|420:121,2,75,8|8|8,3:2|3:2|0:1,0:0:0:0:
301,32,111226,1,0,0:0:0:0:
