osu file format v14

[General]
AudioFilename: audio.mp3
AudioLeadIn: 0
PreviewTime: 14047
Countdown: 0
SampleSet: Soft
StackLeniency: 0.7
Mode: 0
LetterboxInBreaks: 0
WidescreenStoryboard: 1

[Editor]
Bookmarks: 7096,14025,27923,41836,83576,94010,95749,97489,102694,104433,109650,110973
DistanceSpacing: 1
BeatDivisor: 2
GridSize: 16
TimelineZoom: 1.6

[Metadata]
Title:WHO'S READY FOR TOMORROW
TitleUnicode:WHO'S READY FOR TOMORROW
Artist:Rat Boy & IBDY
ArtistUnicode:Rat Boy & IBDY
Creator:O K U
Version:SIGHTREAD'S NORMAL
Source:Cyberpunk: Edgerunners
Tags:anime english male vocal vocals vocalist hip-hop alternative cyberpunk edgerunners 2077 Video Game Soundtrack hiphop hip hop OST whos o_k_u dt best mod dt_best_mod sana sanayui not your kitty not_your_kitty sightread yoshino [yoshino] lurumic
BeatmapID:4423886
BeatmapSetID:2107583

[Difficulty]
HPDrainRate:3
CircleSize:3.3
OverallDifficulty:3.5
ApproachRate:5
SliderMultiplier:1.1
SliderTickRate:1

[Events]
//Background and Video events
0,0,"bg.jpg",0,0
//Break Periods
2,28151,40664
2,69890,82403
//Storyboard Layer 0 (Background)
//Storyboard Layer 1 (Fail)
//Storyboard Layer 2 (Pass)
//Storyboard Layer 3 (Foreground)
//Storyboard Layer 4 (Overlay)
//Storyboard Sound Samples

[TimingPoints]
140,434.782608695652,4,2,1,40,1,0
7096,-111.111111111111,4,2,1,50,0,0
14038,434.782608695652,4,2,1,75,1,0
27951,-100,4,2,1,55,0,0
28059,-100,4,2,2,55,0,0
41864,-100,4,2,1,75,0,0
69690,-100,4,2,1,55,0,0
69798,-100,4,2,2,55,0,0
81864,-100,4,2,2,60,0,0
82298,-100,4,2,2,55,0,0
82516,-100,4,2,3,60,0,0
82733,-100,4,2,2,55,0,0
83603,-111.111111111111,4,2,2,60,0,0
90559,-111.111111111111,4,2,2,30,0,0
91429,-111.111111111111,4,2,2,35,0,0
92298,-111.111111111111,4,2,2,40,0,0
93168,-111.111111111111,4,2,2,45,0,0
94037,-111.111111111111,4,2,2,50,0,0
94907,-111.111111111111,4,2,2,55,0,0
95777,-111.111111111111,4,2,2,60,0,0
96646,-111.111111111111,4,2,2,65,0,0
97531,434.782608695652,4,2,1,65,1,0

[Colours]
Combo1 : 238,193,153
Combo2 : 235,255,174
Combo3 : 204,225,230
Combo4 : 254,156,156

[HitObjects]
256,192,7096,6,1,B|278:240|278:240|325:252,1,98.9999969787599,2|10,0:3|0:2,0:0:0:0:
420,269,7966,2,1,P|431:303|445:338,2,49.4999984893799,2|2|10,0:3|0:3|0:2,0:0:0:0:
473,185,8835,1,2,0:3:0:0:
428,96,9270,1,10,0:2:0:0:
338,52,9705,2,1,L|330:1,2,49.4999984893799,2|2|10,0:3|0:3|0:2,0:0:0:0:
269,123,10574,6,1,P|188:130|160:125,1,98.9999969787599,2|10,0:3|0:2,0:0:0:0:
77,94,11444,2,1,L|64:33,2,49.4999984893799,2|2|10,0:3|0:3|0:2,0:0:0:0:
50,189,12313,2,1,L|43:269,1,49.4999984893799,2|2,0:3|0:3,0:0:0:0:
7,270,12748,2,1,L|14:350,1,49.4999984893799,10|2,0:2|0:3,0:0:0:0:
17,368,13183,2,1,P|100:373|124:364,1,98.9999969787599,8|0,0:2|0:0,0:0:0:0:
220,342,14038,6,1,P|233:278|243:220,1,110,4|8,3:0|0:1,0:0:0:0:
249,183,14690,1,0,3:0:0:0:
249,183,14907,2,1,P|311:185|330:183,1,55,0|0,3:0|3:0,0:0:0:0:
354,164,15342,2,1,P|416:162|435:164,1,55,8|0,3:1|3:0,0:0:0:0:
464,160,15777,1,4,3:0:0:0:
464,160,15994,2,1,B|496:209|496:209|480:258,1,110,2|0,0:3|3:0,0:0:0:0:
460,309,16646,1,0,3:0:0:0:
363,361,17081,2,1,P|296:357|287:355,1,55,8|0,3:1|3:0,0:0:0:0:
264,335,17516,5,4,3:0:0:0:
264,335,17733,2,1,P|166:340|153:343,1,110,2|0,0:3|3:0,0:0:0:0:
101,358,18385,2,1,L|91:276,1,55,0|0,3:0|3:0,0:0:0:0:
59,260,18820,2,1,L|69:178,1,55,8|0,3:1|3:0,0:0:0:0:
70,150,19255,1,4,3:0:0:0:
168,100,19690,2,1,L|245:109,1,55,8|0,0:1|3:0,0:0:0:0:
269,135,20124,2,1,L|346:126,1,55,0|0,3:0|3:0,0:0:0:0:
378,120,20559,1,8,3:1:0:0:
482,155,20994,6,1,P|500:243|484:263,1,110,4|8,3:0|0:1,0:0:0:0:
466,303,21646,1,0,3:0:0:0:
466,303,21864,2,1,L|375:311,1,55,0|0,3:0|3:0,0:0:0:0:
362,332,22298,2,1,L|271:324,1,55,8|0,3:1|3:0,0:0:0:0:
257,320,22733,1,4,3:0:0:0:
198,226,23168,1,8,0:1:0:0:
260,135,23603,2,1,P|283:140|313:146,2,55,0|0|8,3:0|3:0|3:1,0:0:0:0:
234,92,24255,1,0,3:0:0:0:
234,92,24472,6,1,P|168:91|155:90,1,55,4|2,3:0|0:3,0:0:0:0:
124,86,24907,2,1,P|61:90|33:124,1,110,8|0,0:1|3:0,0:0:0:0:
8,174,25559,1,0,3:0:0:0:
8,174,25777,1,8,3:1:0:0:
46,277,26211,2,1,L|138:287,1,55,4|2,3:0|0:3,0:0:0:0:
155,290,26646,1,8,0:1:0:0:
265,292,27081,2,1,L|286:345,2,55,0|0|8,3:0|3:0|3:1,0:0:0:0:
294,247,27733,1,8,3:2:0:0:
294,247,27951,5,4,3:0:0:0:
256,192,41864,6,1,P|272:137|258:85,1,110,4|8,3:0|0:1,0:0:0:0:
235,43,42516,1,0,3:0:0:0:
235,43,42733,2,1,P|262:29|293:11,2,55,0|0|8,3:0|3:0|3:1,0:0:0:0:
184,37,43385,1,0,3:0:0:0:
184,37,43603,1,4,3:0:0:0:
84,84,44037,2,1,L|86:143,1,55,8|0,0:1|3:0,0:0:0:0:
86,194,44472,2,1,L|26:196,2,55,0|0|8,3:0|3:0|3:1,0:0:0:0:
135,228,45124,1,0,3:0:0:0:
135,228,45342,5,4,3:0:0:0:
244,238,45777,2,1,P|267:215|299:195,1,55,8|0,0:1|3:0,0:0:0:0:
336,180,46211,2,1,L|346:109,2,55,0|0|8,3:0|3:0|3:1,0:0:0:0:
383,217,46864,1,0,3:0:0:0:
383,217,47081,2,1,P|388:282|360:315,1,110,4|8,3:0|0:1,0:0:0:0:
320,350,47733,1,0,3:0:0:0:
320,350,47951,2,1,L|266:343,1,55,0|0,3:0|3:0,0:0:0:0:
211,335,48385,1,8,3:1:0:0:
101,325,48820,6,1,P|93:259|89:196,1,110,4|8,3:0|0:1,0:0:0:0:
86,164,49472,1,0,3:0:0:0:
86,164,49690,2,1,P|147:171|159:170,1,55,0|0,3:0|3:0,0:0:0:0:
192,188,50124,2,1,P|253:181|265:182,1,55,8|0,3:1|3:0,0:0:0:0:
301,183,50559,1,4,3:0:0:0:
404,146,50994,2,1,P|410:111|412:77,1,55,8|0,0:1|3:0,0:0:0:0:
420,37,51429,2,1,P|454:43|489:45,2,55,0|0|8,3:0|3:0|3:1,0:0:0:0:
372,20,52081,1,0,3:0:0:0:
372,20,52298,5,4,3:0:0:0:
268,58,52733,2,1,P|205:67|196:66,1,55,8|0,0:1|3:0,0:0:0:0:
159,73,53168,2,1,P|150:10|151:1,2,55,0|0|8,3:0|3:0|3:1,0:0:0:0:
144,126,53820,1,0,3:0:0:0:
144,126,54037,2,1,P|130:188|145:231,1,110,4|8,3:0|0:1,0:0:0:0:
183,277,54690,1,0,3:0:0:0:
183,277,54907,2,1,L|138:345,1,55,0|0,3:0|3:0,0:0:0:0:
124,370,55342,1,8,3:1:0:0:
16,344,55777,6,1,P|3:292|14:234,1,110,4|8,3:0|0:1,0:0:0:0:
36,189,56429,1,0,3:0:0:0:
36,189,56646,2,1,L|-4:126,2,55,0|0|8,3:0|3:0|3:1,0:0:0:0:
95,189,57298,1,0,3:0:0:0:
95,189,57516,2,1,P|207:190|232:188,1,110,4|8,3:0|0:1,0:0:0:0:
260,188,58168,1,0,3:0:0:0:
260,188,58385,2,1,P|263:149|269:117,1,55,0|0,3:0|3:0,0:0:0:0:
275,79,58820,1,8,3:1:0:0:
372,27,59255,6,1,B|424:53|424:53|440:103,1,110,4|8,3:0|0:1,0:0:0:0:
458,159,59907,1,0,3:0:0:0:
458,159,60124,2,1,P|483:149|514:146,2,55,0|0|8,3:0|3:0|3:1,0:0:0:0:
427,206,60777,1,0,3:0:0:0:
427,206,60994,2,1,P|416:269|411:330,1,110,4|8,3:0|0:1,0:0:0:0:
410,373,61646,1,0,3:0:0:0:
410,373,61864,2,1,L|335:373,1,55,0|0,3:0|3:0,0:0:0:0:
300,371,62298,1,8,3:1:0:0:
214,302,62733,5,4,3:0:0:0:
273,209,63168,2,1,P|279:178|288:129,1,55,8|0,0:1|3:0,0:0:0:0:
298,101,63603,2,1,P|328:107|378:116,2,55,0|0|8,3:0|3:0|3:1,0:0:0:0:
269,60,64255,1,0,3:0:0:0:
269,60,64472,2,1,P|231:22|177:16,1,110,4|8,3:0|0:1,0:0:0:0:
125,20,65124,1,0,3:0:0:0:
125,20,65342,2,1,L|78:51,1,55,0|0,3:0|3:0,0:0:0:0:
34,82,65777,1,8,3:1:0:0:
4,187,66211,5,4,3:0:0:0:
86,260,66646,2,1,P|156:257|166:259,1,55,8|0,0:1|3:0,0:0:0:0:
195,263,67081,2,1,P|198:333|196:343,2,55,0|0|8,3:0|3:0|3:1,0:0:0:0:
231,222,67733,1,0,3:0:0:0:
231,222,67951,2,1,P|240:156|248:84,1,110,4|8,3:0|0:1,0:0:0:0:
258,62,68603,1,0,3:0:0:0:
258,62,68820,2,1,P|294:64|350:63,1,55,0|0,3:0|3:0,0:0:0:0:
364,84,69255,2,1,P|400:81|456:83,1,55,8|8,3:1|3:2,0:0:0:0:
468,84,69690,5,0,3:0:0:0:
256,192,83603,6,1,B|273:241|273:241|316:260,1,98.9999969787599,0|8,3:0|0:2,0:0:0:0:
365,264,84255,2,1,B|414:247|414:247|433:204,1,98.9999969787599,8|0,0:2|0:0,0:0:0:0:
451,157,84907,1,8,0:2:0:0:
407,68,85342,2,1,P|349:62|307:57,1,98.9999969787599,0|8,0:0|0:2,0:0:0:0:
265,33,85994,2,1,P|207:38|165:44,1,98.9999969787599,8|0,0:2|0:0,0:0:0:0:
117,52,86646,1,8,0:2:0:0:
21,79,87081,6,1,P|13:149|35:176,1,98.9999969787599,0|8,0:0|0:2,0:0:0:0:
64,202,87733,2,1,P|134:210|161:188,1,98.9999969787599,8|0,0:2|0:0,0:0:0:0:
191,162,88385,1,8,0:2:0:0:
277,113,88820,2,1,L|396:124,1,98.9999969787599,0|8,0:0|0:2,0:0:0:0:
424,129,89472,2,1,L|413:248,1,98.9999969787599,8|0,0:2|0:0,0:0:0:0:
410,277,90124,1,8,0:2:0:0:
334,340,90559,6,1,P|286:353|235:344,1,98.9999969787599,8|8,3:1|3:1,0:0:0:0:
191,329,91211,1,8,0:1:0:0:
98,356,91646,1,8,0:1:0:0:
98,356,91864,1,8,3:1:0:0:
22,292,92298,2,1,L|8:170,1,98.9999969787599,8|8,3:1|3:1,0:0:0:0:
2,144,92951,1,8,0:1:0:0:
58,64,93385,1,8,0:1:0:0:
58,64,93603,1,8,3:1:0:0:
148,25,94037,6,1,B|197:20|197:20|235:53,1,98.9999969787599,8|8,3:1|3:1,0:0:0:0:
274,82,94690,1,8,0:1:0:0:
243,178,95124,1,8,0:1:0:0:
243,178,95342,1,8,3:1:0:0:
289,265,95777,2,1,P|363:272|401:272,1,98.9999969787599,8|8,3:1|3:1,0:0:0:0:
437,271,96429,1,8,0:1:0:0:
506,200,96864,1,8,0:1:0:0:
506,200,97081,1,8,3:1:0:0:
472,91,97531,6,1,B|448:43|448:43|392:30,1,110,0|8,3:0|0:1,0:0:0:0:
343,22,98183,1,0,3:0:0:0:
343,22,98400,2,1,L|271:36,1,55,0|0,3:0|3:0,0:0:0:0:
240,58,98835,2,1,L|168:44,1,55,8|0,3:1|3:0,0:0:0:0:
132,33,99270,1,0,3:0:0:0:
22,25,99704,2,1,L|8:97,1,55,8|0,0:1|3:0,0:0:0:0:
0,133,100139,2,1,L|72:147,1,55,0|0,3:0|3:0,0:0:0:0:
107,157,100574,1,8,3:1:0:0:
211,192,101009,6,1,P|282:202|311:183,1,110,0|8,3:0|0:1,0:0:0:0:
358,152,101661,1,0,3:0:0:0:
358,152,101878,2,1,P|393:156|426:157,1,55,0|0,3:0|3:0,0:0:0:0:
467,156,102313,2,1,P|476:191|488:226,1,55,8|0,3:1|3:0,0:0:0:0:
498,261,102748,1,0,3:0:0:0:
493,370,103183,2,1,L|420:375,1,55,8|0,0:1|3:0,0:0:0:0:
387,352,103617,2,1,L|314:347,1,55,0|0,3:0|3:0,0:0:0:0:
277,344,104052,1,8,3:1:0:0:
170,314,104487,6,1,P|164:283|163:253,1,55,8|8,3:2|0:2,0:0:0:0:
165,204,104922,2,1,P|193:140|183:100,1,110,8|8,0:1|3:2,0:0:0:0:
164,57,105574,1,8,3:2:0:0:
164,57,105791,1,8,3:1:0:0:
61,15,106226,2,1,P|32:39|11:65,1,55,8|8,3:2|0:2,0:0:0:0:
1,103,106661,2,1,P|5:203|3:219,1,110,8|8,0:1|3:2,0:0:0:0:
4,271,107313,1,8,3:2:0:0:
4,271,107531,1,8,3:1:0:0:
63,363,107965,6,1,L|152:369,1,55,8|8,3:2|0:2,0:0:0:0:
172,364,108400,2,1,P|268:352|299:358,1,110,8|8,0:1|3:2,0:0:0:0:
338,366,109052,1,8,3:2:0:0:
338,366,109270,1,8,3:1:0:0:
441,330,109704,2,1,L|446:244,1,55,8|8,3:2|0:2,0:0:0:0:
477,231,110139,2,1,L|472:145,1,55,8|8,0:1|3:2,0:0:0:0:
503,129,110574,2,1,L|508:43,1,55,8|8,3:2|3:2,0:0:0:0:
506,18,111009,1,8,0:1:0:0:
