osu file format v14

[General]
AudioFilename: audio.mp3
AudioLeadIn: 0
PreviewTime: 14047
Countdown: 0
SampleSet: Soft
StackLeniency: 0.7
Mode: 0
LetterboxInBreaks: 0
WidescreenStoryboard: 1

[Editor]
Bookmarks: 7105,14047,15179,21864,27960,41873,69481,69699,83612,94046,95786,97540,102757,104496,109713,111018
DistanceSpacing: 1.2
BeatDivisor: 4
GridSize: 32
TimelineZoom: 1.4

[Metadata]
Title:WHO'S READY FOR TOMORROW
TitleUnicode:WHO'S READY FOR TOMORROW
Artist:Rat Boy & IBDY
ArtistUnicode:Rat Boy & IBDY
Creator:O K U
Version:LURU'S INSANE
Source:Cyberpunk: Edgerunners
Tags:anime english male vocal vocals vocalist hip-hop alternative cyberpunk edgerunners 2077 Video Game Soundtrack hiphop hip hop OST whos o_k_u dt best mod dt_best_mod sana sanayui not your kitty not_your_kitty sightread yoshino [yoshino] lurumic
BeatmapID:4441553
BeatmapSetID:2107583

[Difficulty]
HPDrainRate:5
CircleSize:3.8
OverallDifficulty:7.8
ApproachRate:9
SliderMultiplier:1.8
SliderTickRate:1

[Events]
//Background and Video events
0,0,"bg.jpg",0,0
//Break Periods
//Storyboard Layer 0 (Background)
//Storyboard Layer 1 (Fail)
//Storyboard Layer 2 (Pass)
//Storyboard Layer 3 (Foreground)
//Storyboard Layer 4 (Overlay)
//Storyboard Sound Samples

[TimingPoints]
140,434.782608695652,4,2,1,40,1,0
140,-133.333333333333,4,2,1,40,0,0
466,-133.333333333333,4,2,1,5,0,0
574,-133.333333333333,4,2,1,40,0,0
791,-133.333333333333,4,2,1,5,0,0
1009,-133.333333333333,4,2,1,40,0,0
1335,-133.333333333333,4,2,1,5,0,0
1443,-133.333333333333,4,2,1,40,0,0
1660,-133.333333333333,4,2,1,5,0,0
1879,-133.333333333333,4,2,1,40,0,0
2205,-133.333333333333,4,2,1,5,0,0
2313,-133.333333333333,4,2,1,40,0,0
2530,-133.333333333333,4,2,1,5,0,0
2748,-133.333333333333,4,2,1,40,0,0
3074,-133.333333333333,4,2,1,5,0,0
3182,-133.333333333333,4,2,1,40,0,0
3399,-133.333333333333,4,2,1,5,0,0
3618,-133.333333333333,4,2,1,40,0,0
5357,-153.846153846154,4,2,1,40,0,0
5574,-153.846153846154,4,2,1,5,0,0
5792,-153.846153846154,4,2,1,40,0,0
6009,-153.846153846154,4,2,1,5,0,0
6226,-153.846153846154,4,2,1,40,0,0
6552,-153.846153846154,4,2,1,5,0,0
6661,-222.222222222222,4,2,1,40,0,0
7041,-222.222222222222,4,2,1,5,0,0
7096,-153.846153846154,4,2,1,50,0,0
13618,-500,4,2,1,50,0,0
13944,-500,4,2,1,5,0,0
14038,434.782608695652,4,2,1,75,1,0
14038,-57.1428571428571,4,2,1,75,0,0
14364,-57.1428571428571,4,2,1,5,0,0
14472,-57.1428571428571,4,2,1,75,0,0
14690,-74.0740740740741,4,2,1,75,0,0
15015,-74.0740740740741,4,2,1,5,0,0
15124,-74.0740740740741,4,2,1,75,0,0
15232,-74.0740740740741,4,2,1,5,0,0
15342,-74.0740740740741,4,2,1,75,0,0
15777,-66.6666666666667,4,2,1,75,0,0
15885,-66.6666666666667,4,2,1,5,0,0
15994,-66.6666666666667,4,2,1,75,0,0
16102,-66.6666666666667,4,2,1,5,0,0
16211,-58.8235294117647,4,2,1,75,0,0
16646,-66.6666666666667,4,2,1,75,0,0
16754,-66.6666666666667,4,2,1,5,0,0
16864,-66.6666666666667,4,2,1,75,0,0
17624,-66.6666666666667,4,2,1,5,0,0
17733,-66.6666666666667,4,2,1,75,0,0
17841,-66.6666666666667,4,2,1,5,0,0
17951,-66.6666666666667,4,2,1,75,0,0
18385,-74.0740740740741,4,2,1,75,0,0
18493,-74.0740740740741,4,2,1,5,0,0
18603,-74.0740740740741,4,2,1,75,0,0
19255,-66.6666666666667,4,2,1,75,0,0
20232,-66.6666666666667,4,2,1,5,0,0
20341,-66.6666666666667,4,2,1,75,0,0
20559,-50,4,2,1,75,0,0
21320,-50,4,2,1,5,0,0
21429,-50,4,2,1,75,0,0
21646,-74.0740740740741,4,2,1,75,0,0
21972,-74.0740740740741,4,2,1,5,0,0
22081,-74.0740740740741,4,2,1,75,0,0
22189,-74.0740740740741,4,2,1,5,0,0
22298,-74.0740740740741,4,2,1,75,0,0
22733,-66.6666666666667,4,2,1,75,0,0
22841,-66.6666666666667,4,2,1,5,0,0
22951,-66.6666666666667,4,2,1,75,0,0
23059,-66.6666666666667,4,2,1,5,0,0
23168,-66.6666666666667,4,2,1,75,0,0
23711,-66.6666666666667,4,2,1,5,0,0
23820,-66.6666666666667,4,2,1,75,0,0
24580,-66.6666666666667,4,2,1,5,0,0
24690,-66.6666666666667,4,2,1,75,0,0
24798,-66.6666666666667,4,2,1,5,0,0
24907,-66.6666666666667,4,2,1,75,0,0
25342,-74.0740740740741,4,2,1,75,0,0
25450,-74.0740740740741,4,2,1,5,0,0
25559,-74.0740740740741,4,2,1,75,0,0
26211,-66.6666666666667,4,2,1,75,0,0
26537,-66.6666666666667,4,2,1,5,0,0
26646,-58.8235294117647,4,2,1,75,0,0
27516,-83.3333333333333,4,2,1,75,0,0
27624,-83.3333333333333,4,2,1,5,0,0
27733,-83.3333333333333,4,2,1,75,0,0
27951,-100,4,2,1,55,0,0
28059,-100,4,2,2,55,0,0
28385,-83.3333333333333,4,2,2,55,0,0
28820,-166.666666666667,4,2,2,55,0,0
31320,-166.666666666667,4,2,2,5,0,0
31429,-166.666666666667,4,2,2,55,0,0
34907,-125,4,2,2,55,0,0
35777,-166.666666666667,4,2,2,55,0,0
36646,-125,4,2,2,55,0,0
37298,-166.666666666667,4,2,2,55,0,0
41429,-250,4,2,2,55,0,0
41646,-250,4,2,2,55,0,0
41755,-250,4,2,2,55,0,0
41864,-76.9230769230769,4,2,1,75,0,0
42190,-76.9230769230769,4,2,1,5,0,0
42298,-76.9230769230769,4,2,1,75,0,0
43168,-100,4,2,1,75,0,0
43603,-76.9230769230769,4,2,1,75,0,0
43929,-76.9230769230769,4,2,1,5,0,0
44037,-76.9230769230769,4,2,1,75,0,0
45016,-100,4,2,1,75,0,0
45342,-76.9230769230769,4,2,1,75,0,0
45668,-76.9230769230769,4,2,1,5,0,0
45777,-76.9230769230769,4,2,1,75,0,0
46755,-100,4,2,1,75,0,0
48385,-76.9230769230769,4,2,1,75,0,0
48493,-76.9230769230769,4,2,1,5,0,0
48603,-76.9230769230769,4,2,1,75,0,0
49146,-76.9230769230769,4,2,1,5,0,0
49255,-76.9230769230769,4,2,1,75,0,0
50233,-100,4,2,1,75,0,0
50559,-76.9230769230769,4,2,1,75,0,0
50885,-76.9230769230769,4,2,1,5,0,0
50994,-76.9230769230769,4,2,1,75,0,0
51864,-100,4,2,1,75,0,0
52298,-76.9230769230769,4,2,1,75,0,0
52624,-76.9230769230769,4,2,1,5,0,0
52733,-76.9230769230769,4,2,1,75,0,0
53603,-100,4,2,1,75,0,0
55342,-76.9230769230769,4,2,1,75,0,0
55450,-76.9230769230769,4,2,1,5,0,0
55559,-76.9230769230769,4,2,1,75,0,0
55777,-66.6666666666667,4,2,1,75,0,0
56103,-66.6666666666667,4,2,1,5,0,0
56211,-66.6666666666667,4,2,1,75,0,0
57081,-100,4,2,1,75,0,0
57516,-76.9230769230769,4,2,1,75,0,0
57842,-76.9230769230769,4,2,1,5,0,0
57951,-76.9230769230769,4,2,1,75,0,0
58929,-100,4,2,1,75,0,0
59255,-76.9230769230769,4,2,1,75,0,0
59581,-76.9230769230769,4,2,1,5,0,0
59690,-76.9230769230769,4,2,1,75,0,0
60559,-100,4,2,1,75,0,0
62298,-76.9230769230769,4,2,1,75,0,0
62406,-76.9230769230769,4,2,1,5,0,0
62516,-76.9230769230769,4,2,1,75,0,0
62733,-66.6666666666667,4,2,1,75,0,0
63059,-66.6666666666667,4,2,1,5,0,0
63168,-66.6666666666667,4,2,1,75,0,0
64146,-100,4,2,1,75,0,0
64472,-76.9230769230769,4,2,1,75,0,0
64798,-76.9230769230769,4,2,1,5,0,0
64907,-76.9230769230769,4,2,1,75,0,0
65777,-100,4,2,1,75,0,0
66211,-76.9230769230769,4,2,1,75,0,0
66537,-76.9230769230769,4,2,1,5,0,0
66646,-76.9230769230769,4,2,1,75,0,0
67516,-100,4,2,1,75,0,0
69255,-66.6666666666667,4,2,1,75,0,0
69363,-66.6666666666667,4,2,1,5,0,0
69472,-66.6666666666667,4,2,1,75,0,0
69690,-125,4,2,1,55,0,0
69798,-125,4,2,2,55,0,0
70559,-166.666666666667,4,2,2,55,0,0
71429,-125,4,2,2,55,0,0
72516,-166.666666666667,4,2,2,55,0,0
73059,-166.666666666667,4,2,2,5,0,0
73168,-166.666666666667,4,2,2,55,0,0
76646,-125,4,2,2,55,0,0
77516,-166.666666666667,4,2,2,55,0,0
78385,-125,4,2,2,55,0,0
79037,-166.666666666667,4,2,2,55,0,0
81864,-333.333333333333,4,2,2,60,0,0
82081,-333.333333333333,4,2,2,5,0,0
82298,-333.333333333333,4,2,2,55,0,0
82516,-166.666666666667,4,2,3,60,0,0
82733,-166.666666666667,4,2,2,55,0,0
83168,-50,4,2,2,55,0,0
83222,-50,4,2,2,5,0,0
83603,-100,4,2,2,60,0,0
83929,-100,4,2,2,5,0,0
84037,-100,4,2,2,60,0,0
84472,-133.333333333333,4,2,2,60,0,0
84689,-133.333333333333,4,2,2,5,0,0
84907,-133.333333333333,4,2,2,60,0,0
85124,-133.333333333333,4,2,2,5,0,0
85342,-133.333333333333,4,2,2,60,0,0
86863,-133.333333333333,4,2,2,5,0,0
87081,-133.333333333333,4,2,2,60,0,0
90559,-100,4,2,2,30,0,0
91429,-133.333333333333,4,2,2,35,0,0
92298,-133.333333333333,4,2,2,40,0,0
93168,-133.333333333333,4,2,2,45,0,0
94037,-133.333333333333,4,2,2,50,0,0
94907,-117.647058823529,4,2,2,55,0,0
95777,-117.647058823529,4,2,2,60,0,0
96646,-117.647058823529,4,2,2,65,0,0
97531,434.782608695652,4,2,1,65,1,0
98400,-133.333333333333,4,2,1,65,0,0
104487,-117.647058823529,4,2,1,65,0,0
111009,-285.714285714283,4,2,1,65,0,0
111226,-285.714285714283,4,2,1,5,0,0

[Colours]
Combo1 : 238,193,153
Combo2 : 235,255,174
Combo3 : 204,225,230
Combo4 : 254,156,156

[HitObjects]
439,130,140,6,1,L|457:31,1,101.250003862381,0|0,0:0|0:0,0:0:0:0:
512,159,574,2,1,P|479:151|445:146,1,67.5000025749208,2|0,0:0|0:0,0:0:0:0:
330,118,1009,6,1,L|351:225,1,101.250003862381,0|0,0:0|0:0,0:0:0:0:
276,246,1443,2,1,P|308:238|342:232,1,67.5000025749208,2|0,0:0|0:0,0:0:0:0:
178,119,1879,6,1,L|195:19,1,101.250003862381,0|0,0:0|0:0,0:0:0:0:
254,153,2313,2,1,P|220:147|187:139,1,67.5000025749208,2|0,0:0|0:0,0:0:0:0:
93,132,2748,6,1,L|110:231,1,101.250003862381,0|0,0:0|0:0,0:0:0:0:
37,262,3182,2,1,P|69:254|103:248,1,67.5000025749208,2|0,0:0|0:0,0:0:0:0:
191,286,3618,5,0,0:0:0:0:
19,178,4053,1,2,0:0:0:0:
114,359,4487,5,0,0:0:0:0:
114,359,4705,1,0,0:0:0:0:
191,198,4922,1,2,0:0:0:0:
328,338,5357,6,1,L|386:351,1,58.4999973220826,0|0,0:0|0:0,0:0:0:0:
326,352,5792,2,1,L|382:367,1,58.4999973220826,2|0,0:0|0:0,0:0:0:0:
459,308,6226,1,0,0:0:0:0:
459,308,6444,6,1,L|471:257,1,29.2499986610413,0|0,0:0|0:0,0:0:0:0:
384,269,6661,2,1,L|371:191,1,70.8749978370667,2|0,0:0|0:0,0:0:0:0:
383,172,7096,6,1,L|452:157,1,58.4999973220826,2|2,0:3|0:3,0:0:0:0:
339,41,7531,2,1,L|258:21,1,58.4999973220826,10|2,0:2|0:3,0:0:0:0:
263,24,7857,1,2,0:3:0:0:
263,24,7966,5,2,0:3:0:0:
166,119,8183,1,2,0:3:0:0:
104,57,8400,1,10,0:2:0:0:
166,119,8618,1,2,0:3:0:0:
104,57,8835,6,1,L|89:-14,1,58.4999973220826,2|2,0:3|0:3,0:0:0:0:
244,98,9270,2,1,L|259:161,1,58.4999973220826,10|2,0:2|0:3,0:0:0:0:
264,173,9596,1,2,0:3:0:0:
264,173,9705,5,2,0:3:0:0:
166,119,9922,1,2,0:3:0:0:
226,252,10139,1,10,0:2:0:0:
329,117,10357,1,2,0:3:0:0:
154,203,10574,6,1,L|98:221,1,58.4999973220826,2|2,0:3|0:3,0:0:0:0:
209,364,11009,2,1,L|266:376,1,58.4999973220826,10|2,0:2|0:3,0:0:0:0:
285,384,11335,1,2,0:3:0:0:
285,384,11444,5,2,0:3:0:0:
421,282,11661,1,2,0:3:0:0:
349,243,11879,1,10,0:2:0:0:
347,325,12096,1,2,0:3:0:0:
269,282,12313,6,1,P|251:261|244:218,1,58.4999973220826,2|2,0:3|0:3,0:0:0:0:
135,221,12748,2,1,P|134:193|155:155,1,58.4999973220826,10|2,0:2|0:3,0:0:0:0:
164,153,13074,1,2,0:3:0:0:
164,153,13183,1,8,0:2:0:0:
241,94,13400,1,8,0:2:0:0:
419,173,13618,6,1,L|425:204,1,27,0|0,0:0|0:0,0:0:0:0:
512,232,14038,6,1,P|412:225|281:353,1,236.250002253056,4|0,3:0|0:0,0:0:0:0:
255,373,14472,1,8,0:1:0:0:
54,226,14690,6,1,P|24:219|1:200,1,60.7500002317429,0|2,3:0|0:3,0:0:0:0:
63,144,14907,2,1,P|44:120|35:91,1,60.7500002317429,0|0,3:0|0:0,0:0:0:0:
118,82,15124,2,1,P|124:52|141:27,1,60.7500002317429,0|0,3:0|0:0,0:0:0:0:
233,133,15342,5,8,3:1:0:0:
234,149,15451,1,8,0:2:0:0:
276,188,15559,1,0,3:0:0:0:
271,203,15668,1,8,0:2:0:0:
226,265,15777,6,1,P|232:294|243:334,1,67.5000025749208,4|0,3:0|0:0,0:0:0:0:
147,285,15994,2,1,P|156:314|164:354,1,67.5000025749208,2|0,0:3|0:0,0:0:0:0:
324,384,16211,6,1,B|336:327|336:327|344:314|344:314|373:184,1,153.000002918243,8|0,0:1|3:0,0:0:0:0:
512,104,16646,6,1,P|474:100|442:78,1,67.5000025749208,0|0,3:0|0:0,0:0:0:0:
397,20,16864,1,0,3:0:0:0:
319,107,17081,5,8,3:1:0:0:
303,112,17190,1,8,0:2:0:0:
264,88,17298,1,0,3:0:0:0:
247,96,17407,1,8,0:2:0:0:
193,149,17516,6,1,L|118:167,1,67.5000025749208,4|0,3:0|0:0,0:0:0:0:
108,77,17733,2,1,L|174:63,1,67.5000025749208,2|0,0:3|0:0,0:0:0:0:
392,162,17951,6,1,B|418:190|418:190|522:217,1,135.000005149842,8|0,0:1|3:0,0:0:0:0:
371,293,18385,6,1,P|329:305|293:353,1,60.7500002317429,0|0,3:0|0:0,0:0:0:0:
261,384,18603,1,0,3:0:0:0:
151,277,18820,5,8,3:1:0:0:
155,258,18929,1,8,0:2:0:0:
113,222,19037,1,0,3:0:0:0:
120,206,19146,1,8,0:2:0:0:
129,133,19255,6,1,L|104:-12,1,135.000005149842,4|2,3:0|0:3,0:0:0:0:
238,296,19690,2,1,L|266:162,1,135.000005149842,8|0,0:1|3:0,0:0:0:0:
77,384,20124,6,1,B|46:287,1,67.5000025749208,0|0,3:0|0:0,0:0:0:0:
23,239,20341,1,0,3:0:0:0:
372,377,20559,6,1,B|392:229|471:315|491:118,1,270,8|2,3:1|0:3,0:0:0:0:
470,335,20994,2,1,B|452:179|365:257|348:105,1,270,4|0,3:0|0:0,0:0:0:0:
401,39,21429,1,8,0:1:0:0:
321,252,21646,6,1,P|284:256|230:285,1,60.7500002317429,0|2,3:0|0:3,0:0:0:0:
160,204,21864,2,1,P|202:186|265:184,1,60.7500002317429,0|0,3:0|0:0,0:0:0:0:
331,114,22081,2,1,P|289:101|216:107,1,60.7500002317429,0|0,3:0|0:0,0:0:0:0:
131,1,22298,5,8,3:1:0:0:
140,14,22407,1,8,0:2:0:0:
129,63,22516,1,0,3:0:0:0:
118,50,22624,1,8,0:2:0:0:
133,43,22733,6,1,L|131:113,1,67.5000025749208,4|0,3:0|0:0,0:0:0:0:
45,0,22951,2,1,P|44:36|44:78,1,67.5000025749208,2|0,0:3|0:0,0:0:0:0:
140,212,23168,6,1,B|175:217|190:235|190:235|205:235|205:235|223:255|272:262,1,135.000005149842,8|0,0:1|3:0,0:0:0:0:
430,147,23603,6,1,P|443:130|449:84,1,67.5000025749208,0|0,3:0|0:0,0:0:0:0:
407,8,23820,1,0,3:0:0:0:
313,109,24037,5,8,3:1:0:0:
297,117,24146,1,8,0:2:0:0:
264,155,24255,1,0,3:0:0:0:
245,148,24364,1,8,0:2:0:0:
203,79,24472,6,1,P|199:45|189:-11,1,67.5000025749208,4|0,3:0|0:0,0:0:0:0:
128,131,24690,2,1,P|121:92|111:52,1,67.5000025749208,2|0,0:3|0:0,0:0:0:0:
176,206,24907,6,1,P|110:221|47:245,1,135.000005149842,8|0,0:1|3:0,0:0:0:0:
358,295,25342,6,1,P|396:295|432:303,1,60.7500002317429,0|0,3:0|0:0,0:0:0:0:
503,321,25559,1,0,3:0:0:0:
284,382,25777,5,8,3:1:0:0:
267,384,25885,1,8,0:2:0:0:
212,338,25994,1,0,3:0:0:0:
195,346,26103,1,8,0:2:0:0:
194,266,26211,6,1,B|201:217|134:199|106:299|209:334|280:279,1,202.500007724762,4|0,3:0|0:0,0:0:0:0:
350,186,26646,2,1,B|306:141|306:141|257:184|264:237,1,153.000002918243,8|0,0:1|3:0,0:0:0:0:
164,156,27081,5,0,3:0:0:0:
74,131,27298,1,0,3:0:0:0:
244,90,27516,6,1,L|316:75,1,53.9999983520508,8|0,3:1|0:0,0:0:0:0:
373,25,27733,2,1,L|447:9,1,53.9999983520508,8|2,3:2|0:3,0:0:0:0:
279,2,27951,6,0,P|267:77|265:203,1,180,4|8,3:0|0:2,0:0:0:0:
342,156,28603,1,8,0:2:0:0:
342,156,28820,2,0,P|369:150|396:148,1,53.9999983520508
463,195,29255,2,0,P|472:223|472:251,1,53.9999983520508,8|0,0:2|0:0,0:0:0:0:
439,328,29690,2,0,B|384:340|403:373|341:379,1,107.999996704102,0|8,0:0|0:2,0:0:0:0:
260,352,30342,1,8,0:2:0:0:
114,238,30777,5,0,0:0:0:0:
114,238,30994,2,0,P|99:196|100:145,1,80.9999975280763,8|0,0:2|0:0,0:0:0:0:
104,145,31429,2,0,P|143:126|170:118,2,53.9999983520508,0|0|8,0:0|0:0|0:2,0:0:0:0:
30,107,32081,2,0,L|-5:102,2,26.9999991760254,8|0|0,0:2|0:0|0:0,0:0:0:0:
113,13,32516,2,0,P|102:47|97:83,1,53.9999983520508,0|8,0:0|0:2,0:0:0:0:
191,199,32951,5,0,0:0:0:0:
191,199,33059,1,0,0:0:0:0:
191,199,33168,1,0,0:0:0:0:
269,239,33385,1,0,0:0:0:0:
345,189,33603,1,8,0:2:0:0:
336,104,33820,1,8,0:2:0:0:
189,220,34037,5,0,0:0:0:0:
266,255,34255,1,0,0:0:0:0:
343,289,34472,1,8,0:2:0:0:
302,359,34690,5,0,0:0:0:0:
309,366,34798,1,0,0:0:0:0:
309,354,34907,2,0,L|284:190,1,144,0|8,0:0|0:2,0:0:0:0:
205,160,35559,5,8,0:2:0:0:
205,160,35777,2,0,P|169:153|134:169,1,53.9999983520508
288,118,36211,2,0,P|297:92|295:66,1,53.9999983520508,8|0,0:2|0:0,0:0:0:0:
205,160,36646,2,0,P|244:185|347:198,1,144,0|8,0:0|0:2,0:0:0:0:
429,151,37298,5,8,0:2:0:0:
429,151,37516,2,0,P|419:188|422:207,1,53.9999983520508
505,212,37951,2,0,P|515:175|512:156,1,53.9999983520508,8|0,0:2|0:0,0:0:0:0:
374,276,38385,2,0,P|331:278|268:322,1,107.999996704102,0|8,0:0|0:2,0:0:0:0:
153,384,39037,6,0,P|179:380|202:366,1,53.9999983520508,8|0,0:2|0:0,0:0:0:0:
288,318,39472,2,0,P|294:275|288:248,1,53.9999983520508,0|8,0:0|0:2,0:0:0:0:
227,160,39907,5,0,0:0:0:0:
227,160,40016,1,0,0:0:0:0:
227,160,40124,1,0,0:0:0:0:
267,75,40342,1,0,0:0:0:0:
359,87,40559,1,8,0:2:0:0:
375,178,40777,1,8,0:2:0:0:
216,146,40994,5,0,0:0:0:0:
253,73,41211,1,0,0:0:0:0:
472,282,41429,6,0,P|447:271|422:261,1,54,8|0,0:2|0:0,0:0:0:0:
481,295,41864,6,1,P|397:260|308:233,1,175.499991966248,4|0,3:0|0:0,0:0:0:0:
295,235,42298,1,8,0:1:0:0:
420,185,42516,1,0,3:0:0:0:
345,328,42733,2,1,P|287:336|230:350,1,116.999994644165,0|0,3:0|3:0,0:0:0:0:
126,268,43168,5,8,3:1:0:0:
119,248,43277,1,8,0:2:0:0:
113,228,43385,2,1,L|100:178,1,45,0|8,3:0|0:2,0:0:0:0:
218,20,43603,6,1,B|243:58|243:58|206:207,1,175.499991966248,4|0,3:0|0:0,0:0:0:0:
206,209,44037,1,8,0:1:0:0:
128,99,44255,1,0,3:0:0:0:
288,99,44472,1,0,3:0:0:0:
215,236,44690,1,0,3:0:0:0:
346,336,44907,5,8,3:1:0:0:
367,341,45016,1,8,0:2:0:0:
388,348,45124,2,1,L|456:363,1,45,0|8,3:0|0:2,0:0:0:0:
512,157,45342,6,1,B|402:179|402:179|368:254,1,175.499991966248,4|0,3:0|0:0,0:0:0:0:
371,258,45777,1,8,0:1:0:0:
436,96,45994,1,0,3:0:0:0:
282,66,46211,2,1,P|296:122|310:180,1,116.999994644165,0|0,3:0|3:0,0:0:0:0:
240,341,46646,5,8,3:1:0:0:
218,345,46755,1,8,0:2:0:0:
198,350,46864,2,1,L|139:363,1,45,0|8,3:0|0:2,0:0:0:0:
31,249,47081,5,4,3:0:0:0:
125,278,47298,1,2,0:3:0:0:
1,160,47516,1,8,0:1:0:0:
107,289,47733,1,0,3:0:0:0:
298,173,47951,5,0,3:0:0:0:
275,260,48168,1,0,3:0:0:0:
476,178,48385,6,1,P|488:151|480:109,1,58.4999973220826,8|0,3:1|0:0,0:0:0:0:
379,25,48603,2,1,P|380:54|391:81,1,58.4999973220826,8|2,3:2|0:3,0:0:0:0:
319,159,48820,6,1,P|239:179|186:262,1,175.499991966248,4|0,3:0|0:0,0:0:0:0:
186,279,49255,1,8,0:1:0:0:
99,177,49472,1,0,3:0:0:0:
8,308,49690,2,1,P|57:339|114:347,1,116.999994644165,0|0,3:0|3:0,0:0:0:0:
286,374,50124,5,8,3:1:0:0:
290,352,50233,1,8,0:2:0:0:
296,330,50342,2,1,L|306:281,1,45,0|8,3:0|0:2,0:0:0:0:
112,216,50559,6,1,P|66:142|83:60,1,175.499991966248,4|0,3:0|0:0,0:0:0:0:
102,42,50994,1,8,0:1:0:0:
218,0,51211,1,0,3:0:0:0:
211,147,51429,1,0,3:0:0:0:
89,31,51646,1,0,3:0:0:0:
0,176,51864,5,8,3:1:0:0:
4,199,51972,1,8,0:2:0:0:
8,222,52081,2,1,L|17:277,1,45,0|8,3:0|0:2,0:0:0:0:
165,307,52298,6,1,B|207:310|207:310|239:333|250:371|279:380|279:380|331:379,1,175.499991966248,4|0,3:0|0:0,0:0:0:0:
338,381,52733,1,8,0:1:0:0:
253,241,52951,1,0,3:0:0:0:
395,170,53168,2,1,P|383:227|370:284,1,116.999994644165,0|0,3:0|3:0,0:0:0:0:
245,162,53603,5,8,3:1:0:0:
222,154,53711,1,8,0:2:0:0:
199,147,53820,2,1,L|140:130,1,45,0|8,3:0|0:2,0:0:0:0:
66,52,54037,5,4,3:0:0:0:
166,35,54255,1,2,0:3:0:0:
0,0,54472,1,8,0:1:0:0:
153,55,54690,1,0,3:0:0:0:
0,150,54907,5,0,3:0:0:0:
28,236,55124,1,0,3:0:0:0:
150,361,55342,6,1,P|188:378|235:366,1,58.4999973220826,8|0,3:1|0:0,0:0:0:0:
342,314,55559,2,1,P|313:314|288:329,1,58.4999973220826,8|2,3:2|0:3,0:0:0:0:
123,95,55777,6,1,P|182:179|205:324,1,202.500007724762,4|0,3:0|0:0,0:0:0:0:
212,291,56211,1,8,0:1:0:0:
286,192,56429,1,0,3:0:0:0:
113,244,56646,1,0,3:0:0:0:
286,384,56864,1,0,3:0:0:0:
420,296,57081,5,8,3:1:0:0:
424,273,57190,1,8,0:2:0:0:
429,251,57298,2,1,L|439:173,1,45,0|8,3:0|0:2,0:0:0:0:
512,68,57516,6,1,P|428:130|329:130,1,175.499991966248,4|0,3:0|0:0,0:0:0:0:
334,128,57951,1,8,0:1:0:0:
258,0,58168,1,0,3:0:0:0:
196,144,58385,1,0,3:0:0:0:
333,104,58603,1,0,3:0:0:0:
168,54,58820,5,8,3:1:0:0:
143,50,58929,1,8,0:2:0:0:
119,45,59037,2,1,L|52:36,1,45,0|8,3:0|0:2,0:0:0:0:
0,193,59255,6,1,P|68:196|142:287,1,175.499991966248,4|0,3:0|0:0,0:0:0:0:
148,295,59690,1,8,0:1:0:0:
231,225,59907,1,0,3:0:0:0:
53,278,60124,1,0,3:0:0:0:
190,377,60342,1,0,3:0:0:0:
152,184,60559,5,8,3:1:0:0:
146,162,60668,1,8,0:2:0:0:
140,140,60777,2,1,L|127:76,1,45,0|8,3:0|0:2,0:0:0:0:
327,208,60994,5,4,3:0:0:0:
307,314,61211,1,2,0:3:0:0:
414,241,61429,1,8,0:1:0:0:
297,326,61646,1,0,3:0:0:0:
511,381,61864,5,0,3:0:0:0:
432,340,62081,1,0,3:0:0:0:
248,248,62298,6,1,P|213:270|151:252,1,58.4999973220826,8|0,3:1|0:0,0:0:0:0:
110,217,62516,2,1,P|96:191|93:163,1,58.4999973220826,8|2,3:2|0:3,0:0:0:0:
164,10,62733,6,1,P|262:5|325:80,1,202.500007724762,4|0,3:0|0:0,0:0:0:0:
337,100,63168,1,8,0:1:0:0:
232,182,63385,1,0,3:0:0:0:
403,180,63603,1,0,3:0:0:0:
239,89,63820,1,0,3:0:0:0:
148,226,64037,5,8,3:1:0:0:
146,251,64146,1,8,0:2:0:0:
144,276,64255,2,1,L|140:352,1,45,0|8,3:0|0:2,0:0:0:0:
372,383,64472,6,1,P|323:314|318:221,1,175.499991966248,4|0,3:0|0:0,0:0:0:0:
325,203,64907,1,8,0:1:0:0:
423,96,65124,1,0,3:0:0:0:
244,173,65342,1,0,3:0:0:0:
391,281,65559,1,0,3:0:0:0:
494,214,65777,5,8,3:1:0:0:
497,189,65885,1,8,0:2:0:0:
499,164,65994,2,1,L|504:112,1,45,0|8,3:0|0:2,0:0:0:0:
308,28,66211,6,1,B|248:12|248:12|106:81,1,175.499991966248,4|0,3:0|0:0,0:0:0:0:
127,74,66646,1,8,0:1:0:0:
116,206,66864,1,0,3:0:0:0:
15,109,67081,1,0,3:0:0:0:
179,142,67298,1,0,3:0:0:0:
43,259,67516,5,8,3:1:0:0:
42,283,67624,1,8,0:2:0:0:
41,308,67733,2,1,L|38:360,1,45,0|8,3:0|0:2,0:0:0:0:
217,384,67951,5,4,3:0:0:0:
122,303,68168,1,2,0:3:0:0:
235,248,68385,1,8,0:1:0:0:
120,316,68603,1,0,3:0:0:0:
333,286,68820,5,0,3:0:0:0:
357,375,69037,1,0,3:0:0:0:
146,227,69255,6,1,P|110:214|62:197,1,67.5000025749208,8|0,3:1|0:0,0:0:0:0:
179,149,69472,2,1,P|143:136|95:119,1,67.5000025749208,8|2,3:2|0:3,0:0:0:0:
34,139,69690,6,0,P|47:53|74:-21,1,144,0|8,3:0|0:2,0:0:0:0:
137,50,70342,1,8,0:2:0:0:
137,50,70559,2,0,P|157:54|196:42,1,53.9999983520508
270,10,70994,2,0,P|306:9|335:20,1,53.9999983520508,8|0,0:2|0:0,0:0:0:0:
406,78,71429,2,0,P|404:127|374:236,1,144,0|8,0:0|0:2,0:0:0:0:
324,286,72081,1,8,0:2:0:0:
216,169,72516,5,0,0:0:0:0:
216,169,72733,2,0,P|172:157|126:167,1,80.9999975280763,8|0,0:2|0:0,0:0:0:0:
123,172,73168,2,0,P|112:208|108:237,2,53.9999983520508,0|0|8,0:0|0:0|0:2,0:0:0:0:
42,159,73820,2,0,P|39:145|38:132,2,26.9999991760254,8|0|0,0:2|0:0|0:0,0:0:0:0:
0,236,74255,2,0,P|9:274|16:299,1,53.9999983520508,0|8,0:0|0:2,0:0:0:0:
125,368,74690,5,0,0:0:0:0:
125,368,74798,1,0,0:0:0:0:
125,368,74907,1,0,0:0:0:0:
190,309,75124,1,0,0:0:0:0:
183,218,75342,1,8,0:2:0:0:
105,176,75559,1,8,0:2:0:0:
200,330,75777,5,0,0:0:0:0:
262,277,75994,1,0,0:0:0:0:
262,194,76211,1,8,0:2:0:0:
329,138,76429,5,0,0:0:0:0:
338,142,76537,1,0,0:0:0:0:
343,132,76646,2,0,P|401:116|466:161,1,144,0|8,0:0|0:2,0:0:0:0:
419,240,77298,1,8,0:2:0:0:
419,240,77516,2,0,P|396:201|396:176,1,53.9999983520508
483,96,77951,2,0,P|489:128|474:169,1,53.9999983520508,8|0,0:2|0:0,0:0:0:0:
424,258,78385,2,0,B|351:273|369:307|283:324,1,144,0|8,0:0|0:2,0:0:0:0:
219,282,79037,5,8,0:2:0:0:
219,282,79255,2,0,P|180:272|153:275,1,53.9999983520508
154,352,79690,2,0,P|193:362|220:359,1,53.9999983520508,8|0,0:2|0:0,0:0:0:0:
79,246,80124,6,0,P|55:191|54:142,1,107.999996704102,0|8,0:0|0:2,0:0:0:0:
178,143,80777,2,0,P|135:168|121:171,1,53.9999983520508,8|0,0:2|0:0,0:0:0:0:
31,38,81211,2,0,P|85:51|113:97,1,107.999996704102
166,272,81864,6,1,P|180:278|193:282,1,26.9999991760254,8|0,0:0|0:0,0:0:0:0:
266,334,82298,1,8,0:2:0:0:
352,180,82516,6,1,P|333:224|343:288,1,107.999996704102,8|0,0:3|3:0,0:0:0:0:
69,48,83168,6,1,B|60:38|60:38|63:26|63:26|70:38|70:38|69:47,1,45,8|0,0:1|0:0,0:0:0:0:
69,43,83603,6,1,P|124:80|202:78,1,135,0|0,3:0|0:0,0:0:0:0:
202,86,84037,2,1,P|213:44|228:-8,1,90,8|8,0:2|0:2,0:0:0:0:
287,110,84472,6,1,P|303:142|304:176,1,67.5000025749208,0|0,0:0|0:0,0:0:0:0:
238,234,84907,2,1,P|234:268|250:306,1,67.5000025749208,8|0,0:2|0:0,0:0:0:0:
329,384,85342,2,1,P|370:354|383:275,1,135.000005149842,0|8,0:0|0:2,0:0:0:0:
344,191,85994,1,8,0:2:0:0:
344,191,86429,5,0,0:0:0:0:
494,192,86646,2,1,P|457:198|421:208,1,67.5000025749208,8|0,0:2|0:0,0:0:0:0:
310,302,87081,2,1,P|247:290|170:278,1,135.000005149842,0|8,0:0|0:2,0:0:0:0:
87,224,87733,6,1,P|70:183|73:151,1,67.5000025749208,8|0,0:2|0:0,0:0:0:0:
145,74,88168,2,1,P|162:115|159:147,1,67.5000025749208,0|8,0:0|0:2,0:0:0:0:
354,384,88820,6,1,P|344:345|371:251,1,135.000005149842,0|8,0:0|0:2,0:0:0:0:
445,200,89472,1,8,0:2:0:0:
359,170,89690,1,0,0:0:0:0:
450,215,89907,1,0,0:0:0:0:
337,82,90124,1,8,0:2:0:0:
337,82,90559,6,1,P|258:51|201:68,1,135,8|8,3:1|0:1,0:0:0:0:
201,79,90994,2,1,P|187:40|180:-7,1,90,8|8,3:1|0:1,0:0:0:0:
140,143,91429,6,1,P|101:163|66:159,1,67.5000025749208,8|8,3:1|0:1,0:0:0:0:
0,104,91864,2,1,P|39:84|74:88,1,67.5000025749208,8|8,3:1|0:1,0:0:0:0:
223,163,92298,2,1,P|253:224|263:317,1,135.000005149842,8|8,3:1|3:1,0:0:0:0:
213,358,92951,1,8,0:1:0:0:
213,358,93168,6,1,P|165:372|141:368,1,67.5000025749208,8|8,3:1|0:1,0:0:0:0:
132,366,93494,1,8,0:1:0:0:
132,366,93603,2,1,P|107:325|109:298,1,67.5000025749208,8|8,3:1|0:1,0:0:0:0:
154,210,94037,6,1,L|214:199,3,33.7500012874604,8|8|8|8,3:1|0:1|0:1|0:1,0:0:0:0:
279,278,94472,2,1,L|245:272,3,33.7500012874604,8|8|8|8,3:1|0:1|0:1|0:1,0:0:0:0:
340,212,94907,2,1,L|355:158,3,38.2500007295609,8|8|8|8,3:1|0:1|0:1|0:1,0:0:0:0:
406,286,95342,2,1,L|417:347,3,38.2500007295609,8|8|8|8,3:1|0:1|0:1|0:1,0:0:0:0:
273,169,95777,5,8,3:1:0:0:
262,183,95885,1,8,0:1:0:0:
259,144,95994,1,8,0:1:0:0:
240,154,96103,1,8,0:1:0:0:
266,123,96211,1,8,3:1:0:0:
244,119,96320,1,8,0:1:0:0:
275,103,96429,1,8,0:1:0:0:
260,89,96537,1,8,0:1:0:0:
316,80,96646,5,8,3:1:0:0:
326,58,96755,1,8,0:1:0:0:
333,105,96864,1,8,0:1:0:0:
362,90,96972,1,8,0:1:0:0:
336,136,97081,1,8,3:1:0:0:
368,152,97190,1,8,0:1:0:0:
329,161,97298,1,8,0:1:0:0:
354,198,97407,1,8,0:1:0:0:
298,257,97531,6,1,B|209:261|236:352|146:353,1,180,0|8,3:0|0:1,0:0:0:0:
20,263,98183,1,0,3:0:0:0:
84,199,98400,2,1,P|121:180|165:185,1,67.5000025749208,0|0,3:0|3:0,0:0:0:0:
67,340,98835,5,8,3:1:0:0:
20,263,99052,1,0,3:0:0:0:
152,272,99270,2,1,P|207:286|264:356,1,135.000005149842,0|8,3:0|0:1,0:0:0:0:
399,384,99922,1,0,3:0:0:0:
463,323,100139,2,1,P|480:290|476:251,1,67.5000025749208,0|0,3:0|3:0,0:0:0:0:
348,190,100574,5,8,3:1:0:0:
383,279,100791,1,0,3:0:0:0:
500,143,101009,6,1,P|455:112|358:105,1,135.000005149842,0|8,3:0|0:1,0:0:0:0:
262,221,101661,1,0,3:0:0:0:
181,171,101878,2,1,P|165:127|173:89,1,67.5000025749208,0|0,3:0|3:0,0:0:0:0:
269,11,102313,5,8,3:1:0:0:
247,115,102531,1,0,3:0:0:0:
89,176,102748,6,1,P|78:222|80:251,1,67.5000025749208,0|0,3:0|0:0,0:0:0:0:
157,294,103183,2,1,P|165:341|182:367,1,67.5000025749208,8|0,0:1|3:0,0:0:0:0:
261,384,103617,1,0,3:0:0:0:
261,384,103835,1,0,3:0:0:0:
78,343,104052,1,8,3:1:0:0:
193,201,104270,1,0,3:0:0:0:
272,293,104487,6,1,P|308:311|369:313,1,76.5000014591217,8|8,3:2|0:2,0:0:0:0:
429,200,104922,1,8,0:1:0:0:
372,126,105139,1,8,3:2:0:0:
369,109,105248,1,8,0:2:0:0:
365,89,105357,1,8,3:2:0:0:
468,123,105574,1,8,3:2:0:0:
399,215,105791,2,1,P|360:236|316:236,1,76.5000014591217,8|8,3:1|3:2,0:0:0:0:
261,173,106117,5,8,0:2:0:0:
249,162,106226,2,1,P|224:146|175:143,1,76.5000014591217,8|8,3:2|0:2,0:0:0:0:
97,280,106661,1,8,0:1:0:0:
28,221,106878,1,8,3:2:0:0:
18,203,106987,1,8,0:2:0:0:
20,182,107096,1,8,3:2:0:0:
85,95,107313,1,8,3:2:0:0:
182,225,107531,2,1,P|192:267|197:308,1,76.5000014591217,8|8,3:1|3:2,0:0:0:0:
257,360,107857,5,8,0:2:0:0:
267,368,107965,2,1,P|312:382|345:380,1,76.5000014591217,8|8,3:2|0:2,0:0:0:0:
429,291,108400,1,8,0:1:0:0:
359,228,108617,1,8,3:2:0:0:
341,220,108726,1,8,0:2:0:0:
320,221,108835,1,8,3:2:0:0:
241,277,109052,1,8,3:2:0:0:
111,192,109270,2,1,P|95:154|99:119,1,76.5000014591217,8|8,3:1|3:2,0:0:0:0:
140,45,109596,5,8,0:2:0:0:
152,37,109704,2,1,P|182:24|229:23,1,76.5000014591217,8|8,3:2|0:2,0:0:0:0:
344,125,110139,2,1,P|373:149|426:156,1,76.5000014591217,8|8,0:1|3:2,0:0:0:0:
439,154,110465,1,8,0:2:0:0:
439,154,110574,1,8,3:2:0:0:
340,231,110791,1,8,3:2:0:0:
499,352,111009,6,1,L|508:388,1,31.4999990386963,8|0,0:1|0:0,0:0:0:0:
