osu file format v14

[General]
AudioFilename: audio.mp3
AudioLeadIn: 0
PreviewTime: 14047
Countdown: 0
SampleSet: Soft
StackLeniency: 0.7
Mode: 0
LetterboxInBreaks: 0
WidescreenStoryboard: 0

[Editor]
Bookmarks: 7105,14047,27960,41873,69481,69699,83612,94046,95786,97540,102757,104496,109713,111018
DistanceSpacing: 1
BeatDivisor: 2
GridSize: 32
TimelineZoom: 1.4

[Metadata]
Title:WHO'S READY FOR TOMORROW
TitleUnicode:WHO'S READY FOR TOMORROW
Artist:Rat Boy & IBDY
ArtistUnicode:Rat Boy & IBDY
Creator:O K U
Version:2076
Source:Cyberpunk: Edgerunners
Tags:anime english male vocal vocals vocalist hip-hop alternative cyberpunk edgerunners 2077 Video Game Soundtrack hiphop hip hop OST whos o_k_u dt best mod dt_best_mod sana sanayui not your kitty not_your_kitty sightread yoshino [yoshino] lurumic
BeatmapID:4423093
BeatmapSetID:2107583

[Difficulty]
HPDrainRate:6
CircleSize:4
OverallDifficulty:8.5
ApproachRate:9.2
SliderMultiplier:2.3
SliderTickRate:1

[Events]
//Background and Video events
0,0,"bg.jpg",0,0
//Break Periods
//Storyboard Layer 0 (Background)
//Storyboard Layer 1 (Fail)
//Storyboard Layer 2 (Pass)
//Storyboard Layer 3 (Foreground)
//Storyboard Layer 4 (Overlay)
//Storyboard Sound Samples

[TimingPoints]
140,434.782608695652,4,2,1,40,1,0
140,-133.333333333333,4,2,1,40,0,0
466,-133.333333333333,4,2,1,5,0,0
574,-133.333333333333,4,2,1,40,0,0
1335,-133.333333333333,4,2,1,5,0,0
1443,-133.333333333333,4,2,1,40,0,0
2205,-133.333333333333,4,2,1,5,0,0
2313,-133.333333333333,4,2,1,40,0,0
3074,-133.333333333333,4,2,1,5,0,0
3182,-133.333333333333,4,2,1,40,0,0
3944,-133.333333333333,4,2,1,5,0,0
4052,-133.333333333333,4,2,1,40,0,0
4813,-133.333333333333,4,2,1,5,0,0
4921,-133.333333333333,4,2,1,40,0,0
5466,-133.333333333333,4,2,1,5,0,0
5574,-133.333333333333,4,2,1,40,0,0
5683,-133.333333333333,4,2,1,5,0,0
5791,-133.333333333333,4,2,1,40,0,0
5900,-133.333333333333,4,2,1,5,0,0
6008,-133.333333333333,4,2,1,40,0,0
6118,-133.333333333333,4,2,1,5,0,0
6226,-133.333333333333,4,2,1,40,0,0
6661,-117.647058823529,4,2,1,40,0,0
6987,-117.647058823529,4,2,1,5,0,0
7096,-133.333333333333,4,2,1,50,0,0
7639,-133.333333333333,4,2,1,5,0,0
7748,-133.333333333333,4,2,1,50,0,0
9379,-133.333333333333,4,2,1,5,0,0
9487,-133.333333333333,4,2,1,50,0,0
11118,-133.333333333333,4,2,1,5,0,0
11226,-133.333333333333,4,2,1,50,0,0
12422,-133.333333333333,4,2,1,5,0,0
12531,-133.333333333333,4,2,1,50,0,0
12639,-133.333333333333,4,2,1,5,0,0
12748,-133.333333333333,4,2,1,50,0,0
12857,-133.333333333333,4,2,1,5,0,0
12966,-133.333333333333,4,2,1,50,0,0
13074,-133.333333333333,4,2,1,50,0,0
13183,-133.333333333333,4,2,1,50,0,0
13618,-500,4,2,1,50,0,0
13944,-500,4,2,1,5,0,0
14038,434.782608695652,4,2,1,75,1,0
14038,-50,4,2,1,75,0,0
14364,-50,4,2,1,5,0,0
14472,-100,4,2,1,75,0,0
14581,-100,4,2,1,5,0,0
14690,-100,4,2,1,75,0,0
14798,-100,4,2,1,75,0,0
14907,-100,4,2,1,75,0,0
15016,-100,4,2,1,5,0,0
15124,-100,4,2,1,75,0,0
15233,-100,4,2,1,5,0,0
15342,-100,4,2,1,75,0,0
15777,-50,4,2,1,75,0,0
15885,-50,4,2,1,5,0,0
15994,-100,4,2,1,75,0,0
16103,-100,4,2,1,5,0,0
16211,-50,4,2,1,75,0,0
16320,-50,4,2,1,5,0,0
16429,-100,4,2,1,75,0,0
16538,-100,4,2,1,75,0,0
16646,-100,4,2,1,75,0,0
16755,-100,4,2,1,5,0,0
16864,-100,4,2,1,75,0,0
17298,-100,4,2,1,75,0,0
17516,-50,4,2,1,75,0,0
17624,-50,4,2,1,5,0,0
17733,-100,4,2,1,75,0,0
17842,-100,4,2,1,5,0,0
17951,-50,4,2,1,75,0,0
18059,-50,4,2,1,5,0,0
18168,-100,4,2,1,75,0,0
18277,-100,4,2,1,75,0,0
18385,-100,4,2,1,75,0,0
18494,-100,4,2,1,5,0,0
18603,-100,4,2,1,75,0,0
18711,-100,4,2,1,5,0,0
18820,-100,4,2,1,75,0,0
19255,-100,4,2,1,75,0,0
19364,-100,4,2,1,5,0,0
19472,-100,4,2,1,75,0,0
19581,-100,4,2,1,5,0,0
19690,-66.6666666666667,4,2,1,75,0,0
19798,-66.6666666666667,4,2,1,5,0,0
19907,-66.6666666666667,4,2,1,75,0,0
20016,-66.6666666666667,4,2,1,75,0,0
20124,-50,4,2,1,75,0,0
20233,-50,4,2,1,5,0,0
20342,-50,4,2,1,75,0,0
20451,-50,4,2,1,5,0,0
20559,-66.6666666666667,4,2,1,75,0,0
20668,-66.6666666666667,4,2,1,5,0,0
20777,-66.6666666666667,4,2,1,75,0,0
20994,-50,4,2,1,75,0,0
21320,-50,4,2,1,5,0,0
21429,-100,4,2,1,75,0,0
21537,-100,4,2,1,5,0,0
21646,-100,4,2,1,75,0,0
21755,-100,4,2,1,75,0,0
21864,-100,4,2,1,75,0,0
21972,-100,4,2,1,5,0,0
22081,-100,4,2,1,75,0,0
22190,-100,4,2,1,5,0,0
22299,-100,4,2,1,75,0,0
22733,-50,4,2,1,75,0,0
22842,-50,4,2,1,5,0,0
22951,-100,4,2,1,75,0,0
23059,-100,4,2,1,5,0,0
23168,-50,4,2,1,75,0,0
23277,-50,4,2,1,5,0,0
23385,-100,4,2,1,75,0,0
23494,-100,4,2,1,75,0,0
23603,-100,4,2,1,75,0,0
23711,-100,4,2,1,5,0,0
23820,-100,4,2,1,75,0,0
23929,-100,4,2,1,5,0,0
24038,-100,4,2,1,75,0,0
24472,-50,4,2,1,75,0,0
24581,-50,4,2,1,5,0,0
24689,-100,4,2,1,75,0,0
24798,-100,4,2,1,5,0,0
24907,-50,4,2,1,75,0,0
25016,-50,4,2,1,5,0,0
25124,-100,4,2,1,75,0,0
25233,-100,4,2,1,75,0,0
25342,-100,4,2,1,75,0,0
25451,-100,4,2,1,5,0,0
25560,-100,4,2,1,75,0,0
25668,-100,4,2,1,5,0,0
25777,-100,4,2,1,75,0,0
26211,-50,4,2,1,75,0,0
26537,-50,4,2,1,5,0,0
26646,-66.6666666666667,4,2,1,75,0,0
26755,-100,4,2,1,5,0,0
26864,-66.6666666666667,4,2,1,75,0,0
26972,-100,4,2,1,75,0,0
27081,-100,4,2,1,75,0,0
27298,-100,4,2,1,75,0,0
27407,-100,4,2,1,5,0,0
27516,-66.6666666666667,4,2,1,75,0,0
27624,-66.6666666666667,4,2,1,5,0,0
27733,-50,4,2,1,75,0,0
27842,-50,4,2,1,75,0,0
27951,-117.647058823529,4,2,1,55,0,0
28059,-117.647058823529,4,2,2,55,0,0
31320,-117.647058823529,4,2,2,5,0,0
31429,-117.647058823529,4,2,2,55,0,0
33494,-117.647058823529,4,2,2,5,0,0
33603,-117.647058823529,4,2,2,55,0,0
35233,-117.647058823529,4,2,2,5,0,0
35342,-117.647058823529,4,2,2,55,0,0
39364,-117.647058823529,4,2,2,5,0,0
39473,-117.647058823529,4,2,2,55,0,0
40451,-117.647058823529,4,2,2,5,0,0
40560,-117.647058823529,4,2,2,55,0,0
41429,-500,4,2,2,55,0,0
41755,-500,4,2,2,5,0,0
41864,-50,4,2,1,75,0,0
42190,-50,4,2,1,5,0,0
42298,-100,4,2,1,75,0,0
42407,-100,4,2,1,5,0,0
42516,-100,4,2,1,75,0,0
42624,-100,4,2,1,75,0,0
42733,-100,4,2,1,75,0,0
43059,-100,4,2,1,5,0,0
43168,-100,4,2,1,75,0,0
43603,-50,4,2,1,75,0,0
43929,-50,4,2,1,5,0,0
44037,-100,4,2,1,75,0,0
44146,-100,4,2,1,5,0,0
44255,-100,4,2,1,75,0,0
44364,-100,4,2,1,75,0,0
44473,-100,4,2,1,75,0,0
44798,-100,4,2,1,5,0,0
44907,-100,4,2,1,75,0,0
45342,-50,4,2,1,75,0,0
45668,-50,4,2,1,5,0,0
45776,-100,4,2,1,75,0,0
45885,-100,4,2,1,5,0,0
45994,-100,4,2,1,75,0,0
46103,-100,4,2,1,75,0,0
46212,-100,4,2,1,75,0,0
46537,-100,4,2,1,5,0,0
46646,-100,4,2,1,75,0,0
47081,-50,4,2,1,75,0,0
47190,-50,4,2,1,5,0,0
47298,-100,4,2,1,75,0,0
47407,-100,4,2,1,5,0,0
47516,-66.6666666666667,4,2,1,75,0,0
47624,-66.6666666666667,4,2,1,5,0,0
47733,-100,4,2,1,75,0,0
47842,-100,4,2,1,75,0,0
47951,-100,4,2,1,75,0,0
48277,-100,4,2,1,5,0,0
48385,-66.6666666666667,4,2,1,75,0,0
48494,-66.6666666666667,4,2,1,5,0,0
48603,-100,4,2,1,75,0,0
48711,-100,4,2,1,75,0,0
48820,-50,4,2,1,75,0,0
49146,-50,4,2,1,5,0,0
49254,-100,4,2,1,75,0,0
49364,-100,4,2,1,5,0,0
49473,-100,4,2,1,75,0,0
49581,-100,4,2,1,75,0,0
49690,-100,4,2,1,75,0,0
50016,-100,4,2,1,5,0,0
50125,-100,4,2,1,75,0,0
50559,-50,4,2,1,75,0,0
50885,-50,4,2,1,5,0,0
50993,-100,4,2,1,75,0,0
51103,-100,4,2,1,5,0,0
51212,-100,4,2,1,75,0,0
51320,-100,4,2,1,75,0,0
51429,-100,4,2,1,75,0,0
51755,-100,4,2,1,5,0,0
51864,-100,4,2,1,75,0,0
52298,-50,4,2,1,75,0,0
52624,-50,4,2,1,5,0,0
52732,-100,4,2,1,75,0,0
52842,-100,4,2,1,5,0,0
52951,-100,4,2,1,75,0,0
53059,-100,4,2,1,75,0,0
53168,-100,4,2,1,75,0,0
53494,-100,4,2,1,5,0,0
53603,-100,4,2,1,75,0,0
54037,-50,4,2,1,75,0,0
54146,-50,4,2,1,5,0,0
54254,-100,4,2,1,75,0,0
54364,-100,4,2,1,5,0,0
54472,-66.6666666666667,4,2,1,75,0,0
54581,-66.6666666666667,4,2,1,5,0,0
54689,-100,4,2,1,75,0,0
54798,-100,4,2,1,75,0,0
54907,-100,4,2,1,75,0,0
55233,-100,4,2,1,5,0,0
55341,-66.6666666666667,4,2,1,75,0,0
55451,-66.6666666666667,4,2,1,5,0,0
55559,-100,4,2,1,75,0,0
55668,-100,4,2,1,75,0,0
55777,-50,4,2,1,75,0,0
56103,-50,4,2,1,5,0,0
56211,-100,4,2,1,75,0,0
56320,-100,4,2,1,5,0,0
56429,-100,4,2,1,75,0,0
56537,-100,4,2,1,75,0,0
56646,-100,4,2,1,75,0,0
56972,-100,4,2,1,5,0,0
57081,-100,4,2,1,75,0,0
57516,-50,4,2,1,75,0,0
57842,-50,4,2,1,5,0,0
57950,-100,4,2,1,75,0,0
58059,-100,4,2,1,5,0,0
58168,-100,4,2,1,75,0,0
58277,-100,4,2,1,75,0,0
58386,-100,4,2,1,75,0,0
58494,-100,4,2,1,5,0,0
58603,-100,4,2,1,75,0,0
58711,-100,4,2,1,5,0,0
58820,-100,4,2,1,75,0,0
59255,-50,4,2,1,75,0,0
59581,-50,4,2,1,5,0,0
59689,-100,4,2,1,75,0,0
59798,-100,4,2,1,5,0,0
59907,-100,4,2,1,75,0,0
60016,-100,4,2,1,75,0,0
60125,-100,4,2,1,75,0,0
60451,-100,4,2,1,5,0,0
60560,-100,4,2,1,75,0,0
60994,-50,4,2,1,75,0,0
61103,-50,4,2,1,5,0,0
61211,-100,4,2,1,75,0,0
61320,-100,4,2,1,5,0,0
61429,-66.6666666666667,4,2,1,75,0,0
61537,-66.6666666666667,4,2,1,5,0,0
61646,-100,4,2,1,75,0,0
61755,-100,4,2,1,75,0,0
61864,-100,4,2,1,75,0,0
62190,-100,4,2,1,5,0,0
62298,-66.6666666666667,4,2,1,75,0,0
62407,-66.6666666666667,4,2,1,5,0,0
62516,-100,4,2,1,75,0,0
62624,-100,4,2,1,75,0,0
62733,-50,4,2,1,75,0,0
63059,-50,4,2,1,5,0,0
63167,-100,4,2,1,75,0,0
63277,-100,4,2,1,5,0,0
63386,-100,4,2,1,75,0,0
63494,-100,4,2,1,75,0,0
63603,-100,4,2,1,75,0,0
63929,-100,4,2,1,5,0,0
64038,-100,4,2,1,75,0,0
64472,-50,4,2,1,75,0,0
64798,-50,4,2,1,5,0,0
64906,-100,4,2,1,75,0,0
65016,-100,4,2,1,5,0,0
65125,-100,4,2,1,75,0,0
65233,-100,4,2,1,75,0,0
65342,-100,4,2,1,75,0,0
65451,-100,4,2,1,5,0,0
65560,-100,4,2,1,75,0,0
65668,-100,4,2,1,5,0,0
65777,-100,4,2,1,75,0,0
66211,-50,4,2,1,75,0,0
66537,-50,4,2,1,5,0,0
66645,-100,4,2,1,75,0,0
66755,-100,4,2,1,5,0,0
66864,-100,4,2,1,75,0,0
66972,-100,4,2,1,75,0,0
67081,-100,4,2,1,75,0,0
67407,-100,4,2,1,5,0,0
67516,-100,4,2,1,75,0,0
67950,-50,4,2,1,75,0,0
68059,-50,4,2,1,5,0,0
68167,-100,4,2,1,75,0,0
68277,-100,4,2,1,5,0,0
68385,-66.6666666666667,4,2,1,75,0,0
68494,-66.6666666666667,4,2,1,5,0,0
68602,-100,4,2,1,75,0,0
68711,-100,4,2,1,75,0,0
68820,-100,4,2,1,75,0,0
69146,-100,4,2,1,5,0,0
69254,-66.6666666666667,4,2,1,75,0,0
69364,-66.6666666666667,4,2,1,5,0,0
69472,-50,4,2,1,75,0,0
69581,-50,4,2,1,75,0,0
69690,-117.647058823529,4,2,1,55,0,0
69798,-117.647058823529,4,2,2,55,0,0
70016,-117.647058823529,4,2,2,5,0,0
70124,-117.647058823529,4,2,2,55,0,0
73059,-117.647058823529,4,2,2,5,0,0
73167,-117.647058823529,4,2,2,55,0,0
75233,-117.647058823529,4,2,2,5,0,0
75341,-117.647058823529,4,2,2,55,0,0
76972,-117.647058823529,4,2,2,5,0,0
77080,-117.647058823529,4,2,2,55,0,0
81103,-117.647058823529,4,2,2,5,0,0
81211,-117.647058823529,4,2,2,55,0,0
81864,-117.647058823529,4,2,2,60,0,0
81972,-117.647058823529,4,2,2,5,0,0
82298,-117.647058823529,4,2,2,55,0,0
82516,-117.647058823529,4,2,3,60,0,0
82624,-117.647058823529,4,2,3,5,0,0
82733,-117.647058823529,4,2,2,55,0,0
83168,-66.6666666666667,4,2,2,55,0,0
83222,-66.6666666666667,4,2,2,5,0,0
83603,-111.111111111111,4,2,2,60,0,0
83929,-111.111111111111,4,2,2,5,0,0
84037,-111.111111111111,4,2,2,60,0,0
86972,-111.111111111111,4,2,2,5,0,0
87080,-111.111111111111,4,2,2,60,0,0
88059,-111.111111111111,4,2,2,5,0,0
88167,-111.111111111111,4,2,2,60,0,0
89146,-111.111111111111,4,2,2,5,0,0
89254,-111.111111111111,4,2,2,60,0,0
89472,-200,4,2,2,60,0,0
90559,-111.111111111111,4,2,2,30,0,0
90885,-111.111111111111,4,2,2,30,0,0
90994,-111.111111111111,4,2,2,30,0,0
91429,-111.111111111111,4,2,2,35,0,0
92298,-111.111111111111,4,2,2,40,0,0
93168,-111.111111111111,4,2,2,45,0,0
94037,-111.111111111111,4,2,2,50,0,0
94907,-111.111111111111,4,2,2,55,0,0
95777,-111.111111111111,4,2,2,60,0,0
96646,-111.111111111111,4,2,2,65,0,0
97531,434.782608695652,4,2,1,65,1,0
97531,-117.647058823529,4,2,1,65,0,0
98074,-117.647058823529,4,2,1,5,0,0
98183,-117.647058823529,4,2,1,65,0,0
98291,-117.647058823529,4,2,1,5,0,0
98400,-117.647058823529,4,2,1,65,0,0
98944,-117.647058823529,4,2,1,5,0,0
99053,-117.647058823529,4,2,1,65,0,0
99161,-117.647058823529,4,2,1,5,0,0
99270,-117.647058823529,4,2,1,65,0,0
99813,-117.647058823529,4,2,1,5,0,0
99922,-117.647058823529,4,2,1,65,0,0
100031,-117.647058823529,4,2,1,5,0,0
100140,-117.647058823529,4,2,1,65,0,0
100683,-117.647058823529,4,2,1,5,0,0
100792,-117.647058823529,4,2,1,65,0,0
100900,-117.647058823529,4,2,1,5,0,0
101009,-117.647058823529,4,2,1,65,0,0
101552,-117.647058823529,4,2,1,5,0,0
101661,-117.647058823529,4,2,1,65,0,0
101770,-117.647058823529,4,2,1,5,0,0
101879,-117.647058823529,4,2,1,65,0,0
102857,-117.647058823529,4,2,1,5,0,0
102966,-117.647058823529,4,2,1,65,0,0
103074,-117.647058823529,4,2,1,5,0,0
103183,-117.647058823529,4,2,1,65,0,0
103291,-117.647058823529,4,2,1,5,0,0
103400,-117.647058823529,4,2,1,65,0,0
103509,-117.647058823529,4,2,1,5,0,0
103618,-117.647058823529,4,2,1,65,0,0
103726,-117.647058823529,4,2,1,5,0,0
103835,-117.647058823529,4,2,1,65,0,0
103944,-117.647058823529,4,2,1,5,0,0
104053,-117.647058823529,4,2,1,65,0,0
104378,-117.647058823529,4,2,1,5,0,0
104487,-100,4,2,1,65,0,0
104596,-100,4,2,1,5,0,0
104704,-100,4,2,1,65,0,0
104813,-100,4,2,1,5,0,0
104921,-100,4,2,1,65,0,0
105683,-100,4,2,1,5,0,0
105791,-100,4,2,1,65,0,0
107422,-100,4,2,1,5,0,0
107530,-100,4,2,1,65,0,0
109161,-100,4,2,1,5,0,0
109269,-100,4,2,1,65,0,0
109813,-100,4,2,1,5,0,0
109921,-100,4,2,1,65,0,0
110031,-100,4,2,1,5,0,0
110139,-100,4,2,1,65,0,0
111009,-500,4,2,1,65,0,0

[Colours]
Combo1 : 238,193,153
Combo2 : 235,255,174
Combo3 : 204,225,230
Combo4 : 254,156,156

[HitObjects]
214,382,140,6,0,P|258:336|320:319,1,129.375004935265
330,327,574,1,2,0:0:0:0:
301,243,1009,2,0,P|345:288|407:305,1,129.375004935265
417,298,1443,1,2,0:0:0:0:
330,165,1879,6,0,P|286:211|224:228,1,129.375004935265
214,220,2313,1,2,0:0:0:0:
243,304,2748,2,0,P|199:259|137:242,1,129.375004935265
127,249,3182,1,2,0:0:0:0:
214,382,3618,6,0,P|258:336|320:319,1,129.375004935265
330,327,4052,1,2,0:0:0:0:
301,243,4487,2,0,P|345:288|407:305,1,129.375004935265
417,298,4921,1,2,0:0:0:0:
214,222,5357,6,0,P|220:201|234:184,1,43.1250016450883
244,191,5574,2,0,P|229:207|222:228,1,43.1250016450883
325,164,5792,6,0,P|319:143|305:126,1,43.1250016450883,2|0,0:0|0:0,0:0:0:0:
295,133,6009,2,0,P|310:149|317:170,1,43.1250016450883
212,105,6226,5,0,0:0:0:0:
301,249,6444,1,0,0:0:0:0:
271,51,6661,2,0,L|93:114,1,146.62500279665,2|0,0:0|0:0,0:0:0:0:
119,106,7096,1,2,0:3:0:0:
169,0,7313,1,2,0:3:0:0:
41,147,7531,6,0,P|50:165|67:178,1,43.1250016450883,10|0,0:2|0:0,0:0:0:0:
157,244,7748,1,2,0:3:0:0:
148,231,7857,1,2,0:3:0:0:
133,224,7966,2,0,P|91:228|59:261,1,86.2500032901765,2|2,0:3|0:3,0:0:0:0:
168,377,8400,6,0,L|253:347,1,86.2500032901765,10|2,0:2|0:3,0:0:0:0:
262,353,8725,1,2,0:3:0:0:
268,365,8834,1,2,0:3:0:0:
113,320,9053,1,2,0:3:0:0:
347,343,9270,6,0,P|340:323|326:308,1,43.1250016450883,10|0,0:2|0:0,0:0:0:0:
247,229,9487,1,2,0:3:0:0:
254,243,9596,1,2,0:3:0:0:
268,252,9705,2,0,P|310:254|346:227,1,86.2500032901765,2|2,0:3|0:3,0:0:0:0:
182,161,10139,6,0,L|152:246,1,86.2500032901765,10|2,0:2|0:3,0:0:0:0:
145,254,10466,1,2,0:3:0:0:
133,258,10573,1,2,0:3:0:0:
53,133,10792,1,2,0:3:0:0:
266,114,11009,6,0,P|274:133|275:152,1,43.1250016450883,10|0,0:2|0:0,0:0:0:0:
274,267,11226,1,2,0:3:0:0:
268,252,11335,1,2,0:3:0:0:
273,236,11444,2,0,P|300:204|344:197,1,86.2500032901765,2|2,0:3|0:3,0:0:0:0:
464,307,11879,6,0,L|364:280,1,86.2500032901765,10|2,0:2|0:3,0:0:0:0:
367,288,12205,1,2,0:3:0:0:
356,298,12313,6,0,P|349:330|362:352,1,43.1250016450883,2|0,0:3|0:0,0:0:0:0:
434,212,12531,2,0,P|438:191|431:172,1,43.1250016450883,2|0,0:3|0:0,0:0:0:0:
344,303,12748,6,0,P|337:335|350:357,1,43.1250016450883,10|0,0:2|0:0,0:0:0:0:
422,217,12966,2,0,P|426:196|419:177,1,43.1250016450883,2|2,0:3|0:3,0:0:0:0:
216,224,13183,5,8,0:2:0:0:
300,175,13400,1,8,0:2:0:0:
227,243,13618,2,0,L|187:234,1,34.5
101,357,14038,6,0,B|70:306|127:224|154:261|224:196|150:108|150:108|164:146|134:179,1,345,4|0,3:0|0:0,0:0:0:0:
29,97,14472,2,0,P|47:118|73:128,1,57.5,8|0,0:1|0:0,0:0:0:0:
243,114,14690,6,0,P|234:88|218:64,1,57.5,0|2,3:0|0:3,0:0:0:0:
358,141,14907,2,0,P|349:167|333:191,1,57.5,0|0,3:0|0:0,0:0:0:0:
473,114,15124,2,0,P|464:88|448:64,1,57.5,0|0,3:0|0:0,0:0:0:0:
216,200,15342,1,8,3:1:0:0:
254,239,15451,1,8,0:2:0:0:
243,253,15559,2,0,P|230:288|224:318,1,57.5,0|8,3:0|0:2,0:0:0:0:
407,350,15777,6,0,P|456:321|520:317,1,115,4|0,3:0|0:0,0:0:0:0:
314,332,15994,2,0,P|320:304|331:277,1,57.5,2|0,0:3|0:0,0:0:0:0:
512,344,16211,6,0,P|455:338|406:309,1,115,8|0,0:1|0:0,0:0:0:0:
225,383,16429,2,0,P|199:372|171:372,1,57.5,0|2,3:0|0:3,0:0:0:0:
90,292,16646,2,0,P|63:303|35:303,1,57.5,0|0,3:0|0:0,0:0:0:0:
0,384,16864,1,0,3:0:0:0:
209,258,17081,6,0,L|190:195,1,57.5,8|8,3:1|0:2,0:0:0:0:
232,67,17298,1,0,3:0:0:0:
269,107,17407,1,8,0:2:0:0:
256,116,17516,6,0,L|216:247,1,115,4|0,3:0|0:0,0:0:0:0:
373,104,17733,2,0,L|356:49,1,57.5,2|0,0:3|0:0,0:0:0:0:
159,125,17951,2,0,B|83:86|83:86|55:96,1,115,8|0,0:1|0:0,0:0:0:0:
76,287,18168,6,0,L|95:224,1,57.5,0|2,3:0|0:3,0:0:0:0:
191,314,18385,2,0,L|210:377,1,57.5,0|0,3:0|0:0,0:0:0:0:
306,287,18603,2,0,L|325:224,1,57.5,0|0,3:0|0:0,0:0:0:0:
453,265,18820,1,8,3:1:0:0:
421,308,18929,1,8,0:2:0:0:
433,320,19038,2,0,L|452:383,1,57.5,0|8,3:0|0:2,0:0:0:0:
252,200,19255,6,0,P|238:176|240:148,1,57.5,4|0,3:0|0:0,0:0:0:0:
381,137,19473,2,0,P|395:161|393:189,1,57.5,2|0,0:3|0:0,0:0:0:0:
243,215,19690,6,0,P|222:178|225:136,1,86.2500032901765,8|0,0:1|0:0,0:0:0:0:
389,123,19907,2,0,P|410:160|407:202,1,86.2500032901765,0|2,3:0|0:3,0:0:0:0:
234,230,20124,6,0,P|206:181|210:126,1,115,0|0,3:0|0:0,0:0:0:0:
398,108,20342,2,0,P|425:158|421:213,1,115,0|0,3:0|0:0,0:0:0:0:
337,337,20559,6,0,L|325:251,1,86.2500032901765,8|0,3:1|0:0,0:0:0:0:
301,72,20777,1,8,3:2:0:0:
137,280,20994,6,0,B|112:305|72:310|72:310|131:383|231:348|196:316|263:295|322:327,1,345,4|0,3:0|0:0,0:0:0:0:
402,322,21429,2,0,P|402:350|389:375,1,57.5,8|0,0:1|0:0,0:0:0:0:
225,305,21646,6,0,P|224:276|237:251,1,57.5,0|2,3:0|0:3,0:0:0:0:
401,212,21864,2,0,P|376:227|348:228,1,57.5,0|0,3:0|0:0,0:0:0:0:
233,106,22081,2,0,P|258:119|273:143,1,57.5,0|0,3:0|0:0,0:0:0:0:
187,323,22298,1,8,3:1:0:0:
142,300,22407,1,8,0:2:0:0:
130,312,22516,2,0,L|75:329,1,57.5,0|8,3:0|0:2,0:0:0:0:
222,253,22733,6,0,P|229:309|259:357,1,115,4|0,3:0|0:0,0:0:0:0:
148,211,22951,2,0,P|153:189|145:147,1,57.5,2|0,0:3|0:0,0:0:0:0:
279,366,23168,2,0,B|362:333|362:333|393:343,1,115,8|0,0:1|0:0,0:0:0:0:
471,245,23385,2,0,L|417:266,1,57.5,0|2,3:0|0:3,0:0:0:0:
334,144,23603,6,0,L|351:87,1,57.5,0|0,3:0|0:0,0:0:0:0:
454,0,23820,2,0,L|471:55,1,57.5,0|0,3:0|0:0,0:0:0:0:
322,246,24037,1,8,3:1:0:0:
285,222,24146,1,8,0:2:0:0:
276,236,24255,2,0,P|249:246|221:252,1,57.5,0|8,3:0|0:2,0:0:0:0:
35,379,24472,6,0,P|79:344|136:337,1,115,4|0,3:0|0:0,0:0:0:0:
288,380,24690,2,0,P|312:366|332:346,1,57.5,2|0,0:3|0:0,0:0:0:0:
149,345,24907,2,0,B|115:267|115:267|123:228,1,115,8|0,0:1|0:0,0:0:0:0:
164,145,25124,2,0,L|134:77,1,57.5,0|2,3:0|0:3,0:0:0:0:
290,0,25342,6,0,P|293:28|282:54,1,57.5,0|0,3:0|0:0,0:0:0:0:
51,104,25559,2,0,P|47:75|58:49,1,57.5,0|0,3:0|0:0,0:0:0:0:
247,139,25776,1,8,3:1:0:0:
292,162,25885,1,8,0:2:0:0:
304,150,25994,2,0,L|359:133,1,57.5,0|8,3:0|0:2,0:0:0:0:
491,175,26211,6,0,B|460:184|460:184|184:108|184:108|117:129,1,345,4|0,3:0|0:0,0:0:0:0:
50,104,26646,2,0,P|46:146|70:180,1,86.2500032901765,8|0,0:1|0:0,0:0:0:0:
196,286,26864,2,0,P|199:243|175:209,1,86.2500032901765,0|2,3:0|0:3,0:0:0:0:
88,185,27081,1,0,3:0:0:0:
211,300,27298,6,0,B|248:283|248:283|265:281,1,57.5,0|0,3:0|0:0,0:0:0:0:
460,198,27516,2,0,B|396:174|396:174|378:179,1,86.2500032901765,8|0,3:1|0:0,0:0:0:0:
248,68,27733,2,0,B|319:42|319:42|359:54,1,115,8|2,3:2|0:3,0:0:0:0:
470,207,27951,6,0,B|496:248|470:288|450:272|423:310|458:361,1,146.62500279665,4|0,3:0|0:0,0:0:0:0:
458,350,28385,1,8,0:2:0:0:
361,292,28603,1,8,0:2:0:0:
291,357,28820,2,0,L|194:324,1,97.7500018644333
194,228,29255,2,0,L|97:261,1,97.7500018644333,8|0,0:2|0:0,0:0:0:0:
20,341,29690,1,0,0:0:0:0:
92,268,29907,2,0,P|105:211|83:172,2,97.7500018644333,0|8|8,0:0|0:2|0:2,0:0:0:0:
75,170,30777,5,0,0:0:0:0:
208,212,30994,2,0,L|355:167,1,146.62500279665,8|0,0:2|0:0,0:0:0:0:
365,173,31429,2,0,P|382:206|351:261,1,97.7500018644333
251,328,31864,1,8,0:2:0:0:
197,222,32081,6,0,P|215:178|212:99,1,97.7500018644333,8|0,0:2|0:0,0:0:0:0:
281,0,32516,2,0,P|283:48|302:93,2,97.7500018644333,0|8|0,0:0|0:2|0:0,0:0:0:0:
218,128,33168,2,0,B|180:155|180:155|67:107,1,146.62500279665
73,111,33603,1,8,0:2:0:0:
0,194,33820,1,8,0:2:0:0:
0,194,34472,1,8,0:2:0:0:
120,295,34907,6,0,B|161:321|201:295|185:275|223:248|274:283,1,146.62500279665
265,284,35342,1,8,0:2:0:0:
177,201,35559,1,8,0:2:0:0:
109,292,35777,2,0,P|133:334|140:382,1,97.7500018644333
0,294,36211,2,0,P|24:251|31:203,1,97.7500018644333,8|0,0:2|0:0,0:0:0:0:
107,135,36646,2,0,P|82:92|75:44,1,97.7500018644333
1,117,37081,1,8,0:2:0:0:
88,31,37298,5,8,0:2:0:0:
180,74,37516,2,0,L|283:39,1,97.7500018644333
370,101,37951,1,8,0:2:0:0:
287,36,38168,1,0,0:0:0:0:
459,55,38385,2,0,P|475:113|445:164,1,97.7500018644333
380,237,38820,1,8,0:2:0:0:
280,175,39037,6,0,L|130:216,1,146.62500279665,8|0,0:2|0:0,0:0:0:0:
126,225,39472,2,0,P|120:269|165:306,2,97.7500018644333,0|8|0,0:0|0:2|0:0,0:0:0:0:
198,160,40124,2,0,B|158:51|158:51|134:31,1,146.62500279665
117,35,40559,1,8,0:2:0:0:
203,75,40777,1,8,0:2:0:0:
203,75,41429,2,0,L|240:59,1,34.5,8|0,0:2|0:0,0:0:0:0:
216,190,41864,86,1,B|229:117|154:28|48:50|48:50|97:67|108:111,1,345,4|0,3:0|0:0,0:0:0:0:
0,175,42298,2,0,P|22:151|25:115,1,57.5,8|0,0:1|0:0,0:0:0:0:
133,246,42516,2,0,P|110:222|107:186,1,57.5,0|2,3:0|0:3,0:0:0:0:
22,280,42733,1,0,3:0:0:0:
223,189,42951,6,0,P|252:190|279:200,1,57.5,0|0,3:0|0:0,0:0:0:0:
332,384,43168,1,8,3:1:0:0:
307,373,43277,2,0,P|293:347|289:319,1,57.5,8|0,0:2|3:0,0:0:0:0:
172,277,43494,1,8,0:2:0:0:
182,262,43603,6,0,B|213:211|156:129|129:166|59:101|133:13|133:13|119:51|149:84,1,345,4|0,3:0|0:0,0:0:0:0:
248,74,44037,2,0,P|236:48|211:34,1,57.5,8|0,0:1|0:0,0:0:0:0:
20,130,44255,2,0,P|48:132|73:117,1,57.5,0|2,3:0|0:3,0:0:0:0:
55,0,44472,1,0,3:0:0:0:
208,169,44690,6,0,L|184:252,1,57.5,0|0,3:0|0:0,0:0:0:0:
77,339,44907,1,8,3:1:0:0:
81,320,45016,2,0,L|57:237,1,57.5,8|0,0:2|3:0,0:0:0:0:
91,142,45233,1,8,0:2:0:0:
82,131,45342,6,0,B|58:113|36:113|36:113|118:50|209:92|170:136|248:165|330:112,1,345,4|0,3:0|0:0,0:0:0:0:
400,122,45777,2,0,P|393:170|350:188,1,57.5,8|0,0:1|0:0,0:0:0:0:
256,56,45994,2,0,P|297:31|338:53,1,57.5,0|2,3:0|0:3,0:0:0:0:
306,213,46211,1,0,3:0:0:0:
184,17,46429,6,0,P|158:4|130:7,1,57.5,0|0,3:0|0:0,0:0:0:0:
7,106,46646,1,8,3:1:0:0:
22,125,46755,2,0,L|3:185,1,57.5,8|0,0:2|3:0,0:0:0:0:
115,313,46972,1,8,0:2:0:0:
133,306,47081,6,0,P|164:270|158:183,1,115,4|0,3:0|0:0,0:0:0:0:
229,78,47298,2,0,P|226:106|236:133,1,57.5,2|0,0:3|0:0,0:0:0:0:
13,193,47516,6,0,P|50:224|105:218,1,86.2500032901765,8|0,0:1|0:0,0:0:0:0:
215,81,47733,2,0,P|212:109|222:136,1,57.5,0|2,3:0|0:3,0:0:0:0:
356,206,47951,1,0,3:0:0:0:
297,55,48168,2,0,L|242:75,1,57.5,0|0,3:0|0:0,0:0:0:0:
424,81,48385,6,0,P|438:41|429:0,1,86.2500032901765,8|0,3:1|0:0,0:0:0:0:
337,153,48603,2,0,P|341:181|356:206,1,57.5,8|2,3:2|0:3,0:0:0:0:
468,330,48820,6,0,B|493:305|533:300|533:300|474:227|387:259|409:295|342:315|283:283,1,345,4|0,3:0|0:0,0:0:0:0:
241,368,49255,2,0,P|218:350|203:326,1,57.5,8|0,0:1|0:0,0:0:0:0:
90,315,49472,2,0,P|93:286|107:261,1,57.5,0|2,3:0|0:3,0:0:0:0:
213,207,49690,1,0,3:0:0:0:
80,325,49907,6,0,L|16:307,1,57.5,0|0,3:0|0:0,0:0:0:0:
80,96,50124,1,8,3:1:0:0:
102,105,50233,2,0,P|125:131|128:163,1,57.5,8|0,0:2|3:0,0:0:0:0:
231,220,50451,1,8,0:2:0:0:
214,226,50559,6,0,B|189:249|186:284|186:284|123:202|159:123|211:149|240:77|180:0,1,345,4|0,3:0|0:0,0:0:0:0:
238,97,50994,2,0,L|292:79,1,57.5,8|0,0:1|0:0,0:0:0:0:
380,0,51211,2,0,L|434:17,1,57.5,0|2,3:0|0:3,0:0:0:0:
511,106,51429,1,0,3:0:0:0:
363,208,51646,6,0,P|367:180|383:157,1,57.5,0|0,3:0|0:0,0:0:0:0:
238,286,51864,1,8,3:1:0:0:
248,262,51972,2,0,P|244:234|228:211,1,57.5,8|0,0:2|3:0,0:0:0:0:
292,78,52190,1,8,0:2:0:0:
293,96,52298,86,1,B|271:167|163:212|79:145|79:145|131:151|160:117,1,345,4|0,3:0|0:0,0:0:0:0:
116,17,52733,2,0,P|99:40|97:68,1,57.5,8|0,0:1|0:0,0:0:0:0:
3,170,52951,2,0,P|19:193|21:221,1,57.5,0|2,3:0|0:3,0:0:0:0:
86,320,53168,1,0,3:0:0:0:
227,210,53385,6,0,P|255:209|281:220,1,57.5,0|0,3:0|0:0,0:0:0:0:
394,369,53603,1,8,3:1:0:0:
375,349,53711,2,0,L|364:278,1,57.5,8|0,0:2|3:0,0:0:0:0:
469,202,53929,1,8,0:2:0:0:
472,182,54037,6,0,B|489:101|489:101|514:76,1,115,4|0,3:0|0:0,0:0:0:0:
370,220,54255,2,0,L|356:288,1,57.5,2|0,0:3|0:0,0:0:0:0:
273,102,54472,6,0,B|260:43|260:43|241:25,1,86.2500032901765,8|0,0:1|0:0,0:0:0:0:
363,145,54690,2,0,L|377:213,1,57.5,0|2,3:0|0:3,0:0:0:0:
395,42,54907,1,0,3:0:0:0:
276,187,55124,2,0,P|242:184|212:157,1,57.5,0|0,3:0|0:0,0:0:0:0:
89,82,55342,6,0,L|7:111,1,86.2500032901765,8|0,3:1|0:0,0:0:0:0:
187,5,55559,2,0,L|241:24,1,57.5,8|2,3:2|0:3,0:0:0:0:
35,6,55777,6,0,B|26:37|26:37|102:313|102:313|81:380,1,345,4|0,3:0|0:0,0:0:0:0:
7,362,56211,2,0,L|24:300,1,57.5,8|0,0:1|0:0,0:0:0:0:
167,260,56429,2,0,L|151:198,1,57.5,0|2,3:0|0:3,0:0:0:0:
59,162,56646,1,0,3:0:0:0:
182,346,56864,6,0,P|207:343|247:319,1,57.5,0|0,3:0|0:0,0:0:0:0:
325,210,57081,1,8,3:1:0:0:
355,198,57190,2,0,P|380:201|420:225,1,57.5,8|0,0:2|3:0,0:0:0:0:
433,347,57407,1,8,0:2:0:0:
423,337,57516,6,0,B|392:286|449:204|476:241|546:176|472:88|472:88|486:126|456:159,1,345,4|0,3:0|0:0,0:0:0:0:
341,82,57951,2,0,P|362:95|408:101,1,57.5,8|0,0:1|0:0,0:0:0:0:
216,50,58168,2,0,P|237:36|283:30,1,57.5,0|2,3:0|0:3,0:0:0:0:
112,54,58385,2,0,L|92:-6,1,57.5,0|0,3:0|0:0,0:0:0:0:
189,130,58603,2,0,L|209:70,1,57.5,0|0,3:0|0:0,0:0:0:0:
282,231,58820,1,8,3:1:0:0:
298,213,58929,2,0,L|278:153,1,57.5,8|0,0:2|3:0,0:0:0:0:
180,260,59146,1,8,0:2:0:0:
190,278,59255,6,0,B|191:307|169:328|169:328|384:218|384:218|357:244|367:298,1,345,4|0,3:0|0:0,0:0:0:0:
432,328,59690,2,0,P|444:303|437:267,1,57.5,8|0,0:1|0:0,0:0:0:0:
504,165,59907,2,0,P|500:136|512:111,1,57.5,0|2,3:0|0:3,0:0:0:0:
447,17,60124,1,0,3:0:0:0:
314,133,60342,6,0,L|248:116,1,57.5,0|0,3:0|0:0,0:0:0:0:
173,9,60559,1,8,3:1:0:0:
162,32,60668,2,0,L|96:49,1,57.5,8|0,0:2|3:0,0:0:0:0:
84,230,60885,1,8,0:2:0:0:
99,231,60994,6,0,P|148:203|162:148,1,115,4|0,3:0|0:0,0:0:0:0:
8,194,61211,2,0,P|2:230|17:274,1,57.5,2|0,0:3|0:0,0:0:0:0:
90,60,61429,6,0,P|75:91|88:158,1,86.2500032901765,8|0,0:1|0:0,0:0:0:0:
65,304,61646,2,0,P|65:340|43:381,1,57.5,0|2,3:0|0:3,0:0:0:0:
174,225,61864,1,0,3:0:0:0:
274,320,62081,2,0,L|346:296,1,57.5,0|0,3:0|0:0,0:0:0:0:
462,204,62298,6,0,P|487:238|488:280,1,86.2500032901765,8|0,3:1|0:0,0:0:0:0:
352,177,62516,2,0,P|337:152|338:123,1,57.5,8|2,3:2|0:3,0:0:0:0:
463,35,62733,6,0,B|412:4|330:61|367:88|302:158|214:84|214:84|249:97|288:71,1,345,4|0,3:0|0:0,0:0:0:0:
147,141,63168,2,0,P|129:120|129:69,1,57.5,8|0,0:1|0:0,0:0:0:0:
36,66,63385,2,0,P|45:39|89:14,1,57.5,0|2,3:0|0:3,0:0:0:0:
236,11,63603,1,0,3:0:0:0:
352,177,63820,6,0,L|330:230,1,57.5,0|0,3:0|0:0,0:0:0:0:
203,282,64037,1,8,3:1:0:0:
224,300,64146,2,0,L|246:354,1,57.5,8|0,0:2|3:0,0:0:0:0:
65,281,64364,1,8,0:2:0:0:
59,267,64472,6,0,B|34:242|-6:237|-6:237|53:164|140:196|118:232|185:252|244:220,1,345,4|0,3:0|0:0,0:0:0:0:
296,155,64907,2,0,P|295:127|279:104,1,57.5,8|0,0:1|0:0,0:0:0:0:
161,136,65124,2,0,P|185:149|213:147,1,57.5,0|2,3:0|0:3,0:0:0:0:
392,188,65342,2,0,B|473:153,1,57.5,0|0,3:0|0:0,0:0:0:0:
366,290,65559,2,0,B|285:255,1,57.5,0|0,3:0|0:0,0:0:0:0:
73,344,65777,1,8,3:1:0:0:
82,327,65885,2,0,L|144:309,1,57.5,8|0,0:2|3:0,0:0:0:0:
238,372,66103,1,8,0:2:0:0:
254,360,66211,6,0,B|276:341|307:345|307:345|86:247|86:247|123:252|159:210,1,345,4|0,3:0|0:0,0:0:0:0:
11,275,66646,2,0,P|1:248|8:220,1,57.5,8|0,0:1|0:0,0:0:0:0:
93,110,66864,2,0,P|100:137|90:164,1,57.5,0|2,3:0|0:3,0:0:0:0:
31,39,67081,1,0,3:0:0:0:
179,166,67298,6,0,P|208:165|242:138,1,57.5,0|0,3:0|0:0,0:0:0:0:
447,180,67516,1,8,3:1:0:0:
427,172,67624,2,0,P|401:182|378:226,1,57.5,8|0,0:2|3:0,0:0:0:0:
320,339,67842,1,8,0:2:0:0:
329,323,67951,6,0,L|293:204,1,115,4|0,3:0|0:0,0:0:0:0:
422,338,68168,2,0,P|416:365|395:384,1,57.5,2|0,0:3|0:0,0:0:0:0:
296,213,68385,6,0,L|320:130,1,86.2500032901765,8|0,0:1|0:0,0:0:0:0:
204,225,68603,2,0,P|209:252|230:271,1,57.5,0|2,3:0|0:3,0:0:0:0:
327,114,68820,1,0,3:0:0:0:
223,23,69037,6,0,P|194:17|169:4,1,57.5,0|0,3:0|0:0,0:0:0:0:
339,127,69255,2,0,P|388:116|428:79,1,86.2500032901765,8|0,3:1|0:0,0:0:0:0:
204,225,69472,2,0,P|148:213|109:172,1,115,8|2,3:2|0:3,0:0:0:0:
313,228,69690,6,0,B|301:288|301:288|277:308|277:308|269:361,1,146.62500279665,0|0,3:0|0:0,0:0:0:0:
268,375,70124,1,8,0:2:0:0:
181,311,70342,1,8,0:2:0:0:
313,228,70559,2,0,L|410:259,1,97.7500018644333
494,131,70994,2,0,L|397:162,1,97.7500018644333,8|0,0:2|0:0,0:0:0:0:
491,9,71429,1,0,0:0:0:0:
313,34,71646,2,0,L|410:65,2,97.7500018644333,0|8|8,0:0|0:2|0:2,0:0:0:0:
237,98,72516,5,0,0:0:0:0:
172,32,72733,2,0,B|131:6|91:32|107:52|69:79|18:44,1,146.62500279665,8|0,0:2|0:0,0:0:0:0:
29,47,73168,2,0,L|63:156,1,97.7500018644333
8,249,73603,1,8,0:2:0:0:
61,152,73820,6,0,P|100:123|148:121,1,97.7500018644333,8|0,0:2|0:0,0:0:0:0:
238,174,74255,2,0,P|286:171|325:143,2,97.7500018644333,0|8|0,0:0|0:2|0:0,0:0:0:0:
200,75,74907,2,0,L|179:220,1,146.62500279665
178,234,75342,1,8,0:2:0:0:
73,174,75559,1,8,0:2:0:0:
73,174,76211,1,8,0:2:0:0:
178,234,76646,6,0,B|225:255|225:255|322:206,1,146.62500279665
324,203,77081,1,8,0:2:0:0:
288,312,77298,1,8,0:2:0:0:
403,167,77516,2,0,P|371:128|324:120,1,97.7500018644333
324,26,77951,2,0,P|274:33|244:71,1,97.7500018644333,8|0,0:2|0:0,0:0:0:0:
162,23,78385,2,0,P|143:69|161:114,1,97.7500018644333
247,164,78820,1,8,0:2:0:0:
150,281,79037,5,8,0:2:0:0:
226,342,79255,2,0,L|331:307,1,97.7500018644333
422,370,79690,1,8,0:2:0:0:
491,294,79907,1,0,0:0:0:0:
326,347,80124,2,0,L|221:312,1,97.7500018644333
96,370,80559,1,8,0:2:0:0:
134,251,80777,6,0,B|107:145|107:145|126:104,1,146.62500279665,8|0,0:2|0:0,0:0:0:0:
132,93,81211,2,0,P|105:54|50:53,2,97.7500018644333,0|8|0,0:0|0:2|0:0,0:0:0:0:
198,179,81864,2,0,L|210:224,2,24.4375004661083,8|8|0,0:0|0:3|0:0,0:0:0:0:
37,162,82298,5,8,0:2:0:0:
125,116,82516,2,0,L|137:70,2,24.4375004661083,8|8|0,0:3|0:3|0:0,0:0:0:0:
112,224,82733,1,0,3:0:0:0:
125,6,82951,1,0,3:0:0:0:
111,242,83168,2,0,L|125:300,1,43.1250016450883,8|0,0:1|0:0,0:0:0:0:
489,77,83603,6,0,B|451:97|451:97|346:47,1,155.249995262146,0|0,3:0|0:0,0:0:0:0:
335,40,84037,1,8,0:2:0:0:
427,167,84255,1,8,0:2:0:0:
319,33,84472,2,0,P|268:29|227:59,1,103.499996841431
31,109,84907,2,0,P|71:139|122:135,1,103.499996841431,8|0,0:2|0:0,0:0:0:0:
123,23,85342,1,0,0:0:0:0:
227,166,85559,2,0,L|186:296,2,103.499996841431,0|8|8,0:0|0:2|0:2,0:0:0:0:
191,287,86429,5,0,0:0:0:0:
323,207,86646,2,0,B|376:214|376:214|403:245|403:245|465:253,1,155.249995262146,8|0,0:2|0:0,0:0:0:0:
482,240,87081,2,0,P|495:192|440:151,1,103.499996841431
353,92,87516,1,8,0:2:0:0:
245,229,87733,6,0,L|56:183,1,155.249995262146,8|0,0:2|0:0,0:0:0:0:
80,203,88168,2,0,P|70:252|101:291,2,103.499996841431,0|8|0,0:0|0:2|0:0,0:0:0:0:
256,241,88820,2,0,B|287:260|330:239|315:218|371:193|426:257,1,155.249995262146
411,251,89255,1,8,0:2:0:0:
310,145,89472,2,0,L|326:81,2,57.5,8|0|0,0:2|0:0|0:0,0:0:0:0:
274,9,90124,1,8,0:2:0:0:
105,158,90559,6,0,B|117:209|117:209|151:233|151:233|165:294,1,155.249995262146,8|8,3:1|0:1,0:0:0:0:
167,307,90994,1,8,3:1:0:0:
45,253,91211,1,8,0:1:0:0:
168,320,91429,2,0,P|225:326|280:278,1,103.499996841431,8|8,3:1|0:1,0:0:0:0:
266,139,91755,1,8,0:1:0:0:
266,139,91864,2,0,P|232:185|246:256,1,103.499996841431,8|8,3:1|0:1,0:0:0:0:
373,314,92190,1,8,0:1:0:0:
373,314,92298,2,0,P|349:261|280:238,1,103.499996841431,8|8,3:1|0:1,0:0:0:0:
170,301,92733,1,8,3:1:0:0:
292,63,92951,5,8,0:1:0:0:
68,171,93168,2,0,P|93:174|121:189,1,51.7499984207154,8|8,3:1|0:1,0:0:0:0:
166,112,93385,2,0,P|191:110|219:94,1,51.7499984207154,8|8,0:1|0:1,0:0:0:0:
264,171,93603,2,0,P|289:174|317:189,1,51.7499984207154,8|8,3:1|0:1,0:0:0:0:
362,112,93820,2,0,P|387:110|415:94,1,51.7499984207154,8|8,0:1|0:1,0:0:0:0:
508,191,94037,5,8,3:1:0:0:
508,191,94146,1,8,0:1:0:0:
508,191,94255,2,0,L|490:254,1,51.7499984207154,8|8,0:1|0:1,0:0:0:0:
416,303,94472,1,8,3:1:0:0:
416,303,94581,1,8,0:1:0:0:
416,303,94690,2,0,L|434:366,3,51.7499984207154,8|8|8|8,0:1|0:1|3:1|0:1,0:0:0:0:
341,246,95124,5,8,0:1:0:0:
332,239,95233,1,8,0:1:0:0:
322,234,95342,1,8,3:1:0:0:
311,231,95451,1,8,0:1:0:0:
300,229,95559,1,8,0:1:0:0:
289,230,95668,1,8,0:1:0:0:
279,234,95777,5,8,3:1:0:0:
291,270,95885,1,8,0:1:0:0:
304,306,95994,1,8,0:1:0:0:
316,342,96103,1,8,0:1:0:0:
329,378,96212,5,8,3:1:0:0:
338,326,96320,1,8,0:1:0:0:
347,274,96429,1,8,0:1:0:0:
356,221,96538,1,8,0:1:0:0:
365,170,96647,5,8,3:1:0:0:
304,192,96755,1,8,0:1:0:0:
243,215,96864,1,8,0:1:0:0:
183,237,96973,1,8,0:1:0:0:
123,259,97081,5,8,3:1:0:0:
184,306,97189,1,8,0:1:0:0:
260,289,97298,1,8,0:1:0:0:
325,330,97407,1,8,0:1:0:0:
398,290,97531,6,0,L|490:320,1,97.7500018644333,0|0,3:0|0:0,0:0:0:0:
329,249,97965,2,0,P|322:218|345:178,1,48.8750009322167,8|0,0:1|0:0,0:0:0:0:
383,137,98183,2,0,P|389:106|366:66,1,48.8750009322167,0|0,3:0|0:0,0:0:0:0:
329,25,98400,2,0,L|194:77,1,97.7500018644333,0|0,3:0|3:0,0:0:0:0:
166,245,98835,6,0,P|148:228|139:205,1,48.8750009322167,8|0,3:1|0:0,0:0:0:0:
259,143,99052,2,0,P|253:166|238:185,1,48.8750009322167,0|0,3:0|0:0,0:0:0:0:
74,82,99270,2,0,L|209:134,1,97.7500018644333,0|0,3:0|0:0,0:0:0:0:
259,276,99704,6,0,L|315:257,1,48.8750009322167,8|0,0:1|0:0,0:0:0:0:
376,181,99922,2,0,L|432:200,1,48.8750009322167,0|0,3:0|0:0,0:0:0:0:
493,276,100139,2,0,P|481:322|441:349,1,97.7500018644333,0|0,3:0|3:0,0:0:0:0:
279,384,100574,6,0,P|258:371|234:368,1,48.8750009322167,8|0,3:1|0:0,0:0:0:0:
161,289,100791,2,0,P|140:301|116:304,1,48.8750009322167,0|0,3:0|0:0,0:0:0:0:
0,384,101009,2,0,B|27:260,1,97.7500018644333,0|0,3:0|0:0,0:0:0:0:
136,93,101444,6,0,P|153:109|162:132,1,48.8750009322167,8|0,0:1|0:0,0:0:0:0:
43,195,101661,2,0,P|48:171|63:152,1,48.8750009322167,0|0,3:0|0:0,0:0:0:0:
228,256,101879,2,0,L|93:204,1,97.7500018644333,0|0,3:0|3:0,0:0:0:0:
52,54,102313,1,8,3:1:0:0:
122,218,102531,1,0,3:0:0:0:
279,70,102748,6,0,P|292:50|293:25,1,48.8750009322167,0|0,3:0|0:0,0:0:0:0:
371,168,102965,2,0,P|357:148|356:123,1,48.8750009322167
270,68,103183,6,0,P|283:48|284:23,1,48.8750009322167,8|0,0:1|0:0,0:0:0:0:
383,165,103400,2,0,P|369:145|368:120,1,48.8750009322167,0|0,3:0|0:0,0:0:0:0:
279,266,103617,6,0,P|292:246|293:221,1,48.8750009322167,0|0,3:0|0:0,0:0:0:0:
371,364,103835,2,0,P|357:344|356:319,1,48.8750009322167,0|0,3:0|0:0,0:0:0:0:
243,162,104052,1,8,3:1:0:0:
395,249,104270,2,0,L|452:225,1,48.8750009322167,0|0,3:0|0:0,0:0:0:0:
269,357,104487,6,0,P|241:352|219:334,1,57.5,8|0,3:2|0:0,0:0:0:0:
117,353,104704,2,0,P|107:325|112:296,1,57.5,8|0,0:2|0:0,0:0:0:0:
0,227,104922,6,0,L|109:191,1,115,8|8,0:1|3:2,0:0:0:0:
124,193,105248,1,8,0:2:0:0:
133,201,105357,1,8,3:2:0:0:
254,79,105574,2,0,P|282:78|307:91,1,57.5,8|0,3:2|0:0,0:0:0:0:
263,238,105791,6,0,P|248:213|247:185,1,57.5,8|8,3:1|0:2,0:0:0:0:
422,88,106009,1,8,3:2:0:0:
431,100,106118,1,8,0:2:0:0:
433,117,106226,2,0,P|410:167|355:190,1,115,8|8,3:2|0:2,0:0:0:0:
130,357,106661,6,0,L|166:248,1,115,8|8,0:1|3:2,0:0:0:0:
164,233,106987,1,8,0:2:0:0:
156,224,107096,1,8,3:2:0:0:
267,310,107313,2,0,L|322:294,1,57.5,8|0,3:2|0:0,0:0:0:0:
412,205,107531,6,0,L|356:189,1,57.5,8|8,3:1|0:2,0:0:0:0:
214,88,107748,1,8,3:2:0:0:
208,101,107857,1,8,0:2:0:0:
211,115,107965,2,0,L|322:83,1,115,8|8,3:2|0:2,0:0:0:0:
507,211,108400,6,0,P|492:265|443:292,1,115,8|8,0:1|3:2,0:0:0:0:
429,289,108726,1,8,0:2:0:0:
420,281,108835,1,8,3:2:0:0:
288,384,109052,2,0,L|267:293,1,57.5,8|0,3:2|0:0,0:0:0:0:
169,242,109270,6,0,L|148:333,1,57.5,8|8,3:1|0:2,0:0:0:0:
0,378,109487,1,8,3:2:0:0:
13,384,109596,1,8,0:2:0:0:
27,381,109704,6,0,P|25:349|14:323,1,57.5,8|0,3:2|0:0,0:0:0:0:
84,252,109922,2,0,P|86:220|97:194,1,57.5,8|0,0:2|0:0,0:0:0:0:
36,384,110139,6,0,P|34:352|23:326,1,57.5,8|8,0:1|0:2,0:0:0:0:
93,255,110357,2,0,P|95:223|106:197,1,57.5,8|8,3:2|0:2,0:0:0:0:
24,87,110574,5,8,3:2:0:0:
29,97,110791,1,8,3:2:0:0:
33,106,111009,2,0,L|20:142,2,34.5,8|0|0,0:1|0:0|0:0,0:0:0:0:
