osu file format v14

[General]
AudioFilename: audio.mp3
AudioLeadIn: 0
PreviewTime: 97416
Countdown: 0
SampleSet: Soft
StackLeniency: 0.3
Mode: 0
LetterboxInBreaks: 0
WidescreenStoryboard: 0

[Editor]
Bookmarks: 149,14047,27960,41873,69699,81873,90568,95786,97540,104496
DistanceSpacing: 0.3
BeatDivisor: 4
GridSize: 32
TimelineZoom: 2.999999

[Metadata]
Title:WHO'S READY FOR TOMORROW
TitleUnicode:WHO'S READY FOR TOMORROW
Artist:Rat Boy & IBDY
ArtistUnicode:Rat Boy & IBDY
Creator:- Aqua
Version:CYBERPSYCHOSIS
Source:Cyberpunk: Edgerunners
Tags:melleganol imaginative Ryxliee anime english hip-hop alternative cyberpunk 2077 CD Projekt Red Radio Vol. 2 Original Video Game Soundtrack hiphop hip hop project volume OST trigger whos
BeatmapID:3960515
BeatmapSetID:1872060

[Difficulty]
HPDrainRate:5
CircleSize:4.2
OverallDifficulty:8
ApproachRate:9
SliderMultiplier:2.1
SliderTickRate:1

[Events]
//Background and Video events
0,0,"BG.png",0,0
//Break Periods
//Storyboard Layer 0 (Background)
//Storyboard Layer 1 (Fail)
//Storyboard Layer 2 (Pass)
//Storyboard Layer 3 (Foreground)
//Storyboard Layer 4 (Overlay)
//Storyboard Sound Samples

[TimingPoints]
149,434.782608695652,4,2,0,40,1,0
149,-161.290322580645,4,2,0,40,0,0
6996,-100,4,2,0,5,0,0
7105,-161.290322580645,4,2,1,40,0,0
13627,-384.615384615385,4,2,1,40,0,0
13953,-100,4,2,1,5,0,0
14047,434.782608695652,4,2,2,70,1,0
14047,-81.9672131147541,4,2,2,70,0,0
14373,-100,4,2,2,5,0,0
14481,-92.5925925925926,4,2,1,70,0,0
14807,-100,4,2,1,5,0,0
14915,-92.5925925925926,4,2,1,70,0,0
15025,-100,4,2,2,70,0,0
15133,-92.5925925925926,4,2,2,70,0,0
15242,-100,4,2,2,5,0,0
15350,-92.5925925925926,4,2,1,70,0,0
15568,-92.5925925925926,4,2,2,70,0,0
15677,-92.5925925925926,4,2,1,70,0,0
15786,-84.0336134453781,4,2,2,70,0,0
16003,-84.0336134453781,4,2,3,70,0,0
16112,-100,4,2,3,5,0,0
16220,-92.5925925925926,4,2,1,70,0,0
16764,-100,4,2,2,70,0,0
16872,-92.5925925925926,4,2,2,70,0,0
17090,-92.5925925925926,4,2,1,70,0,0
17307,-92.5925925925926,4,2,2,70,0,0
17416,-92.5925925925926,4,2,1,70,0,0
17525,-84.0336134453781,4,2,2,70,0,0
17742,-84.0336134453781,4,2,3,70,0,0
17851,-100,4,2,3,5,0,0
17960,-92.5925925925926,4,2,1,70,0,0
18503,-100,4,2,2,70,0,0
18611,-92.5925925925926,4,2,2,70,0,0
18829,-92.5925925925926,4,2,1,70,0,0
19047,-92.5925925925926,4,2,2,70,0,0
19155,-92.5925925925926,4,2,1,70,0,0
19264,-92.5925925925926,4,2,2,70,0,0
19373,-100,4,2,2,5,0,0
19481,-92.5925925925926,4,2,3,70,0,0
19699,-87.719298245614,4,2,1,70,0,0
19807,-100,4,2,1,5,0,0
19915,-92.5925925925926,4,2,1,70,0,0
20133,-83.3333333333333,4,2,1,70,0,0
20242,-100,4,2,2,70,0,0
20350,-92.5925925925926,4,2,2,70,0,0
20568,-92.5925925925926,4,2,3,70,0,0
20677,-100,4,2,3,5,0,0
20786,-92.5925925925926,4,2,3,70,0,0
21003,-81.9672131147541,4,2,2,70,0,0
21329,-100,4,2,2,5,0,0
21437,-92.5925925925926,4,2,1,70,0,0
21764,-100,4,2,1,5,0,0
21872,-92.5925925925926,4,2,1,70,0,0
21981,-100,4,2,2,70,0,0
22089,-92.5925925925926,4,2,2,70,0,0
22199,-100,4,2,2,5,0,0
22307,-92.5925925925926,4,2,1,70,0,0
22525,-92.5925925925926,4,2,2,70,0,0
22633,-92.5925925925926,4,2,1,70,0,0
22742,-84.0336134453781,4,2,2,70,0,0
22960,-84.0336134453781,4,2,3,70,0,0
23068,-100,4,2,3,5,0,0
23177,-92.5925925925926,4,2,1,70,0,0
23720,-100,4,2,2,70,0,0
23829,-92.5925925925926,4,2,2,70,0,0
24046,-92.5925925925926,4,2,1,70,0,0
24264,-92.5925925925926,4,2,2,70,0,0
24373,-92.5925925925926,4,2,1,70,0,0
24481,-84.0336134453781,4,2,2,70,0,0
24699,-84.0336134453781,4,2,3,70,0,0
24807,-100,4,2,3,5,0,0
24916,-92.5925925925926,4,2,1,70,0,0
25460,-100,4,2,2,70,0,0
25568,-92.5925925925926,4,2,2,70,0,0
25786,-92.5925925925926,4,2,1,70,0,0
26003,-92.5925925925926,4,2,2,70,0,0
26112,-92.5925925925926,4,2,1,70,0,0
26220,-84.0336134453781,4,2,2,70,0,0
26546,-100,4,2,2,5,0,0
26655,-92.5925925925926,4,2,1,70,0,0
27199,-92.5925925925926,4,2,2,70,0,0
27525,-92.5925925925926,4,2,3,70,0,0
27633,-100,4,2,3,5,0,0
27741,-92.5925925925926,4,2,3,70,0,0
27851,-100,4,2,3,5,0,0
27959,-227.272727272727,4,2,2,50,0,0
28394,-227.272727272727,4,2,4,50,0,0
41764,-100,4,2,4,5,0,0
41873,-81.9672131147541,4,2,2,65,0,0
42199,-100,4,2,2,5,0,0
42307,-92.5925925925926,4,2,1,65,0,0
42851,-92.5925925925926,4,2,2,65,0,0
43177,-92.5925925925926,4,2,1,65,0,0
43394,-92.5925925925926,4,2,2,65,0,0
43503,-92.5925925925926,4,2,1,65,0,0
43612,-84.0336134453781,4,2,2,65,0,0
43938,-100,4,2,2,5,0,0
44046,-92.5925925925926,4,2,1,65,0,0
44590,-92.5925925925926,4,2,2,65,0,0
44916,-92.5925925925926,4,2,1,65,0,0
45133,-92.5925925925926,4,2,2,65,0,0
45242,-92.5925925925926,4,2,1,65,0,0
45351,-84.0336134453781,4,2,2,65,0,0
45677,-100,4,2,2,5,0,0
45786,-92.5925925925926,4,2,1,65,0,0
46329,-92.5925925925926,4,2,2,65,0,0
46655,-92.5925925925926,4,2,1,65,0,0
46873,-92.5925925925926,4,2,2,65,0,0
46981,-92.5925925925926,4,2,1,65,0,0
47090,-84.0336134453781,4,2,2,65,0,0
47416,-100,4,2,2,5,0,0
47525,-92.5925925925926,4,2,1,65,0,0
48068,-92.5925925925926,4,2,2,65,0,0
48394,-92.5925925925926,4,2,3,65,0,0
48829,-81.9672131147541,4,2,2,65,0,0
49155,-100,4,2,2,5,0,0
49264,-92.5925925925926,4,2,1,65,0,0
49807,-92.5925925925926,4,2,2,65,0,0
50133,-92.5925925925926,4,2,1,65,0,0
50351,-92.5925925925926,4,2,2,65,0,0
50460,-92.5925925925926,4,2,1,65,0,0
50568,-84.0336134453781,4,2,2,65,0,0
50894,-100,4,2,2,5,0,0
51003,-92.5925925925926,4,2,1,65,0,0
51546,-92.5925925925926,4,2,2,65,0,0
51873,-92.5925925925926,4,2,1,65,0,0
52090,-92.5925925925926,4,2,2,65,0,0
52199,-92.5925925925926,4,2,1,65,0,0
52307,-84.0336134453781,4,2,2,65,0,0
52633,-100,4,2,2,5,0,0
52742,-92.5925925925926,4,2,1,65,0,0
53286,-92.5925925925926,4,2,2,65,0,0
53612,-92.5925925925926,4,2,1,65,0,0
53829,-92.5925925925926,4,2,2,65,0,0
53938,-92.5925925925926,4,2,1,65,0,0
54046,-84.0336134453781,4,2,2,65,0,0
54373,-100,4,2,2,5,0,0
54481,-92.5925925925926,4,2,1,65,0,0
55025,-92.5925925925926,4,2,2,65,0,0
55351,-92.5925925925926,4,2,3,65,0,0
55786,-81.9672131147541,4,2,2,65,0,0
56112,-100,4,2,2,5,0,0
56220,-92.5925925925926,4,2,1,65,0,0
56764,-92.5925925925926,4,2,2,65,0,0
57090,-92.5925925925926,4,2,1,65,0,0
57307,-92.5925925925926,4,2,2,65,0,0
57416,-92.5925925925926,4,2,1,65,0,0
57525,-84.0336134453781,4,2,2,65,0,0
57851,-100,4,2,2,5,0,0
57960,-92.5925925925926,4,2,1,65,0,0
58503,-92.5925925925926,4,2,2,65,0,0
58829,-92.5925925925926,4,2,1,65,0,0
59046,-92.5925925925926,4,2,2,65,0,0
59155,-92.5925925925926,4,2,1,65,0,0
59264,-84.0336134453781,4,2,2,65,0,0
59590,-100,4,2,2,5,0,0
59699,-92.5925925925926,4,2,1,65,0,0
60242,-92.5925925925926,4,2,2,65,0,0
60568,-92.5925925925926,4,2,1,65,0,0
60786,-92.5925925925926,4,2,2,65,0,0
60894,-92.5925925925926,4,2,1,65,0,0
61003,-84.0336134453781,4,2,2,65,0,0
61329,-100,4,2,2,5,0,0
61438,-92.5925925925926,4,2,1,65,0,0
61981,-92.5925925925926,4,2,2,65,0,0
62307,-92.5925925925926,4,2,3,65,0,0
62742,-81.9672131147541,4,2,2,65,0,0
63068,-100,4,2,2,5,0,0
63176,-92.5925925925926,4,2,1,65,0,0
63720,-92.5925925925926,4,2,2,65,0,0
64046,-92.5925925925926,4,2,1,65,0,0
64264,-92.5925925925926,4,2,2,65,0,0
64373,-92.5925925925926,4,2,1,65,0,0
64481,-84.0336134453781,4,2,2,65,0,0
64807,-100,4,2,2,5,0,0
64916,-92.5925925925926,4,2,1,65,0,0
65460,-92.5925925925926,4,2,2,65,0,0
65786,-92.5925925925926,4,2,1,65,0,0
66003,-92.5925925925926,4,2,2,65,0,0
66112,-92.5925925925926,4,2,1,65,0,0
66220,-84.0336134453781,4,2,2,65,0,0
66546,-100,4,2,2,5,0,0
66655,-92.5925925925926,4,2,1,65,0,0
67199,-92.5925925925926,4,2,2,65,0,0
67525,-92.5925925925926,4,2,1,65,0,0
67742,-92.5925925925926,4,2,2,65,0,0
67851,-92.5925925925926,4,2,1,65,0,0
67960,-84.0336134453781,4,2,2,65,0,0
68286,-100,4,2,2,5,0,0
68395,-92.5925925925926,4,2,1,65,0,0
68938,-92.5925925925926,4,2,2,65,0,0
69264,-92.5925925925926,4,2,3,65,0,0
69590,-100,4,2,2,5,0,0
69699,-227.272727272727,4,2,2,50,0,0
70133,-227.272727272727,4,2,4,50,0,0
81873,-227.272727272727,4,2,3,50,0,0
82307,-227.272727272727,4,2,4,50,0,0
83177,-100,4,2,5,50,0,0
83612,-178.571428571429,4,2,2,50,0,0
84046,-178.571428571429,4,2,4,50,0,0
90568,-156.25,4,2,2,50,0,0
90677,-156.25,4,2,5,50,0,0
91003,-156.25,4,2,6,50,0,0
91112,-156.25,4,2,5,50,0,0
91220,-156.25,4,2,6,50,0,0
91329,-156.25,4,2,5,50,0,0
91873,-156.25,4,2,6,50,0,0
91981,-156.25,4,2,5,50,0,0
92307,-156.25,4,2,5,52,0,0
92742,-156.25,4,2,6,52,0,0
92851,-156.25,4,2,5,52,0,0
92960,-156.25,4,2,6,52,0,0
93068,-156.25,4,2,5,52,0,0
93612,-156.25,4,2,6,52,0,0
93720,-156.25,4,2,5,52,0,0
94046,-156.25,4,2,5,55,0,0
94481,-156.25,4,2,6,55,0,0
94590,-156.25,4,2,5,55,0,0
94699,-156.25,4,2,6,55,0,0
94807,-156.25,4,2,5,55,0,0
95351,-156.25,4,2,6,55,0,0
95460,-156.25,4,2,5,55,0,0
95786,-156.25,4,2,5,58,0,0
96220,-113.636363636364,4,2,6,58,0,0
96329,-113.636363636364,4,2,5,58,0,0
96438,-113.636363636364,4,2,6,58,0,0
96546,-113.636363636364,4,2,5,58,0,0
97091,-113.636363636364,4,2,6,58,0,0
97199,-113.636363636364,4,2,5,58,0,0
97540,434.782608695652,4,2,2,65,1,0
97540,-151.515151515152,4,2,2,65,0,0
97974,-151.515151515152,4,2,3,65,0,0
98192,-151.515151515152,4,2,2,65,0,0
98844,-151.515151515152,4,2,3,65,0,0
99279,-151.515151515152,4,2,2,65,0,0
99713,-151.515151515152,4,2,3,65,0,0
99931,-151.515151515152,4,2,2,65,0,0
100583,-151.515151515152,4,2,3,65,0,0
101018,-151.515151515152,4,2,2,65,0,0
101453,-151.515151515152,4,2,3,65,0,0
101670,-151.515151515152,4,2,2,65,0,0
102322,-151.515151515152,4,2,3,65,0,0
102757,-151.515151515152,4,2,2,65,0,0
103192,-151.515151515152,4,2,3,65,0,0
103409,-151.515151515152,4,2,2,65,0,0
104061,-151.515151515152,4,2,3,65,0,0
104496,-140.845070422535,4,2,1,65,0,0
104605,-140.845070422535,4,2,2,65,0,0
104713,-140.845070422535,4,2,1,65,0,0
104822,-140.845070422535,4,2,2,65,0,0
104931,-140.845070422535,4,2,1,65,0,0
105040,-140.845070422535,4,2,2,65,0,0
105148,-140.845070422535,4,2,1,65,0,0
105474,-140.845070422535,4,2,2,65,0,0
105583,-140.845070422535,4,2,1,65,0,0
105692,-140.845070422535,4,2,2,65,0,0
105800,-140.845070422535,4,2,1,65,0,0
105909,-140.845070422535,4,2,2,65,0,0
106018,-140.845070422535,4,2,1,65,0,0
106344,-140.845070422535,4,2,2,65,0,0
106453,-140.845070422535,4,2,1,65,0,0
106561,-140.845070422535,4,2,2,65,0,0
106670,-140.845070422535,4,2,1,65,0,0
106779,-140.845070422535,4,2,2,65,0,0
106887,-140.845070422535,4,2,1,65,0,0
107213,-140.845070422535,4,2,2,65,0,0
107322,-140.845070422535,4,2,1,65,0,0
107431,-140.845070422535,4,2,2,65,0,0
107540,-140.845070422535,4,2,1,65,0,0
107648,-140.845070422535,4,2,2,65,0,0
107757,-140.845070422535,4,2,1,65,0,0
108083,-140.845070422535,4,2,2,65,0,0
108192,-140.845070422535,4,2,1,65,0,0
108300,-140.845070422535,4,2,2,65,0,0
108409,-140.845070422535,4,2,1,65,0,0
108518,-140.845070422535,4,2,2,65,0,0
108626,-140.845070422535,4,2,1,65,0,0
108953,-140.845070422535,4,2,2,65,0,0
109061,-140.845070422535,4,2,1,65,0,0
109170,-140.845070422535,4,2,2,65,0,0
109279,-140.845070422535,4,2,1,65,0,0
109387,-140.845070422535,4,2,2,65,0,0
109496,-140.845070422535,4,2,1,65,0,0
109822,-140.845070422535,4,2,2,65,0,0
109931,-140.845070422535,4,2,1,65,0,0
110040,-140.845070422535,4,2,2,65,0,0
110148,-140.845070422535,4,2,1,65,0,0
110257,-140.845070422535,4,2,2,65,0,0
110366,-140.845070422535,4,2,1,65,0,0
110692,-140.845070422535,4,2,2,65,0,0
110800,-140.845070422535,4,2,1,65,0,0
110909,-140.845070422535,4,2,2,65,0,0
111018,-277.777777777778,4,2,3,65,0,0
111235,-277.777777777778,4,2,2,65,0,0

[Colours]
Combo1 : 211,121,219
Combo2 : 57,106,179
Combo3 : 225,204,51
Combo4 : 210,197,189
Combo5 : 104,168,168
Combo6 : 172,94,91

[HitObjects]
487,36,149,6,0,B|520:58|520:58|486:141,1,130.199994834595
487,148,1018,6,0,B|520:64|520:64|487:42,1,130.199994834595
322,330,1888,6,0,P|383:350|445:370,1,130.199994834595
447,376,2757,6,0,P|385:354|323:334,1,130.199994834595
0,75,3627,6,0,P|47:114|32:174,1,130.199994834595
32,181,4496,6,0,P|47:121|0:81,1,130.199994834595
160,343,5366,6,0,P|189:356|223:366,1,65.0999974172975
288,325,5801,2,0,P|317:311|351:301,1,65.0999974172975
210,163,6235,5,0,0:0:0:0:
169,94,6453,1,0,0:0:0:0:
239,39,6670,6,0,B|287:22|280:15|328:0,1,97.6499961259462
399,38,7105,5,0,2:2:0:0:
341,135,7322,1,0,2:2:0:0:
382,204,7540,6,0,L|445:219,1,65.0999974172975,0|0,2:2|2:2,0:0:0:0:
511,178,7866,1,0,2:2:0:0:
512,171,7975,5,0,2:2:0:0:
436,295,8192,1,0,2:2:0:0:
358,281,8409,6,0,L|287:297,1,65.0999974172975,0|0,3:3|2:2,0:0:0:0:
230,325,8735,1,0,2:2:0:0:
224,322,8844,5,0,2:2:0:0:
141,245,9062,1,0,2:2:0:0:
179,175,9279,6,0,P|203:155|235:158,1,65.0999974172975,0|0,2:2|2:2,0:0:0:0:
289,214,9605,1,0,2:2:0:0:
289,214,9714,5,0,2:2:0:0:
361,133,9931,1,0,2:2:0:0:
280,0,10148,5,0,3:3:0:0:
226,53,10366,2,0,P|230:68|235:84,1,32.5499987086487,0|0,3:3|2:2,0:0:0:0:
222,47,10583,5,0,2:2:0:0:
126,1,10801,1,0,2:2:0:0:
71,61,11018,6,0,P|61:92|52:123,1,65.0999974172975,0|0,2:2|2:2,0:0:0:0:
13,181,11344,1,0,2:2:0:0:
16,188,11453,5,0,2:2:0:0:
63,279,11670,1,0,2:2:0:0:
135,247,11888,6,0,P|165:257|196:266,1,65.0999974172975,0|0,2:2|2:2,0:0:0:0:
255,311,12214,1,0,2:2:0:0:
322,278,12322,6,0,P|344:255|346:224,1,65.0999974172975,0|0,2:2|2:2,0:0:0:0:
418,133,12757,6,0,P|397:108|366:104,1,65.0999974172975,0|0,2:2|2:2,0:0:0:0:
300,136,13083,1,0,2:2:0:0:
295,134,13192,5,0,2:2:0:0:
225,54,13409,1,0,2:2:0:0:
112,178,13627,6,0,P|92:185|73:190,1,40.949999750061
0,220,14047,6,0,B|43:202|75:247|75:247|29:287|46:340,1,192.149992083664,4|0,3:2|0:0,0:0:0:0:
120,312,14481,1,8,2:2:0:0:
312,339,14699,6,0,P|338:347|365:357,1,56.7000013842774,2|0,3:2|0:0,0:0:0:0:
458,266,14916,2,0,P|430:274|403:284,1,56.7000013842774,2|0,2:2|2:2,0:0:0:0:
329,187,15133,2,0,P|355:195|382:205,1,56.7000013842774,2|0,3:2|0:0,0:0:0:0:
345,85,15351,5,10,2:2:0:0:
321,76,15460,1,0,2:2:0:0:
256,111,15568,1,2,2:2:0:0:
248,122,15677,1,0,2:2:0:0:
167,155,15786,6,0,P|87:105|0:73,1,187.424996282158,6|0,3:2|0:0,0:0:0:0:
108,27,16220,2,0,P|57:52|2:68,1,113.400002768555,8|2,2:2|3:2,0:0:0:0:
0,259,16655,6,0,P|13:283|38:294,1,56.7000013842774,2|0,2:2|2:2,0:0:0:0:
107,271,16873,1,0,3:3:0:0:
201,344,17090,5,10,2:2:0:0:
224,335,17199,1,0,2:2:0:0:
292,368,17307,1,2,2:2:0:0:
306,377,17416,1,0,2:2:0:0:
369,324,17525,6,0,B|466:298|414:239|512:214,1,187.424996282158,6|0,3:2|0:0,0:0:0:0:
512,290,17960,2,0,P|458:279|434:230,1,113.400002768555,8|2,2:2|3:2,0:0:0:0:
345,39,18394,6,0,P|335:65|326:92,1,56.7000013842774,2|0,2:2|2:2,0:0:0:0:
349,31,18612,1,2,3:2:0:0:
170,165,18829,5,10,2:2:0:0:
125,186,18938,1,0,2:2:0:0:
62,136,19047,1,2,2:2:0:0:
55,130,19155,1,0,2:2:0:0:
154,33,19264,6,0,B|169:9|169:9|159:35,1,56.7000013842774,6|0,3:2|0:0,0:0:0:0:
129,101,19481,1,2,2:2:0:0:
25,264,19699,6,0,B|8:239|8:239|17:269,1,59.8499992694092,10|0,2:2|0:0,0:0:0:0:
50,332,19916,1,2,3:2:0:0:
270,198,20133,6,0,B|286:170|286:171|286:171|275:200,1,62.9999980773926,2|0,2:2|2:2,0:0:0:0:
247,267,20351,1,2,3:2:0:0:
398,373,20568,6,0,P|378:352|352:341,1,56.7000013842774,10|0,2:2|0:0,0:0:0:0:
275,344,20786,2,0,P|255:364|229:375,1,56.7000013842774,10|0,2:2|0:0,0:0:0:0:
344,251,21003,6,0,B|389:197|457:223|457:223|427:243|424:278,1,192.149992083664,6|0,3:2|0:0,0:0:0:0:
498,290,21438,1,8,2:2:0:0:
343,157,21655,6,0,P|329:132|332:104,1,56.7000013842774,2|0,3:2|0:0,0:0:0:0:
432,21,21873,2,0,P|417:44|392:56,1,56.7000013842774,2|0,2:2|2:2,0:0:0:0:
270,12,22090,2,0,P|297:12|320:28,1,56.7000013842774,2|0,3:2|0:0,0:0:0:0:
213,142,22307,5,10,2:2:0:0:
194,155,22416,1,0,2:2:0:0:
132,198,22525,1,2,2:2:0:0:
122,193,22633,1,0,2:2:0:0:
58,135,22742,6,0,P|81:225|105:316,1,187.424996282158,6|0,3:2|0:0,0:0:0:0:
176,372,23177,2,0,P|229:359|248:308,1,113.400002768555,8|0,2:2|3:3,0:0:0:0:
343,157,23612,6,0,P|368:145|395:135,1,56.7000013842774,2|0,2:2|2:2,0:0:0:0:
465,112,23829,1,2,3:2:0:0:
359,333,24046,5,10,2:2:0:0:
325,349,24155,1,0,2:2:0:0:
254,315,24264,1,2,2:2:0:0:
248,308,24373,1,0,2:2:0:0:
207,205,24481,6,0,B|167:156|220:84|274:120|274:120|264:132|263:150,1,187.424996282158,6|0,3:2|0:0,0:0:0:0:
343,157,24916,2,0,B|357:152|357:152|345:54,1,113.400002768555,8|0,2:2|3:3,0:0:0:0:
399,237,25351,6,0,P|421:256|448:262,1,56.7000013842774,2|0,2:2|2:2,0:0:0:0:
512,227,25568,1,2,3:2:0:0:
345,54,25786,5,10,2:2:0:0:
314,45,25894,1,0,2:2:0:0:
252,6,26003,1,2,2:2:0:0:
235,13,26112,1,0,2:2:0:0:
185,104,26220,6,0,B|83:87|128:30|28:11,1,187.424996282158,6|0,3:2|0:0,0:0:0:0:
32,92,26655,2,0,L|8:215,1,113.400002768555,10|0,2:2|3:3,0:0:0:0:
0,374,27090,5,0,2:2:0:0:
60,321,27307,1,0,3:3:0:0:
199,357,27525,6,0,P|226:365|252:375,1,56.7000013842774,10|0,2:2|0:0,0:0:0:0:
322,343,27742,2,0,P|347:331|374:323,1,56.7000013842774,8|0,2:2|0:0,0:0:0:0:
461,328,27960,5,4,3:2:0:0:
305,148,28394,5,8,2:2:0:0:
303,141,28612,1,10,2:2:0:0:
97,321,29264,6,0,P|87:299|74:280,1,46.2000014099121,10|2,2:2|2:2,0:0:0:0:
98,331,29699,5,2,2:2:0:0:
185,42,30133,5,8,2:2:0:0:
187,49,30351,1,8,2:2:0:0:
321,227,31003,6,0,P|312:248|304:269,1,46.2000014099121,10|0,2:2|0:0,0:0:0:0:
302,279,31438,5,2,2:2:0:0:
15,159,31873,5,8,2:2:0:0:
18,165,32090,1,10,2:2:0:0:
297,35,32742,6,0,P|274:29|256:15,1,46.2000014099121,8|0,2:2|0:0,0:0:0:0:
306,33,33177,5,2,2:2:0:0:
494,242,33612,5,8,2:2:0:0:
491,248,33829,1,8,2:2:0:0:
323,147,34481,6,0,P|345:153|366:161,1,46.2000014099121,8|0,2:2|0:0,0:0:0:0:
255,178,34916,5,0,0:0:0:0:
157,368,35351,5,8,2:2:0:0:
159,374,35569,1,10,2:2:0:0:
83,159,36220,6,0,P|95:178|103:199,1,46.2000014099121,10|2,2:2|2:2,0:0:0:0:
106,207,36655,5,2,2:2:0:0:
233,9,37090,5,8,2:2:0:0:
236,14,37308,1,10,2:2:0:0:
440,193,37960,6,0,P|459:180|480:172,1,46.2000014099121,10|2,2:2|2:2,0:0:0:0:
432,200,38395,5,2,2:2:0:0:
504,8,38830,5,8,2:2:0:0:
507,14,39047,1,10,2:2:0:0:
213,233,39699,6,0,P|204:211|206:189,1,46.2000014099121,8|0,2:2|0:0,0:0:0:0:
279,202,40133,5,2,2:2:0:0:
493,367,40568,5,8,2:2:0:0:
491,374,40786,1,8,2:2:0:0:
300,119,41438,6,0,B|289:105|289:84|289:84|293:103|303:114,1,69.3000021148682,8|0,2:2|0:0,0:0:0:0:
380,109,41873,6,0,P|289:141|205:189,1,192.149992083664,4|0,3:2|0:0,0:0:0:0:
140,233,42307,1,8,2:2:0:0:
21,116,42525,1,0,3:3:0:0:
148,242,42742,6,0,P|196:271|249:290,1,113.400002768555,0|0,2:2|3:3,0:0:0:0:
471,375,43177,5,8,2:2:0:0:
468,366,43286,2,0,P|460:338|453:311,1,56.7000013842774,0|0,2:2|2:2,0:0:0:0:
407,251,43503,1,0,2:2:0:0:
486,206,43612,6,0,P|400:221|359:144,1,187.424996282158,4|0,3:2|0:0,0:0:0:0:
418,97,44046,1,8,2:2:0:0:
313,247,44264,1,0,3:3:0:0:
425,90,44481,6,0,P|441:38|402:0,1,113.400002768555,0|0,2:2|3:3,0:0:0:0:
214,222,44916,5,8,2:2:0:0:
200,235,45025,2,0,P|173:244|147:256,1,56.7000013842774,0|0,2:2|2:2,0:0:0:0:
86,291,45242,1,0,2:2:0:0:
15,225,45351,6,0,B|-39:173|0:111|0:111|-9:145|9:170,1,187.424996282158,4|0,3:2|0:0,0:0:0:0:
71,130,45786,1,8,2:2:0:0:
11,304,46003,1,0,3:3:0:0:
139,165,46220,6,0,P|188:136|242:119,1,113.400002768555,0|0,2:2|3:3,0:0:0:0:
326,275,46655,5,8,2:2:0:0:
321,264,46764,2,0,P|303:241|278:229,1,56.7000013842774,0|0,2:2|2:2,0:0:0:0:
200,235,46981,1,0,2:2:0:0:
306,157,47090,6,0,B|405:184|355:236|452:265,1,187.424996282158,4|0,3:2|0:0,0:0:0:0:
512,222,47525,1,8,2:2:0:0:
383,355,47742,1,0,3:3:0:0:
512,214,47960,5,0,2:2:0:0:
458,121,48177,1,0,3:3:0:0:
302,245,48394,6,0,P|274:253|249:265,1,56.7000013842774,8|0,2:2|0:0,0:0:0:0:
176,241,48612,2,0,P|150:228|123:220,1,56.7000013842774,8|0,2:2|0:0,0:0:0:0:
108,134,48829,6,0,B|131:157|131:157|79:272|79:272|103:296,1,192.149992083664,4|0,3:2|0:0,0:0:0:0:
166,339,49264,1,8,2:2:0:0:
35,189,49481,1,0,3:3:0:0:
162,343,49699,6,0,P|117:375|64:362,1,113.400002768555,0|0,2:2|3:3,0:0:0:0:
206,149,50133,5,8,2:2:0:0:
218,152,50242,2,0,P|244:162|270:173,1,56.7000013842774,0|0,2:2|2:2,0:0:0:0:
328,126,50460,1,0,2:2:0:0:
265,35,50568,6,0,B|220:-16|154:22|154:22|180:44|176:79,1,187.424996282158,4|0,3:2|0:0,0:0:0:0:
99,79,51003,1,8,2:2:0:0:
190,239,51220,1,0,3:3:0:0:
0,283,51438,6,0,P|30:237|86:236,1,113.400002768555,0|0,2:2|3:3,0:0:0:0:
266,337,51873,5,8,2:2:0:0:
275,340,51981,2,0,P|301:349|328:358,1,56.7000013842774,0|0,2:2|2:2,0:0:0:0:
390,320,52199,1,0,2:2:0:0:
347,206,52307,6,0,B|298:167|335:85|395:110|395:110|388:123|391:141,1,187.424996282158,4|0,3:2|0:0,0:0:0:0:
466,137,52742,1,8,2:2:0:0:
331,2,52960,1,0,3:3:0:0:
471,142,53177,6,0,P|449:194|429:247,1,113.400002768555,0|0,2:2|3:3,0:0:0:0:
218,188,53612,5,8,2:2:0:0:
208,178,53720,2,0,P|192:154|195:126,1,56.7000013842774,0|0,2:2|2:2,0:0:0:0:
237,67,53938,1,0,2:2:0:0:
166,0,54046,6,0,B|64:21|121:82|16:100,1,187.424996282158,4|0,3:2|0:0,0:0:0:0:
20,23,54481,1,8,2:2:0:0:
127,145,54699,1,0,3:3:0:0:
0,271,54916,5,0,2:2:0:0:
55,360,55133,1,0,3:3:0:0:
185,244,55351,6,0,P|210:231|237:223,1,56.7000013842774,8|0,2:2|0:0,0:0:0:0:
307,251,55568,2,0,P|332:264|359:272,1,56.7000013842774,8|0,2:2|0:0,0:0:0:0:
486,314,55786,6,0,B|446:290|435:241|435:241|428:237|428:237|441:293|412:327,1,192.149992083664,4|0,3:2|0:0,0:0:0:0:
460,381,56220,1,8,2:2:0:0:
512,229,56438,1,0,3:3:0:0:
323,111,56655,6,0,P|332:138|340:165,1,56.7000013842774,0|0,2:2|2:2,0:0:0:0:
259,157,56873,2,0,P|251:129|243:102,1,56.7000013842774,0|0,3:3|0:0,0:0:0:0:
149,44,57090,5,8,2:2:0:0:
136,57,57199,1,0,2:2:0:0:
93,115,57307,1,0,2:2:0:0:
96,132,57416,1,0,2:2:0:0:
142,209,57525,6,0,P|79:146|-1:181,1,187.424996282158,4|0,3:2|0:0,0:0:0:0:
0,251,57960,1,8,2:2:0:0:
40,61,58177,1,0,3:3:0:0:
4,258,58394,6,0,P|53:284|93:325,1,113.400002768555,0|0,2:2|3:3,0:0:0:0:
281,228,58829,5,8,2:2:0:0:
302,205,58938,1,0,2:2:0:0:
306,128,59046,1,0,2:2:0:0:
303,119,59155,1,0,2:2:0:0:
233,50,59264,6,0,B|161:66|161:66|145:111|145:111|80:126,1,187.424996282158,4|0,3:2|0:0,0:0:0:0:
5,123,59699,1,8,2:2:0:0:
91,278,59916,1,0,3:3:0:0:
2,115,60133,6,0,B|14:55|39:76|54:17,1,113.400002768555,0|0,2:2|3:3,0:0:0:0:
269,117,60568,5,8,2:2:0:0:
288,108,60677,1,0,2:2:0:0:
351,65,60786,1,0,2:2:0:0:
369,72,60894,1,0,2:2:0:0:
429,115,61003,6,0,B|410:141|382:146|382:146|428:267,1,187.424996282158,4|0,3:2|0:0,0:0:0:0:
460,339,61438,1,8,2:2:0:0:
512,184,61655,1,0,3:3:0:0:
346,368,61873,6,0,P|322:354|296:344,1,56.7000013842774,0|0,2:2|2:2,0:0:0:0:
265,272,62090,2,0,P|241:287|215:297,1,56.7000013842774,0|0,3:3|0:0,0:0:0:0:
73,222,62307,6,0,P|91:200|117:191,1,56.7000013842774,8|0,2:2|0:0,0:0:0:0:
150,118,62525,2,0,P|174:131|188:155,1,56.7000013842774,8|0,2:2|0:0,0:0:0:0:
154,370,62742,6,0,B|111:339|103:299|130:264|130:264|114:301|135:330,1,192.149992083664,4|0,3:2|0:0,0:0:0:0:
197,291,63177,1,8,2:2:0:0:
15,368,63394,1,0,3:3:0:0:
206,289,63612,6,0,P|254:318|307:338,1,113.400002768555,0|0,2:2|3:3,0:0:0:0:
487,275,64046,5,8,2:2:0:0:
496,256,64155,1,0,2:2:0:0:
466,187,64264,1,0,2:2:0:0:
462,175,64373,1,0,2:2:0:0:
512,103,64481,6,0,P|423:132|334:161,1,187.424996282158,4|0,3:2|0:0,0:0:0:0:
262,152,64916,1,8,2:2:0:0:
357,10,65133,1,0,3:3:0:0:
257,159,65351,6,0,B|197:168|217:194|157:206,1,113.400002768555,0|0,2:2|3:3,0:0:0:0:
31,46,65786,5,8,2:2:0:0:
40,64,65894,1,0,2:2:0:0:
95,113,66003,1,0,2:2:0:0:
88,127,66112,1,0,2:2:0:0:
29,211,66220,6,0,B|8:190|-18:194|-18:194|27:165|77:193|87:239,1,187.424996282158,4|0,3:2|0:0,0:0:0:0:
104,308,66655,1,8,2:2:0:0:
219,170,66873,1,0,3:3:0:0:
104,321,67090,6,0,P|124:339|155:342,1,56.7000013842774,0|0,2:2|2:2,0:0:0:0:
224,379,67307,2,0,P|246:362|254:332,1,56.7000013842774,0|0,3:3|0:0,0:0:0:0:
314,240,67525,5,8,2:2:0:0:
309,257,67633,1,0,2:2:0:0:
340,323,67742,1,0,2:2:0:0:
351,331,67851,1,0,2:2:0:0:
414,378,67960,6,0,P|448:290|494:206,1,187.424996282158,4|0,3:2|0:0,0:0:0:0:
512,136,68394,1,8,2:2:0:0:
352,15,68612,1,0,3:3:0:0:
420,141,68829,5,0,2:2:0:0:
484,45,69046,1,0,3:3:0:0:
279,154,69264,6,0,P|252:144|225:135,1,56.7000013842774,8|0,2:2|0:0,0:0:0:0:
171,78,69481,2,0,P|144:87|117:96,1,56.7000013842774,8|0,2:2|0:0,0:0:0:0:
43,147,69699,5,4,3:2:0:0:
0,377,70133,5,8,2:2:0:0:
2,384,70351,1,10,2:2:0:0:
256,301,71003,6,0,P|243:281|222:272,1,46.2000014099121,10|2,2:2|2:2,0:0:0:0:
199,345,71438,5,2,2:2:0:0:
480,182,71872,5,8,2:2:0:0:
486,185,72090,1,8,2:2:0:0:
224,29,72742,6,0,P|233:50|241:71,1,46.2000014099121,10|0,2:2|0:0,0:0:0:0:
220,20,73177,5,2,2:2:0:0:
15,159,73612,5,8,2:2:0:0:
7,156,73829,1,10,2:2:0:0:
252,202,74481,6,0,P|272:191|294:183,1,46.2000014099121,8|0,2:2|0:0,0:0:0:0:
310,182,74916,5,2,2:2:0:0:
486,365,75351,5,8,2:2:0:0:
483,371,75568,1,8,2:2:0:0:
244,314,76220,6,0,P|265:321|280:338,1,46.2000014099121,8|0,2:2|0:0,0:0:0:0:
217,378,76655,5,0,0:0:0:0:
504,79,77090,5,8,2:2:0:0:
506,85,77308,1,10,2:2:0:0:
268,41,77959,6,0,P|289:31|307:17,1,46.2000014099121,10|2,2:2|2:2,0:0:0:0:
258,48,78394,5,2,2:2:0:0:
36,20,78829,5,8,2:2:0:0:
30,30,79047,1,10,2:2:0:0:
167,235,79699,6,0,P|158:213|148:192,1,46.2000014099121,10|2,2:2|2:2,0:0:0:0:
143,182,80134,5,2,2:2:0:0:
380,102,80569,5,8,2:2:0:0:
383,108,80786,1,10,2:2:0:0:
285,327,81438,6,0,P|266:313|243:310,1,46.2000014099121,8|0,2:2|0:0,0:0:0:0:
293,323,81873,6,0,L|308:279,1,46.2000014099121,10|2,3:3|2:2,0:0:0:0:
362,365,82307,1,8,2:2:0:0:
448,302,82525,6,0,L|432:258,1,46.2000014099121,12|0,3:3|0:0,0:0:0:0:
379,183,82960,1,0,0:0:0:0:
510,107,83177,6,0,B|503:119|503:119|507:107,1,26.25,8|0,1:2|0:0,0:0:0:0:
506,102,83612,6,0,P|452:78|396:60,1,117.600001435547,0|8,3:3|2:2,0:0:0:0:
503,0,84264,1,10,2:2:0:0:
386,67,84481,6,0,P|361:82|332:82,1,58.8000007177734,2|2,2:2|2:2,0:0:0:0:
274,136,84916,2,0,P|255:113|228:104,1,58.8000007177734,10|2,2:2|2:2,0:0:0:0:
276,150,85351,6,0,L|251:265,1,117.600001435547,2|8,2:2|2:2,0:0:0:0:
228,369,86003,1,8,2:2:0:0:
231,375,86438,5,2,2:2:0:0:
146,313,86655,2,0,P|118:323|92:337,1,58.8000007177734,10|0,2:2|0:0,0:0:0:0:
153,305,87090,6,0,P|98:282|46:255,1,117.600001435547,2|8,2:2|2:2,0:0:0:0:
84,151,87742,6,0,P|104:171|111:199,1,58.8000007177734,10|0,2:2|0:0,0:0:0:0:
11,135,88177,2,0,P|18:106|39:86,1,58.8000007177734,2|8,2:2|2:2,0:0:0:0:
486,361,88829,6,0,B|419:347|446:325|382:308,1,117.600001435547,2|8,2:2|2:2,0:0:0:0:
286,373,89481,1,8,2:2:0:0:
288,378,90133,6,0,P|280:349|272:321,1,58.8000007177734,8|0,2:2|0:0,0:0:0:0:
382,106,90568,6,0,P|363:170|343:234,1,134.4,8|8,3:2|2:2,0:0:0:0:
272,321,91220,1,10,2:2:0:0:
178,240,91438,6,0,P|154:217|121:211,1,67.2,10|10,2:2|2:2,0:0:0:0:
56,174,91764,1,8,2:2:0:0:
56,174,91873,2,0,P|32:197|0:203,1,67.2,10|10,2:2|2:2,0:0:0:0:
198,14,92307,6,0,B|261:28|261:28|264:34|264:34|325:48,1,134.4,10|8,2:2|2:2,0:0:0:0:
208,137,92960,1,10,2:2:0:0:
337,44,93177,6,0,L|402:28,1,67.2,10|10,2:2|2:2,0:0:0:0:
455,79,93503,1,8,2:2:0:0:
452,92,93612,2,0,L|386:107,1,67.2,10|10,2:2|2:2,0:0:0:0:
505,206,94046,6,0,B|531:296|531:296|498:319,1,134.4,10|8,2:2|2:2,0:0:0:0:
379,375,94699,6,0,P|347:363|315:353,1,67.2,10|8,2:2|2:2,0:0:0:0:
259,276,95133,2,0,P|227:287|195:298,1,67.2,10|8,2:2|2:2,0:0:0:0:
122,329,95460,1,8,2:2:0:0:
115,328,95568,1,8,2:2:0:0:
108,325,95678,1,8,2:2:0:0:
101,323,95786,5,10,2:2:0:0:
66,305,95894,1,8,2:2:0:0:
49,269,96003,1,10,2:2:0:0:
57,230,96112,1,8,2:2:0:0:
86,201,96220,6,0,P|97:180|99:158,1,46.2000014099121,8|8,2:2|2:2,0:0:0:0:
145,93,96438,2,0,P|127:77|105:72,1,46.2000014099121,8|8,2:2|2:2,0:0:0:0:
208,188,96655,5,8,2:2:0:0:
241,200,96764,1,8,2:2:0:0:
280,194,96873,1,8,2:2:0:0:
311,165,96981,1,8,2:2:0:0:
326,118,97090,1,8,2:2:0:0:
341,68,97199,1,8,2:2:0:0:
385,27,97307,1,8,2:2:0:0:
447,19,97416,1,8,2:2:0:0:
508,56,97540,6,0,L|475:190,1,138.599999577026,0|8,3:3|2:2,0:0:0:0:
382,309,98192,1,0,3:3:0:0:
451,371,98409,6,0,P|479:351|512:340,1,69.2999997885132,0|0,0:0|3:3,0:0:0:0:
422,245,98844,5,8,2:2:0:0:
384,314,99061,1,0,0:0:0:0:
280,194,99279,6,0,B|225:206|225:206|212:236|212:236|163:247,1,138.599999577026,0|8,3:3|2:2,0:0:0:0:
17,170,99931,1,0,3:3:0:0:
82,226,100148,6,0,P|91:192|101:159,1,69.2999997885132,0|0,0:0|3:3,0:0:0:0:
108,33,100583,5,8,2:2:0:0:
38,69,100800,1,0,0:0:0:0:
202,117,101018,6,0,B|278:104|245:69|322:54,1,138.599999577026,0|8,3:3|2:2,0:0:0:0:
423,124,101670,1,0,3:3:0:0:
376,203,101887,6,0,P|345:218|312:229,1,69.2999997885132,0|0,0:0|3:3,0:0:0:0:
193,315,102322,5,8,2:2:0:0:
244,375,102540,1,0,0:0:0:0:
182,306,102757,6,0,P|166:275|176:243,1,69.2999997885132,0|0,3:3|0:0,0:0:0:0:
228,185,103192,2,0,P|237:152|222:122,1,69.2999997885132,8|0,2:2|3:3,0:0:0:0:
121,86,103626,5,0,0:0:0:0:
61,135,103844,1,0,3:3:0:0:
0,9,104061,6,0,P|33:18|66:29,1,69.2999997885132,8|0,2:2|0:0,0:0:0:0:
222,121,104496,6,0,P|256:109|293:100,1,74.5499962461092,2|0,3:2|0:0,0:0:0:0:
374,33,104931,1,8,2:2:0:0:
433,119,105148,1,0,3:3:0:0:
438,129,105257,1,0,2:2:0:0:
444,141,105366,6,0,P|437:177|432:213,1,74.5499962461092,2|0,2:2|3:3,0:0:0:0:
462,313,105800,1,10,2:2:0:0:
386,374,106018,1,2,2:2:0:0:
377,371,106126,1,0,2:2:0:0:
368,367,106235,6,0,P|333:354|298:343,1,74.5499962461092,2|2,3:2|2:2,0:0:0:0:
197,382,106670,1,8,2:2:0:0:
134,314,106887,1,0,3:3:0:0:
127,303,106996,1,0,2:2:0:0:
126,290,107105,6,0,P|135:255|167:237,1,74.5499962461092,0|0,2:2|3:3,0:0:0:0:
261,277,107540,1,8,2:2:0:0:
341,205,107757,1,0,2:2:0:0:
343,196,107866,1,0,2:2:0:0:
345,187,107974,6,0,P|334:151|324:115,1,74.5499962461092,2|0,3:2|2:2,0:0:0:0:
280,25,108409,1,8,2:2:0:0:
200,113,108626,1,2,3:2:0:0:
167,131,108735,1,0,2:2:0:0:
131,117,108844,5,2,2:2:0:0:
87,41,109061,1,0,3:3:0:0:
0,119,109279,5,10,2:2:0:0:
51,191,109496,1,2,2:2:0:0:
46,214,109605,1,0,2:2:0:0:
41,237,109714,5,2,3:2:0:0:
100,369,109931,1,0,2:2:0:0:
193,284,110148,5,8,2:2:0:0:
256,353,110366,1,0,3:3:0:0:
292,367,110474,1,0,2:2:0:0:
329,344,110583,5,0,2:2:0:0:
380,265,110800,1,0,3:3:0:0:
477,365,111018,6,0,P|494:370|512:377,1,37.8000009228516,10|0,2:2|3:3,0:0:0:0:
